This file was generated by Ched 2.7.0.0.
#TITLE ""
#ARTIST ""
#DESIGNER ""
#DIFFICULTY 0
#PLAYLEVEL
#SONGID ""
#WAVE ""
#WAVEOFFSET 0
#JACKET ""
#REQUEST "ticks_per_beat 480"
#00002: 4
#BPM01: 193
#00008: 01
#TIL00: ""
#HISPEED 00
#MEASUREHS 00
#00118:1414
#00214:1414
#0031a:1414
#00412:1414
#00418:00140000
#00514:00140000
#0051a:2414
#00612:1414
#00618:00140000
#0071a:1414
#00714:00140000
#00812:1414
#00818:00140000
#00918:1414
#00914:00140000
#01012:1414
#0101a:00140000
#01118:1414
#01114:00140000
#01212:1414
#0121a:00140000
#01318:1414
#01414:1414
#01410:41
#0151a:1414
#01612:1414
#02114:1414
#02218:1414
#02210:41
#02312:1414
#0241a:1414
#02917:0000001600000000
#02916:00000016
#02918:26
#03113:0000001600000000
#03114:00000016
#03112:26
#0331a:1414
#03314:00140014
#03310:41
#03418:1414
#03412:00140014
#03713:0000001600000000
#03714:00000016
#0371f:11
#03712:26
#03917:0000001600000000
#03916:00000016
#03918:26
#04312:1434343434343434
#04514:00140000
#04518:0014
#04512:00000014
#0451a:24
#0451f:21
#0461a:14
#04614:00140000
#04618:0014
#04612:00000014
#04610:41
#04718:14343400
#04814:14343400
#04918:00140000
#04914:0014
#0491a:00000014
#04912:24
#05012:14
#05018:00140000
#05014:0014
#0501a:00000014
#05114:14343400
#05218:14343400
#05312:00140014
#05318:0014
#0531a:24
#0541a:14
#05412:00140014
#05418:0014
#05518:14343400
#0551a:0000001400000000
#05614:14343400
#05612:0000001400000000
#0571a:00140014
#05714:0014
#05712:24
#05812:14
#0581a:00140014
#05814:0014
#05914:14343400
#05912:0000001400000000
#06018:14343400
#0601a:0000001400000000
#07618:1414
#07614:00140014
#08118:00140000
#08112:2414
#0821a:1414
#08214:00140000
#08312:1414
#08318:00140000
#0841a:1414
#08414:00140000
#08514:1414
#08518:00140000
#0861a:1414
#08612:00140000
#08714:1414
#08718:00140000
#0881a:1414
#08812:00140000
#06112:2424
#0611a:2424
#06110:41
#06214:2424
#06218:00240000
#0631a:2424
#06312:2424
#06418:2424
#06414:00240000
#06912:2424
#0691a:2424
#07012:2626
#07018:00260000
#0711a:2424
#07112:2424
#07110:41
#07218:2626
#07212:00260000
#07918:2424
#07914:00240024
#08018:2626
#08012:00260000
#0351a:00343434
#04112:00343400
#0421a:00343400
#04455:14
#04352:54
#04758:54
#04854:64
#05154:64
#05258:54
#05558:54
#0555a:0000002400000000
#05654:64
#05652:0000002400000000
#05954:64
#05952:0000002400000000
#06058:54
#0605a:0000002400000000
#07654:00000054
#08058:0016
#0173a0:14
#017390:00340000
#017380:0024
#018340:14
#018330:00340000
#018320:0024
#019320:14
#019330:00340000
#019340:0024
#020380:14
#020390:00340000
#0203a0:0024
#025320:14
#025330:00340000
#025340:0024
#026380:14
#026390:00340000
#0263a0:0024
#0273a0:14
#027390:00340000
#027380:0024
#028340:14
#028330:00340000
#028320:0024
#0353a0:14343434
#036380:24
#041320:14343400
#041340:00000024
#0423a0:14343400
#042380:00000024
#043320:1434343434343434
#044350:24
#047380:14343400
#0473a0:00000024
#048340:14343400
#048320:00000024
#051340:14343400
#051320:00000024
#052380:14343400
#0523a0:00000024
#055380:14343424
#0553a0:0000005400000000
#056340:14343424
#056320:0000005400000000
#059340:14343424
#059320:0000005400000000
#060380:14343424
#0603a0:0000005400000000
#065320:14
#065340:0024
#0663a0:14
#066380:0024
#067320:14
#067340:0024
#0683a0:14
#068380:0024
#073340:14
#073320:0024
#074380:14
#0743a0:0024
#075340:14
#075320:0024
#076340:00000014
#078320:0024
#088320:00000014
#089320:00000000000000000000000000000024
