This file was generated by Ched 2.6.4.0.
#TITLE ""
#ARTIST ""
#DESIGNER ""
#DIFFICULTY 0
#PLAYLEVEL
#SONGID ""
#WAVE ""
#WAVEOFFSET 0
#JACKET ""
#REQUEST "ticks_per_beat 480"
#00002: 4
#BPM01: 195
#00008: 01
#TIL00: ""
#HISPEED 00
#MEASUREHS 00
#00019:14
#06418:2616
#0641f:21
#06512:1616
#06510:0041
#06618:16
#06612:0016
#06718:16
#06712:0016
#07212:2616
#07318:1616
#07412:16
#07418:0016
#07512:16
#07518:0016
#00213:14
#00419:14
#00613:14
#00818:14
#00810:41
#00918:14
#01014:14
#01114:14
#08012:0016
#08018:26
#08010:41
#08118:16
#08112:0016
#08218:1616
#08312:1616
#08618:16
#08612:0016
#08818:0016
#08812:26
#08912:16
#08918:0016
#09012:1616
#09118:1616
#0241a:14
#02410:41
#0481a:14
#0611a:0014
#06114:14
#0601a:0014
#06014:14
#0251a:14
#02614:14
#02714:14
#02818:14
#02918:14
#03012:14
#03112:14
#0321a:14
#03314:14
#0341a:14
#03514:14
#03618:14
#03712:14
#03818:14
#03912:14
#04914:14
#05018:14
#05112:14
#0521a:14
#05314:14
#05310:41
#05418:14
#05512:14
#0121a:14
#0131a:14
#01412:14
#01512:14
#01618:14
#01714:14
#01818:14
#01914:14
#0201a:14
#02112:14
#0221a:14
#02312:14
#0561f:11
#04010:41
#0403a0:14
#0413a0:24
#042340:14
#043340:24
#044380:14
#045380:24
#046320:14
#047320:24
#056320:14
#057320:24
#058380:14
#059380:24
#062340:14
#063340:24
#068380:16
#069380:26
#070320:16
#071320:26
#076320:1636
#077320:26
#077380:0016
#078380:3636
#079380:26
#084380:1626
#085320:1626
#087380:1626
#092320:1636
#093320:26
#093380:0016
#094380:3600000000003636
#095380:0000000036260000
