This file was generated by Ched 2.6.4.0.
#TITLE ""
#ARTIST ""
#DESIGNER ""
#DIFFICULTY 0
#PLAYLEVEL
#SONGID ""
#WAVE ""
#WAVEOFFSET 0
#JACKET ""
#REQUEST "ticks_per_beat 480"
#00002: 4
#BPM01: 195
#00008: 01
#TIL00: ""
#HISPEED 00
#MEASUREHS 00
#06416:00141300
#0641a:1424
#06413:0000001300000000
#06412:2300130000000014
#06417:0000000000000014
#0641f:21
#06518:0000000000000013
#06517:0013
#06516:00140000
#0651a:0000001300000000
#0651b:00130000
#06515:0000000000000013
#06512:0024
#06510:0041
#06712:0016
#0671b:00000013
#06716:00000000001400000000000013000000
#0671a:0014000000000000
#06717:0000343400000000
#07412:0013
#07415:0013000000000000
#07418:0000001300000000
#07417:0013
#07414:0000000000130000
#07416:0000000000001313
#0741b:0000000000001313
#07512:00131300
#07517:00130000000000001300000000000000
#0751b:00000013
#07516:0000000000130000
#0241a:14
#02416:24140014
#02412:0014
#02410:41
#0481b:13
#04818:0000000000000013
#04812:23131313
#04814:0000000000130000
#04817:0013
#0611b:0013000000000000
#06116:0013000000000000
#06112:0000000000130000
#06117:0000000000130000
#0261b:0000000013000013
#02617:0000000000130000
#02616:0000000013000013
#02612:0000000000130000
#0501b:1300000000130000
#05012:1300130013000013
#05013:0000000000130000
#05017:0013
#05018:0000000000000013
#00814:00130000
#00819:0000130000130000
#00817:0013
#0081b:23000013
#00816:00000013
#00812:2313
#00810:41
#00917:0013130000001300
#00919:0000001300000000
#0091b:0013
#00912:00130000
#01017:00130013
#01012:00130013
#01016:1313
#01014:0000000000130000
#0101b:0013
#01116:0013130000000000
#01114:0000001300001400
#0111b:00130000
#0111a:0000000000140000
#01112:0013
#01117:0013
#00012:12
#0001c:12
#00013:00120000
#0001b:00120000
#00018:0012
#00016:0000000000120000
#0011c:0012000000000000
#00116:00120000
#0011a:0000001200000000
#00114:0012
#0021c:12
#0021b:00120000
#00213:00120000
#00216:0012
#00218:0000000000120000
#00312:0012000000000000
#00318:00120000
#00314:0000001200000000
#0031a:0012
#00316:0000000000121200
#0041c:12
#0041b:00120000
#00418:0012
#0041a:0000000000120000
#0051c:0012000000000000
#00518:00120000
#0051a:0000001200000000
#00517:0012
#0061b:0000120000120000
#00618:0012
#00619:00000012
#0061c:0000000000000012
#0071c:0012000000120000
#0071a:00121200
#00718:0000001200000000
#01219:00130000
#01214:0000130000130000
#01216:0013
#01212:23000013
#01217:00000013
#0121b:2300000013000013
#01312:0013130000000000
#01317:00130000
#01316:00001313
#01319:0000001300000000
#0131b:0000000000000013
#01416:00130013
#0141b:00130013
#01417:1313
#01419:0000000000130000
#01412:0000000013000013
#0151b:0013130000000000
#01514:0000001300001400
#01516:00130000
#0151a:0000000000140000
#01517:0013
#01512:0013
#01616:00130000
#01617:1313
#01619:0000000000130000
#01612:2300000013000013
#0171b:00001300000000000000001300000000
#01719:00000000130000000013000000000000
#01717:0000001300000000
#01715:13130000
#01712:0000000013000013
#01716:00000013
#01714:0000000000130000
#01817:00130000
#01816:1313
#01814:0000000000130000
#0181b:00001313
#01818:0000000000000013
#01912:0013000000000000
#01914:00130000
#01916:0000001300000000
#01918:00130000
#0191b:13
#02017:00130013
#02016:1313
#02014:0000000000130000
#0201b:2300000013000013
#02112:00001300000000000000001300000000
#02114:00000000130000000013000000000000
#02116:0000001300000000
#02118:13130000
#0211b:0000000013000013
#02117:00000013
#02119:0000000000130000
#02216:00130000
#02217:1313
#02219:0000000000130000
#02212:00001313
#02215:0000000000000013
#0221a:00000000000000000000000000330000
#0231b:0013000000000000
#02319:00130000
#02317:0000001300000000
#02315:00130000
#02312:13
#02717:00000013000000000000000000000000
#02712:00000013000000000000000000000000
#02714:00000014
#0271a:00000014
#05616:0000130000000013
#05617:13
#0561b:0000130000000013
#05612:13
#0561f:11
#05717:00130000
#05712:0000130000000013
#0571b:0000000000000013
#05812:0013000000130000
#05818:0013000000130000
#05815:0000001300000013
#05816:00141414
#0581b:0000001300000013
#05912:0013001300000000
#0591a:00130000
#05918:0013
#05913:00000013
#05915:00130000
#0591b:0000000000130000
#06016:0013000000001300
#0601b:13
#06017:0000130000130000
#06012:0013
#06215:0000001300000000
#06212:13
#06218:0000001300000000
#0621b:13
#06313:13
#0631a:13
#06316:0000130000000014
#0631b:00000013
#06615:0000000000000013
#06817:1300000000000013
#06816:00130000
#06814:0000001300000000
#06812:0000000013000013
#06916:0013000000000000
#06917:00130000
#06919:0000001300000000
#0691b:0013
#06918:0000000000000013
#06915:0000000000000013
#07018:0013000013130013
#07015:0000001300001313
#07012:0000130000130000
#0701b:0000001300000000
#07116:0000000000130000
#02512:0000000000140000
#02516:14000014
#0251a:00000000001400000000000000000000
#02812:14
#02816:00140014
#0281a:0014
#02818:14
#0301b:00000013
#03012:00000013000000000000000000001300
#03016:00000013
#03017:00000013000000000000000000001300
#03116:00000000001300000000000000000000
#0311b:00000000001300000000000000000000
#0291a:00000014
#02916:1400000000000013
#02912:0000001400000000
#0291b:0000000000000013
#03212:00000013
#03217:00000013
#03317:0000000000130000
#03312:0000000013000013
#03316:00000013
#0331b:0013
#03417:0013000000130013
#03412:0000001300000013
#03416:00130013
#0341b:1313
#03516:00130000000000000000000000000000
#0351b:00130000
#03512:0013
#03518:00001313
#03616:13
#03612:00000000001300000000000000001300
#0361b:0000000000130000
#03614:00000013
#03617:0000000000000013
#03716:00130000
#0371b:0013
#03715:00001313
#03817:13
#0381b:00000000001300000000000000001300
#03812:0000000000130000
#03819:00000013
#03816:0000000000000013
#03917:00130000
#03912:0013
#0391b:00000000000000001300000000003333
#03915:0000000000130000
#03919:00000000000000000000003300000000
#0391a:00000000000000000000000033330000
#04012:2313
#04015:0000000000000013
#0401a:00000000000000000000000000330000
#04010:41
#04112:13
#04116:00130013
#04117:0013
#04113:00000000000000000000000000000033
#04316:0013
#04317:00130000
#0431b:13
#04318:00000013
#04218:0000000000000013
#0421b:1313
#04213:00000000000000000000000000330000
#0441b:2313
#04418:0013000000000013
#04415:0013000000000000
#04412:23
#04414:00000000000000000000000000330000
#0451b:13
#04517:00130013
#04516:0013
#0451a:00000000000000000000000000000033
#04717:0013
#04716:00130000
#04712:13
#04715:00000013
#04615:0013000000000013
#04612:1313
#04618:0013000000000000
#0461a:00000000000000000000000000330000
#04914:1300130000130000
#04912:0013000013001300
#0491b:1300000000000013
#04917:0000001300000000
#05113:0013000000000000
#05112:00131313
#05114:0000000000130000
#0511b:00000013000000000000000000000000
#05118:00000013
#05212:13
#05215:0000000000000013
#0521b:13131313
#05219:0000000000130000
#05216:0013
#05316:00130013
#05319:1300130000130000
#0531b:0013000013001300
#05312:13
#05310:41
#0541b:1300130013000013
#0541a:0000000000130000
#05412:00000013000000000000000000001300
#05414:00000013
#0551a:0013000000000000
#0551b:00131313
#05519:0000000000130000
#05516:00000013000000000000000000000000
#07212:0000140000000014
#07216:1400140000000014
#0721a:24
#07214:0000003400000000
#07218:0000003400000000
#0731a:0014340000000000
#07316:0014000000000000
#07312:0000000000000013
#0731b:0000000000000013
#07318:0000003400000000
#07313:0000003400000000
#07315:00340000
#07612:00131300
#07616:13
#0761b:13000013
#07617:0013
#07716:00131300
#07712:13
#07717:13000013
#0771b:0013
#07915:13
#07918:13
#07914:00001313
#07919:00001313
#08012:1323
#0801b:00130000
#08019:0013000000000013
#08014:0000001300000000
#08017:23
#08010:41
#0811b:1323
#08112:0000130000000013
#08114:0013000000000000
#08119:0000001300000000
#08116:13
#08117:0000000000000013
#0831a:0014001400000000
#08316:00141413
#08312:0000001400000000
#0831b:00000013
#08216:0000130000001314
#08217:0013
#0821a:0000000000000014
#08417:0000130000000013
#08419:0000001300000000
#0841b:0013
#08412:0000130000000013
#08414:0000001300000000
#08416:0013
#08516:00130000
#08514:0000001300000000
#08512:0000000013000013
#0851b:00130000
#08519:0000001300000000
#08517:0013
#08518:0000000000000013
#0861b:0013001300130013
#08612:00131313
#08615:0000001300000000
#08618:00001313
#08715:00161600
#0871b:0000001300000000
#08712:0013000000130000
#0881b:1323
#08812:00130000
#08814:0013000000000013
#08819:0000001300000000
#08816:23
#08912:1323
#0891b:0000130000000013
#08919:0013000000000000
#08914:0000001300000000
#08917:13
#08916:0000000000000013
#09112:0014001400000000
#09116:00140000
#0911a:0000001400000000
#09118:0013
#09115:0013
#09016:0000000013000014
#09012:0000000000000014
#09017:00130013
#09217:0013000013000000
#0921b:13000013
#09216:1300000000130000
#09212:00131300
#09312:0013000013000000
#09316:1300000000130000
#09317:0013000013000000
#0931b:1300000000130000
#09416:13
#0941b:13
#09417:0000000000000013
#09412:0000000000000013
#09516:0013
#09512:0000000000140000
#09518:0000000000140000
#0115a:0000000000140000
#01154:00000014
#0155a:0000000000140000
#01554:00000014
#0125b:0000000000000053
#01452:0000000000000053
#01657:53
#01652:0000000000000053
#01755:23
#01856:63
#01858:0000000000000063
#0195b:23
#01952:0000000000330000
#01958:00000013
#02056:63
#0205b:0000000000000063
#02158:23
#02257:53
#02255:0000000000000053
#02355:00000013
#0235b:0000000000430000
#02352:23
#05652:6333
#05656:00230000
#0565b:0000230000000053
#05757:00230000
#05752:00230000
#0575b:0043
#05952:0000002300000000
#0595b:0000000000230000
#05958:0053
#05955:00530000
#0585b:0000000000000053
#06156:0023000000000000
#0615b:0023000000000000
#06152:0000000000230000
#06157:0000000000230000
#06056:0023000000000000
#06057:0000000000230000
#06255:0000002300000000
#06252:63
#06258:0000002300000000
#0625b:53
#0645a:5444
#06456:00240000
#06452:0000000000000064
#06556:00240000
#06552:0034
#06558:0000000000000053
#06655:0000000000000053
#0675a:0054000044000000
#06756:00000000002400000000000063000000
#06857:0000000000000053
#0685b:0013
#0245a:64
#02452:0064
#02456:00240024
#02556:64
#0255a:00000000002400000000000000000000
#02757:00000023000000000000000000000000
#02752:00000023000000000000000000000000
#0265b:0000000000000053
#02656:0000000000000053
#02852:54
#02856:00240024
#0285a:0054
#03052:00000023000000000000000000006300
#03057:00000023000000000000000000006300
#03156:00000000002300000000000000000000
#0315b:00000000002300000000000000000000
#02956:5400000000000053
#02952:0000002400000000
#0295b:0000000000000053
#03352:0000000000000023
#03357:0000000000230000
#03356:00000053
#0335b:0053
#03457:0023000000230013
#03452:0000002300000053
#03456:00530000
#0345b:5353
#03556:00230000000000000000000000000000
#03552:0023
#03558:00000063
#03656:53
#03652:00000000002300000000000000001300
#03657:0000000000000063
#0375b:0023
#03755:00000053
#03857:63
#0385b:00000000002300000000000000001300
#03856:0000000000000053
#04055:0000000000000063
#04152:23
#04258:0000000000000063
#0435b:2300000000130000
#04352:00000033
#04458:0053000000000053
#04455:0053000000000000
#0455b:23
#04655:0053000000000053
#04658:0053000000000000
#04752:23
#04758:00000033
#04755:0000000000430000
#04957:0000002300000000
#0495b:53
#04857:0053
#0485b:53
#0515b:00000023000000000000000000000000
#05058:0000000000000063
#0505b:63
#05252:63
#05256:0063
#05356:00230053
#05352:63
#05452:00000023000000000000000000005300
#05556:00000023000000000000000000000000
#06955:0000000000000063
#06952:0013
#07055:0000000000000013
#07058:0000000000000063
#0715b:0000000000130000
#07256:6400240044000054
#07252:00240000
#0725a:0044
#0735a:0024000000000000
#07356:0024000034000000
#07352:0034
#07456:0000000000000013
#0745b:0000000000000053
#0755b:00000013
#07556:0000000000230000
#07557:00230000000000000000000000000000
#07552:0053
#0765b:53
#07652:0063
#07757:63
#07756:0053
#07955:53
#07958:53
#08052:5333
#0805b:00530000
#0815b:6343
#08152:00630000
#08256:0000000000000064
#0825a:0000000000000014
#08356:00001453
#0835b:00000053
#0845b:0013
#08457:0000000000000063
#08452:0000000000000063
#08552:0000000013000063
#0865b:0000000000000063
#08752:0000000000330000
#0885b:6343
#08852:00630000
#08952:5333
#0895b:00530000
#09056:0000000000000054
#09052:0000000000000014
#09158:0063
#09155:0063
#09257:0023000000000000
#0925b:53
#09256:0000000000230000
#09252:0063
#09352:0023000063000000
#09356:5300000000230000
#09357:0023000063000000
#0935b:5300000000230000
#09556:0033
#09558:0000000000440000
#09457:0000000000000063
#09456:63
#0945b:63
#000380:00000000000000000000000012322200
#001380:00000000000000000000123222000000
#001320:00000000000000000000000000001232
#002320:22
#002360:00000000000000000000000012322200
#004340:12220000
#004320:0000001200000000
#007320:00000022
#0043c1:00000000000000000000000012322200
#005391:00000000000000000000123222000000
#0053c1:00000000000000000000000000001232
#0063c1:22
#0073c1:00000012
#0073b1:0000000000000000000000000000000000000000000000000032000000000000
#0073a1:00000000000000000000000000320000
#007391:0000000000000000000000000000000000000000000000000000003200000000
#007381:0000000000000022
#008321:0000000000000013
#009321:0023000000000000
#009321:00001323
#009341:00000000000000000033003300000000
#009361:0000000000330000
#009371:0000000000000013
#009391:00000000000000000000000000000033
#0103b1:23
#0103b1:0000000000000013
#0113b1:0023000000000000
#0123b1:0000000000000013
#013371:0023000000000000
#0133b1:00001323
#013391:00000000000000000033003300000000
#013371:0000000000330000
#013361:0000000000000013
#013341:00000000000000000000000000000033
#014321:23
#014321:0000000000000013
#015361:0023000000000000
#016371:13
#0163b1:00230000
#0163b1:00000013
#016391:00000000000000000000000000330000
#016371:0000000000000023
#016320:0000000000000013
#017350:53
#017320:0023000000000000
#017370:0000000000000013
#017390:00000000000000000000000000000033
#0183b0:23
#018361:13
#018321:00230000
#018361:00000013
#018341:00000000000000000000000000330000
#018321:0000000000000023
#018380:0000000000000013
#0193b0:53
#019380:0023000000000000
#0193b0:0013
#019380:0000000000332300
#019361:0013
#019321:0000000000230000
#020360:13
#020320:00230000
#020320:00000013
#020340:00000000000000000000000000330000
#020360:0000000000000023
#0203b1:0000000000000013
#021381:53
#0213b1:0023000000000000
#021361:0000000000000013
#021341:00000000000000000000000000000033
#022321:23
#022370:13
#0223b0:00230000
#0223b0:00000013
#0223a0:00000000000000000000000000330000
#022380:0000000000000023
#022351:0000000000000013
#023321:53
#023351:0023000000000000
#023321:0013
#023351:0000000000332300
#023370:0013
#0233b0:0000000000230000
#0243a1:1424
#024361:00540000
#024320:0014
#024360:00000054
#025320:24
#025361:1400000000240000
#0253a1:00000000005400000000000000000000
#026321:13
#026361:00230000
#026370:13
#0263b0:00230000
#0263b0:0000000000000013
#027370:00000053000000000000000000000000
#0273b0:0023
#026361:0000000000000013
#027321:00000053000000000000000000000000
#027361:0023
#028321:1424
#028361:00540000
#0283a0:0014
#028360:00000054
#0293a0:24
#029361:14000024
#029321:0000005400000000
#0293b1:0000000000000013
#030371:00000053000000000000000000000000
#0303b1:0023
#029360:0000000000000013
#030320:00000053000000000000000000000000
#030360:0023
#030320:0000000000000013
#031360:00000000005300000000000000000000
#031320:00000023
#030371:0000000000000013
#0313b1:00000000005300000000000000000000
#031371:00000023
#0323b1:1300005323000000
#032381:0053330000000000
#032350:1300005323000000
#032320:0053330000000000
#032320:0000000000000013
#033320:0053000000000000
#033360:00230000
#032371:0000000000000013
#033371:0053000000000000
#0333b1:00230000
#0333b1:00001323
#033371:0000000000530000
#033360:00000013
#033320:0000000000000053
#034360:23
#0343b1:13230000
#034371:0053000000000000
#034360:00132300
#034320:0000005300000000
#0343b1:00001323
#034371:0000000000530000
#034321:0000000000000013
#035361:00530000000000000000000000000000
#035321:00230000
#035321:0013
#035351:00000023
#035380:00000013
#0363b0:23
#036361:1300000000230000
#036321:00000000005300000000000000000000
#036371:0000000000000013
#0373b1:00230000
#0373b1:0013
#037381:00000023
#037350:00000013
#038320:23
#038371:1300000000230000
#0383b1:00000000005300000000000000000000
#038361:0000000000000013
#039321:00230000
#039381:0000000000130000
#039391:00000000000000000000003300000000
#0393a1:00000000000000000000000033330000
#0393b1:00000000000000000000000000003333
#0403b1:23
#040351:0013230000000000
#040380:0013230000000000
#0403b0:0000000013230000
#040351:0000000000132300
#040380:00000013
#0403a0:00000000000000000000000000330000
#0403b0:0000000000000023
#040351:0000000000000013
#041321:53
#041351:0023000000000000
#0413b0:0013002300000000
#0413a0:00530000
#041321:0000001300230000
#041331:0053
#0413b0:0000000000130023
#0413a0:00000053
#041351:0000000000000013
#041331:00000000000000000000000000000033
#042321:23
#042351:0013230000000000
#042380:0013230000000000
#042320:0000000013230000
#042381:0000000000132300
#042350:00000013
#042330:00000000000000000000000000330000
#042320:0000000000000023
#042381:0000000000000013
#0433b1:53
#043381:0023000000000000
#043320:0013002300000000
#043330:00530000
#0433b1:0000001300230000
#0433a1:0053
#043360:0000000000130000
#043320:00000023
#044380:0013000000000000
#0443b0:00230000
#044351:0013000000000000
#044321:00230000
#044361:0013
#044321:0000000000230000
#0443b0:0000000000130000
#044370:00000023
#044321:00000013
#044341:00000000000000000000000000330000
#044351:0000000000000023
#044380:0000000000000013
#0453b0:53
#045380:0023000000000000
#045351:0013002300000000
#045321:00530000
#045380:0000001300230000
#0453b0:0053
#045351:0000000000130023
#045321:00000053
#045380:0000000000000013
#0453a0:00000000000000000000000000000033
#0463b0:23
#046380:0013000000000000
#0463b0:00230000
#046351:0013000000000000
#046321:00230000
#046371:0013
#0463b1:0000000000230000
#046320:0000000000130000
#046360:00000023
#0463b1:00000013
#0463a1:00000000000000000000000000330000
#046381:0000000000000023
#046350:0000000000000013
#047320:53
#047350:0023000000000000
#047381:0013002300000000
#0473b1:00530000
#047350:0000001300230000
#047320:0053
#0473b1:0000000000130000
#047381:00000023
#0483b1:13
#048371:00230000
#048371:0013
#0483b1:00000023
#0493b1:13000023
#049371:0000005300000000
#0503b1:13
#050371:00230000
#050381:0000000000000013
#0513b1:00000053000000000000000000000000
#051381:0023
#052321:13
#052361:00230000
#052361:0013
#052321:00000023
#053321:1323
#053361:00530000
#053361:00000013
#054321:00000053000000000000000000000000
#054361:0000000000230000
#054321:0000000000000013
#055361:00000053000000000000000000000000
#055321:0023
#056321:1323
#056361:00530000
#0563b0:00130000
#056370:0023
#0563b0:0000000000000013
#057370:00530000
#0573b0:0023
#057321:00130000
#057361:0023
#0583b1:0000000000000013
#059371:0023000000000000
#059351:00132300
#059321:0000005300000000
#059380:00001323
#0593b0:0000000000530000
#060360:1353000000000000
#060320:00230000
#060370:0000000013530000
#0603b0:00000023
#061360:1353000000000000
#061320:00230000
#0613b1:1353000000000000
#061371:00230000
#061371:0000000013530000
#0613b1:00000023
#061320:0000000013530000
#061360:00000023
#062320:13000023
#062350:0000005300000000
#0623b1:13000023
#062381:0000005300000000
#0633b1:00130000
#0633a1:00000000003300000000000000000000
#063391:0000003300000000
#063381:00000000000000330000000000000000
#063371:0023
#063320:0013
#063330:00000000000000000033000000000000
#063340:0000000000330000
#063350:00000000000000000000003300000000
#063360:00000023
#0643a0:1424
#064360:00540000
#064320:0000000000000014
#065360:00540000
#065320:0024
#065380:0000000000000013
#0663b0:0023000000000000
#066321:0013230000000000
#066380:0000132300000000
#066351:0000001323000000
#0663b0:0000000013230000
#066321:0000000000132300
#066380:0000000000001323
#066351:0000000000000013
#067321:0023000000000000
#0673a0:0014000024000000
#067370:0000343400000000
#067360:00000000005400000000000000000000
#067360:00000013
#068320:23
#0683b0:00132300
#068370:0000000000000013
#0693b0:0023000000000000
#069320:00132300
#069350:0000000000000013
#070320:0023000000000000
#070380:0000000000000013
#0713b0:0023000000000000
#071351:0013230000000000
#071380:0000132300000000
#071321:0000001323000000
#0713b0:0000000013230000
#072360:1424
#072320:00340000
#072340:0000003400000000
#072361:00140000
#072381:0000003400000000
#0723a1:0024
#072361:0000000000000014
#0733a1:0034340000000000
#073381:0000003400000000
#073361:0024
#073360:0014000000000000
#073350:00340000
#073330:0000003400000000
#073320:0024
#074380:0013230000000000
#074351:0000132300000000
#0743b1:0000000000000013
#075371:00530000000000000000000000000000
#0753b1:00230000
#075321:00001323
#075361:0000000000530000
#0763b1:13
#076371:00230000
#076321:0013
#076361:00000023
#077371:13
#0773b1:00230000
#077361:0013
#077321:00000023
#0783b1:13
#078371:00230000
#078360:13
#078320:00230000
#078320:0013
#078360:00000023
#078371:0013
#0783b1:00000023
#079381:13
#0793b1:00230000
#079350:13
#079320:00230000
#080320:13
#080360:00230000
#0803b1:00130000
#080371:0023
#0813b1:13
#081371:00230000
#081320:00130000
#081360:0023
#082370:0013000000000000
#0823b0:00230000
#082360:0000001300000000
#082320:0023
#082370:0000000000130000
#0823b0:00000023
#082360:0000000000000014
#083320:0024000000000000
#083360:00000013
#084320:23
#0833b1:00000013
#084371:23
#084371:0000000000000013
#0853b1:0023000000000000
#084320:0000000000000013
#085360:0023000000000000
#085320:0000000000000013
#086350:0023000000000000
#0863b0:0000000000000013
#087380:0023000000000000
#0883b0:13
#088370:00230000
#088321:00130000
#088361:0023
#089321:13
#089361:00230000
#0893b0:00130000
#089370:0023
#090360:0013000000000000
#090320:00230000
#090370:0000001300000000
#0903b0:0023
#090360:0000000000130000
#090320:00000023
#090360:0000000000000014
#0913a0:0024000000000000
#091380:0013
#0913b0:00000023
#091351:0013
#091321:00000023
#0923b1:13230000
#092371:0053000000000000
#092321:00001323
#092361:0000000000530000
#093361:13230000
#093321:0053000000000000
#0933b0:13230000
#093370:0053000000000000
#093370:00001323
#0933b0:0000000000530000
#093321:00001323
#093361:0000000000530000
#094361:13
#094321:00005323
#0943b0:13
#094370:00005323
#094370:0000000000000013
#0953b0:0023
