This file was generated by Ched 2.6.4.0.
#TITLE ""
#ARTIST ""
#DESIGNER ""
#DIFFICULTY 0
#PLAYLEVEL
#SONGID ""
#WAVE ""
#WAVEOFFSET 0
#JACKET ""
#REQUEST "ticks_per_beat 480"
#00002: 4
#BPM01: 195
#00008: 01
#TIL00: ""
#HISPEED 00
#MEASUREHS 00
#0481b:13
#04812:0013
#0261b:0013
#02618:0000000000000013
#02615:0000000000130000
#05018:1300000000130000
#05012:0000000013000013
#00814:00130000
#00819:00130000
#00815:0000000000130000
#00818:00000013
#0081b:2313
#00812:23
#00810:41
#0091b:00130000
#00915:0000001300000013
#01015:00130013
#0101b:00130000
#01018:1300000000130000
#01012:1313
#01112:00130000
#01118:0000001300000000
#0111a:0000000000140000
#01114:00000014
#01115:0013
#00014:12120000
#0001a:12120000
#00018:00001212
#00016:0000000000120012
#0011a:0012001200000000
#00116:00121200
#00118:0000000000120000
#00114:00000012
#00214:12120000
#0021a:12120000
#00216:00001212
#00218:0000000000120012
#00314:0012001200000000
#00318:00121200
#00316:0000000000120000
#0031a:00000012
#01612:00130000
#0161b:00131300
#01618:00000013
#01615:0000000000130000
#01614:23
#01619:23
#0561b:13
#05618:0000000000000013
#05615:13
#05612:0000000000000013
#0561f:11
#05712:0000000000000013
#0571b:0000000000000013
#05818:0013000000130000
#05815:00130013
#05812:0013
#0581b:0000001300000013
#05912:00140000
#05916:0014
#0591a:00000014
#06015:13
#06018:0013
#06414:0000001400000000
#0641a:2400140024000014
#06412:2400000000000014
#0641f:21
#0671b:00000013
#06713:0033000000000000
#06712:0000333300000000
#06615:0000001300000013
#06618:00130013
#0661b:0013
#06612:0013000000130000
#06815:13130000
#06818:0000001300000013
#06812:0000000013000013
#0681b:13
#06918:00130000
#06915:0000001300000013
#0691b:0013
#07018:0013000000130013
#07012:00130013
#07015:0013
#0701b:0000001300000000
#07115:0013000000130000
#07118:00130000
#07112:0000001300000000
#0711b:0013
#02418:0014
#02412:0014
#02414:24
#0241a:24
#02410:41
#03018:00000013
#03015:0000000000000013
#02918:1400000000000013
#02912:14
#02915:00000013
#02714:00000014
#0271a:00000014
#02818:14
#02812:14
#02814:0014
#0281a:0014
#0331b:0013
#03518:0013
#03512:0013
#04015:0013
#04018:23130000
#0401b:0000000000130000
#04012:23130013
#04010:41
#04112:00130013
#04115:0013
#04118:0000001300000013
#0411b:0000000000130000
#0491b:13
#04918:0000001300000000
#04915:0000000000000013
#05115:00000013000000000000000000000000
#05118:00000013
#07218:24140000
#0721a:0000000000000014
#07214:0000000000000014
#07212:24
#07219:0000003400000000
#07612:0013
#0761b:13
#07718:13
#07715:0013
#07914:00001313
#07919:00001313
#08015:0013000000000000
#08013:0000001300000000
#08019:00130000
#08012:0000000000000013
#0801b:2300000000000013
#08017:0023
#08010:41
#08118:00130000
#08112:0000001300000000
#08115:0013000000000000
#0811b:0023
#08318:00130000
#0831b:0013
#08315:0000001300000000
#08418:00130000
#08415:0000001300000000
#0841b:0013
#08515:00130000
#08518:0000001300000000
#08512:0013
#08612:00131313
#08618:0000001300130000
#08715:00130000
#08718:0000001300000000
#08712:0013
#0871b:0000000000130000
#09415:13000013
#0941b:13
#09418:0000000000000013
#09514:0000000000140000
#00416:12120000
#0041c:12120000
#0041a:00001212
#00414:0000000000120012
#0051c:0012000000000000
#00516:00120000
#0051a:0000001200000000
#00514:0012
#00518:0000000000120000
#00512:00000012
#00612:12120000
#00618:12120000
#00614:00001212
#0061a:0000000000120012
#00712:0012000000000000
#00718:00120000
#00714:0000001200000000
#0071a:0012
#00716:0000000000120000
#0071c:00000012
#06515:0000000000000013
#0651b:0000000000000013
#06518:0000001400000000
#06512:00142400
#06510:0041
#01215:00000013
#01218:0000000000130000
#01214:00130000
#01219:00130000
#01212:2313
#0121b:23
#01312:00130000
#01318:0000001300000013
#01418:00130013
#01412:00130000
#01415:1300000000130000
#0141b:1313
#0151b:00130000
#01515:0000001300000000
#01512:0000000000140000
#01518:00001314
#07314:0014000000000000
#07312:0000003400000013
#0731b:0000000000000013
#07313:00340000
#0171b:00130000
#01715:0000001300000013
#01719:00000000000000000033330000000000
#0171a:00000000000000000000003300000000
#01815:00130013
#0181b:00130000
#01818:1300000000130000
#01812:1313
#01912:00130000
#01918:0000001300000000
#0191a:0000000000140000
#01914:00000014
#01915:0013
#0201b:00130000
#02012:00131300
#02015:00000013
#02018:0000000000130000
#02019:23
#02014:23
#02112:00130000
#02118:0000001300000013
#02114:00000000000000000033330000000000
#02113:00000000000000000000003300000000
#02218:00130013
#02212:00130000
#02215:1300000000130000
#0221b:1313
#0231b:00130000
#02315:0000001300000000
#02312:0000000000140000
#02318:00001314
#02514:14
#0251a:14
#0321b:13
#03215:0000000000000013
#03218:00000013
#03412:13
#0341b:0013
#03415:0000000000000013
#03715:0013
#0371b:0013
#03612:14
#03616:0000000000140000
#03614:0000000000000034
#03615:00000034
#04218:0013
#04215:13130000
#04212:0000000000130000
#0421b:13130013
#04318:00130000
#0431b:0013
#0431a:00000014
#04312:0000001300000000
#04314:0000000000140000
#04418:0013
#0441b:23130013
#04415:23130000
#04412:0000000000130000
#0451b:00130013
#04518:0013
#04515:0000001300000013
#04512:0000000000130000
#04615:0013
#04612:13130013
#04618:13130000
#0461b:0000000000130000
#04715:00130000
#04712:00001314
#0471b:0000001300000000
#04718:0000000000140000
#05212:13
#0521b:0013
#05315:13
#05312:00000013
#05318:0013
#05310:41
#05415:0013000000001300
#05418:0000000000130000
#0541b:0000000000000013
#05518:00000013000000000000000000000000
#06115:13
#0611b:13
#06118:0013
#06112:0013
#07415:00131300
#07418:0013000000130000
#0741b:0000001300000000
#07412:00000013
#07515:0013
#07512:00000013
#08212:0000001300000000
#08218:00130013
#0821b:0013
#08215:0000000000130000
#08818:0013000000000000
#0881a:0000001300000000
#08814:00130000
#0881b:0000000000000013
#08812:2300000000000013
#08816:0023
#09115:00130000
#09118:0000001300000000
#0901b:0000001300000000
#09015:00130013
#09012:0013
#09018:0000000000130000
#0921b:13
#09212:0013
#0931b:13
#09315:13
#09318:0013
#09312:0013
#06212:13
#0621b:13
#06318:13
#06315:13
#08915:00130000
#0891b:0000001300000000
#08918:0013000000000000
#08912:0023
#0381a:14
#03816:0000000000140000
#03818:0000000000000034
#03817:00000034
#05658:0000000013000053
#05652:0000000013000053
#05655:63
#0565b:63
#0585b:0000000000000053
#06055:23
#06058:0023
#06655:0000000000000053
#02458:0054
#02452:0054
#02658:0000000000000053
#02958:5400000000000053
#02952:54
#0335b:0053
#03558:0023
#03552:0023
#04958:0000002300000000
#0495b:53
#04852:0053
#0485b:53
#05155:00000023000000000000000000000000
#05052:0000000000000063
#05058:53
#07652:0063
#0765b:53
#07758:63
#07755:0053
#0835b:0013
#0845b:0013
#08552:0013
#09458:0000000000000063
#09455:63
#0945b:63
#0645a:0014
#06752:0013
#06552:0014
#0955b:0013
#09554:0000000000140000
#03055:0000000000000063
#0725a:0014
#07258:00540000
#07352:0014
#07354:0064000000000000
#02554:64
#0255a:64
#02854:0064
#0285a:0064
#03255:0000000000000063
#0325b:23
#03452:63
#0345b:0053
#03455:0000000000000013
#03755:0023
#0375b:0023
#03652:54
#03656:0000000000640000
#05252:63
#0525b:0063
#05355:63
#05352:00000063
#05455:0023000000000000
#0545b:0000000000000053
#05558:00000023000000000000000000000000
#05755:0013
#0575b:0013
#06155:23
#0615b:23
#06158:0023
#06152:0023
#08057:0013
#0875b:0000000000130000
#08856:0013
#09252:0023
#0925b:23
#0935b:23
#09355:23
#09352:0023
#09358:0023
#0815b:0013
#06252:63
#0625b:53
#06355:63
#06358:53
#08952:0013
#0385a:64
#03856:0000000000540000
#01954:00000014
#02358:00000014
#04354:0000000000140000
#0435a:00000014
#04758:0000000000140000
#04752:00000014
#008320:0000000000000013
#009320:0023000000000000
#009380:00000000000000001333333323000000
#0103b0:0000000000000013
#0113b0:0023000000000000
#0123b0:0000000000000013
#0133b0:0023000000000000
#013350:00000000000000001333333323000000
#014320:0000000000000013
#015320:0023000000000000
#016320:0000000000000013
#017350:0023000000000000
#017380:0013
#017390:00000000000000000033330000000000
#0173a0:00000000000000000000003300000000
#0173b0:00000023
#0183b0:0000000000000013
#019380:0023000000000000
#0203b0:0000000000000013
#021380:0023000000000000
#021350:0013
#021340:00000000000000000033330000000000
#021330:00000000000000000000003300000000
#021320:00000023
#022320:0000000000000013
#023350:0023000000000000
#024320:0014
#025340:34
#025320:00000024
#024381:0014
#0253a1:34
#025381:00000024
#026321:13
#026351:00230000
#026381:0000000000000013
#0273b1:0023
#0283a1:0014
#029381:34
#0293a1:0024
#028340:0014
#029320:34
#029340:0024
#029380:0000000000000013
#0303b0:0023
#030350:0000000000000013
#031320:00000023
#0323b0:13
#032380:0023
#032350:0000000000000013
#033320:00230000
#0333b0:0013
#033380:00000023
#034320:13
#034350:00230000
#0343b0:0013
#034380:00000023
#035380:0013
#0353b0:00000023
#035321:0013
#035351:00000023
#036321:14
#036361:0000000000340000
#036351:00000034
#036341:0000000000000034
#037321:00240000
#037351:0013
#037321:00000023
#0373b0:0013
#037380:00000023
#0383a0:14
#038360:0000000000340000
#038370:00000034
#038380:0000000000000034
#0393a0:0024
#040380:0000000000000013
#041380:0023000000000000
#042350:0000000000000013
#043350:0023000000000000
#044350:0000000000000013
#045320:0023000000000000
#046380:0000000000000013
#0473b0:0023000000000000
#0483b0:13
#048380:00230000
#048320:0013
#048350:00000023
#0493b0:13000023
#049380:0000005300000000
#050380:13
#0503b0:00230000
#050320:0000000000000013
#051350:00000053000000000000000000000000
#051320:0023
#052320:13
#052350:00230000
#0523b0:0013
#052380:00000023
#053350:13
#053320:00230000
#053320:00000013
#054350:0053000000000000
#054320:0023
#0543b0:0000000000000013
#055380:00000053000000000000000000000000
#0553b0:0023
#0563b0:13
#056380:00332300
#056351:13
#056321:00332300
#056381:0000000000000013
#0573b1:00332300
#056320:0000000000000013
#057350:00332300
#0583b0:0000000000000013
#059380:0023000000000000
#060350:13
#060320:00230000
#060380:0013
#0603b0:00000023
#061350:13
#061320:00230000
#0613b1:13
#061381:00230000
#061381:0013
#0613b1:00000023
#061320:0013
#061350:00000023
#062320:13
#062350:00000033
#063350:33
#063320:00000023
#0623b1:13
#062381:00000033
#063381:33
#0633b1:00000023
#066351:0000000000000013
#067331:0033000000000000
#067321:0000333323000000
#072381:00140000
#072391:0000003400000000
#0723a1:0024
#073341:0014000000000000
#073331:00340000
#073321:0000003424000000
#0743b1:0000000000000013
#075381:00230000
#0763b1:13
#076381:00230000
#076321:0013
#076351:00000023
#077381:13
#0773b1:00230000
#077351:0013
#077321:00000023
#0783b1:13000033
#078381:00333300
#0793b1:33
#079381:00230000
#078350:13000033
#078320:00333300
#079350:33
#079320:00230000
#081320:0000000000000013
#082350:0023000000000000
#082350:0000000000000013
#083320:0023000000000000
#083350:00000013
#084320:23
#084380:0000000000000013
#0853b0:0023000000000000
#0853b0:0000000000000013
#086380:0023000000000000
#086380:0000000000000013
#0873b0:0023000000000000
#0893b0:0000000000000013
#090380:0023000000000000
#090380:0000000000000013
#0913b0:0023000000000000
#091320:0013
#091350:00000023
#0923b0:13
#092380:00230000
#092320:0013
#092350:00000023
#0933b0:13
#093380:00230000
#093351:13
#093321:00230000
#093321:0013
#093351:00000023
#093380:0013
#0933b0:00000023
#094350:13
#094320:0023
#0943b1:13
#094381:0023
#094381:0000000000000013
#0953b1:0023
