This file was generated by Ched 2.6.4.0.
#TITLE ""
#ARTIST ""
#DESIGNER ""
#DIFFICULTY 0
#PLAYLEVEL
#SONGID ""
#WAVE ""
#WAVEOFFSET 0
#JACKET ""
#REQUEST "ticks_per_beat 480"
#00002: 4
#BPM01: 195
#00008: 01
#TIL00: ""
#HISPEED 00
#MEASUREHS 00
#06415:0000001313000000
#0641b:13000000001300002300000000001300
#06412:2300130000130013
#06417:0013000000000000
#06418:00000000000000130000000013000000
#0641f:21
#06517:0000000000000013
#0651b:0000130000130013
#06518:0000001313000000
#06516:00130000000000000000000000000000
#06512:00000000001300002300000000000000
#06515:00000000000000130000000013000000
#06510:0041
#0751b:0013130013001300
#07516:00130000000000000000000000000000
#07512:00001313
#07515:0000001600160000
#02417:13130013
#02412:2313
#0241b:00130013
#02410:41
#0481b:1300000000130000
#04819:0000001300000013
#04816:2300130000130000
#04812:0013000013001300
#04817:0013000013000000
#04814:0000001300000013
#0261b:1300000013000013
#02617:0000000000130000
#02616:0000000013000013
#02612:0000130000130000
#05017:1300000013000013
#05012:1300000000000013
#0501b:0013000000130000
#05016:0013000000000000
#05015:0000001600000000
#00817:2313130013000013
#0081b:13000013
#00816:00000013
#00812:0013000013000013
#00814:0000000000130000
#00810:41
#00917:0013130000000000
#00915:00000000000013000000001300001300
#0091b:00001313
#00912:00000000130000000013000000000000
#00916:13
#00918:00000000000000000000130000000013
#01016:0013130013000013
#01019:0000000000130000
#01012:13000013
#01017:00000013
#0101b:1313000013000013
#01116:0013130000130000
#0111b:0000130000130000
#01112:00001313
#01118:0000001313000000
#01117:13000013
#0001c:12
#00012:00120000
#00018:0012
#00016:0000000000120012
#00014:0012
#0011c:0012000000000000
#00116:0012120000000000
#0011a:0000001200000000
#00114:0000001212000000
#00112:00000012
#0021c:00120000
#00216:0012
#00218:0000000000120012
#0021a:0012
#00312:0012000000120000
#00317:0000000000121200
#00318:0012120000000000
#00314:0000001200000000
#0031a:0000001212000000
#0031c:00000012
#0041c:12
#00419:00120000
#00412:1212
#00416:0000000000120000
#00415:00120000
#00512:0012000000000000
#00514:00120000
#00516:0000001200000000
#00518:0012
#00612:0000120000000012
#00618:0012
#00616:0000000000120000
#00614:00000012
#00712:0012000000120000
#00714:0000000000000000120000000000000012000000000000000000003200000000
#00716:0000000000000000000000001200000000000000000000000032000000000000
#00715:00000000000000000000000000320000
#00719:0000000000000000000000000000000000000000000000000000003200000000
#0071a:00000000000000000000000000320000
#0071b:0000000000000000000000000000000000000000000000000032000000000000
#01212:23130000
#01216:0013000013000000
#0121b:0013000000001300
#01217:1300000000000013
#01316:0013001314000000
#01312:00000000130000000014000000001300
#0131b:0000001300000000
#01318:0000000000140000
#01314:00000000000000000000001400000000
#0131a:00000014
#01712:0013001314001400
#01716:00000000130000000014001400000000
#0171a:0000000000140000
#01715:13
#0171b:0000000000000013
#05712:0000000013000013
#05717:0013
#0571b:0000000000000013
#05818:0013000000130000
#05815:0000161316001613
#0581b:0000000000000013
#05912:0013001300001300
#0591b:0000130000130000
#05918:0013
#05915:00130000
#05917:0000001300000000
#05916:0000000000130000
#0601b:1313000013000000
#06012:1300000013130000
#06016:0013001400001314
#06017:0000130000130000
#06218:0000001200000000
#0621c:12
#06216:0000001200000000
#06212:12
#06313:13
#0631a:13
#0631b:00130013
#06316:00000000001300000000000000130000
#06319:0000001300130013
#06314:00000000000000130000001300000000
#06317:0013
#06312:00000000000000000013000000000000
#06315:00000000000000000000000000000013
#0671b:0013000000001300
#06712:13000000001300000000000000000000
#06716:0013000000000000
#06717:00000000001300000000000000000000
#06718:0000333300000013
#06714:00000033000000330000000000000000
#06713:0000333300000000
#06719:00000033000000330000000000000000
#06816:13
#06812:0000130000000013
#06815:0000001300000000
#06817:00001313
#0691b:0000130000000013
#06916:0000000013001313
#06917:0013000000000000
#06918:0000001300000000
#06915:13
#0701b:0013001300001300
#07015:0000001313000000
#07012:1300130000130000
#07017:1300000000000013
#07018:00130000
#07112:0000000000130000
#0711b:13
#02512:0000000013130000
#0251b:00130013
#02517:1300000000130000
#02516:00130013
#0301b:0000001313001300
#03016:00000013
#03012:00000013000000000000000000001300
#03017:0013130000000013
#02916:1300000000130013
#0291b:0000000013130013
#02912:00130013
#02917:00130013
#02712:00130000000000000013000014000000
#0271a:00000014
#02717:00130000000000000000000000000000
#0271b:0013
#02718:0000000000130000
#02715:00000000000000000000001300000000
#02714:0000001300000000
#02719:0000001300000000
#03212:0013000000001300
#03217:0013000000001300
#03216:1300001300000013
#03214:00130000
#0321b:1300001300000013
#03219:00130000
#03317:0000000000130000
#03312:1300130000130013
#03316:00001313
#0331b:00130000130000001300000000001300
#03315:0013000000000000
#03318:00000013000000000000000000000000
#03417:0013000000130000
#03412:0013001300130013
#03416:00130013
#0341b:1300001313000013
#03517:0013
#0351b:0000130000130000
#03512:0000000000000013
#03614:00000013
#03617:0000130013000013
#03612:1300000000000013
#0361b:0000130000130000
#03619:00000013
#03616:0000000000130000
#03912:0013
#0391b:0013
#03915:0000000000131313
#03918:00000000000000000000001300130013
#04012:0000130013000013
#04015:0000001300000000
#04016:0000000000130000
#04014:00000013
#04019:00000000000000000000000000330000
#04010:41
#04116:1313
#0411b:0000001300000000
#04119:00000000000000000013000000000000
#04114:0000000000130000
#04117:00000000000000000000001300000000
#04112:00000013
#04115:00000000000000000000000000000013
#04118:0000000000000013
#04512:13131313
#04516:0000001300000000
#0451b:0013000000001300
#04518:00000000000000000013001300000013
#04515:0000000000130013
#0491b:1300001300001300
#04912:1313
#04916:00130000
#04919:0000000000000013
#04914:0000000000000013
#05116:00001314
#05112:0000001300140000
#0511a:00000000000000000000001400000000
#05114:0000000000000013
#05119:0000000000000013
#07212:0013000000000013
#0721b:2300001300000000
#07216:13
#07218:0013130000000000
#07217:0000000000001313
#07215:0000001300000000
#07317:0000000000000013
#0731b:13
#07312:0000001300000000
#07315:1313130000000000
#07318:0000131300000000
#07316:00000013
#07414:0000000000130000
#07416:00000013
#0741b:0013001300131300
#07417:0000130013000013
#07412:0000000000000013
#07616:1300130000130000
#0761b:13
#07617:0013000013001300
#07614:0000001300000000
#07612:0013
#07619:0000000000000013
#09418:0000000000000013
#0941b:13000013
#09412:00130013
#09417:00130000
#09416:13
#09415:0000000000000013
#0141b:00130000
#01417:0013000013000000
#01416:1300000000000013
#01412:0013000000001300
#0151b:00130000
#01512:0000001300000000
#01517:0013001300000000
#01612:26000016000000000000000000000000
#0161b:00130000130000000000130000000000
#01618:0013000000000000
#01617:00001313
#01818:16000016000000000000000000000000
#01816:00001313
#01812:00130000130000000000130000000000
#01815:0013000000000000
#0191b:0013001300130000
#01918:13
#01912:0013
#01917:00131300
#0211b:0013001300000000
#02117:13130000
#02116:0000000014141400
#02112:00000000000000000014000000000000
#0211a:00000000000000000000001400000000
#02115:0000000000000013
#02118:00000000000000000000000000000013
#02018:2613000000000000
#02012:00130000130000000000000000000000
#02015:00000013000000000000000000000000
#0201b:00130000
#02013:00000013
#0201a:0000000000000013
#02312:0013001300130000
#02312:0000001300000000
#02316:13131300
#0231b:0013
#02816:13130013
#0281b:1313
#02812:00130013
#0311b:00000013000000000000000000000000
#03116:0013130000000000
#03112:0000001313000000
#03716:0013
#03712:0000000000130000
#0371b:0000000000000013
#03819:00000013
#03816:0000130013000013
#0381b:1300000000000013
#03812:0000130000130000
#03814:00000013
#03817:0000000000130000
#0421b:0000130013000013
#04218:0000001300000000
#04217:0000000000130000
#04219:00000013
#04214:00000000000000000000000000330000
#04317:13
#04312:0000001300160000
#04316:0013
#0431b:0013
#04318:00000016
#04415:00130000000000000000000000000000
#0441b:00130000
#04416:0000001300130000
#04412:0013
#0471b:13131300
#04717:0000001300000000
#04712:0013000000001600
#04718:0000000000160000
#04617:0000001300130000
#0461b:0013
#04618:00130000000000000000000000000000
#04612:00130000
#05212:1300000000130000
#05214:0000001300000013
#05217:1300130000130000
#0521b:0013000013001300
#05216:0013000013000000
#05219:0000001300000013
#05312:1300001300000000
#0531b:1300000000001313
#05317:0000130000130000
#05316:00000013
#05310:41
#05412:0013000000000000
#05417:1313000000000013
#0541b:00131300
#05418:0000001300000000
#05416:0000000000130000
#0551b:00000013000000000000000013000000
#05512:1300001313000000
#05515:0013130000000000
#05516:0000000000130000
#0561b:0013
#05616:0013
#0561f:11
#0611b:13001313
#06112:13131300
#06118:0013000000000000
#06115:0000000000130000
#06116:0000001400000014
#06618:0013000013000000
#06615:00130013
#06612:0000001300000013
#0661b:0000000000130000
#07716:1300130000130000
#0771b:13
#07717:0013000013001300
#07714:0000001300000000
#07712:0013
#07719:0000000000000013
#07816:1300000000130000
#07812:0013000013000013
#0781b:1300001300130000
#07817:0013000013000000
#07912:13
#07915:0013000000000000
#0791b:13
#07918:0013000000000000
#0801b:23131300
#08018:00001300000013000000000000000013
#08012:00000013001300002300000000000000
#08015:00130000000000130000000013001300
#08017:0000000000130000
#08010:41
#08116:0000000000130013
#08112:1300130013000013
#08115:0013001300000000
#0811b:00000013001300002300000000000000
#08118:00130000000000130000000013000000
#09112:0013130013001300
#0911b:00001313
#09115:0000001600160000
#09117:00130000000000000000000000000000
#08312:0013000000001313
#0831b:13000000001300000000000000000000
#08317:0013000000000000
#08316:00000000001300000000000000000000
#08319:00000033000000330000000000000000
#0831a:0000333300000000
#08314:00000033000000330000000000000000
#08315:0000333300000000
#08417:13
#0841a:0000001414000000
#08416:00000000140000140000000000000000
#08412:00000000001400001400000014000000
#0841b:0000000000000013
#08512:0000001414000013
#08517:0000000000000013
#08516:00001300140000140000000000000000
#0851b:13
#0851a:00000000001400001400000014000000
#08612:0013001300001300
#08618:0000001313000000
#0861b:1300130000130000
#08616:1300000000000013
#08615:00130000
#0871b:0000000000130000
#08712:13
#0881b:0013001300000013
#08816:0013001300000013
#08817:1313
#08812:23132313
#08916:0000130013000013
#08912:1300001300000000
#08917:1300001300000000
#0891b:0013130023001300
#09019:0000000000130000
#09017:00000013
#09012:0013001300131300
#09016:0000130013000013
#0901b:0000000000000013
#08215:0016001600160016
#0821b:00130013
#08212:0013
#09216:1300130000130000
#0921b:1300001300130000
#09217:0013000013001300
#09212:0013000013000013
#09316:1300130000130000
#0931b:1300001300130000
#09317:0013000013001300
#09312:0013000013000013
#0951b:00000013000000000000000000000000
#09512:00000013000000000000140000000000
#0951a:0000000000140000
#02215:0013000000000000
#0221b:00130000130000000000000000000000
#02218:00000013000000000000000000000000
#02212:16130000
#0221a:00000013
#02213:0000000000000013
#05952:0000002300000000
#0595b:0000000000230000
#05958:0053
#05955:00530000
#0585b:0000000000000053
#06258:0000002200000000
#0625c:52
#06256:0000002200000000
#06252:62
#0645b:5343
#06457:0023000000000000
#06452:0000000000230063
#06455:0053
#06557:0000000000000053
#06558:0063
#06556:00230000000000000000000000000000
#0655b:0000000000230000
#06552:0033
#06756:0053000043000000
#06752:00000000002300000000000000000000
#06757:00000000002300000000000000000000
#0675b:0053000043000000
#02457:63000023
#02452:0063
#0245b:00230000
#02557:63
#0255b:00230000
#0265b:0000000000000053
#02656:0000000000000053
#02652:00130000
#02657:0000000000130000
#03052:00000023000000000000000000001300
#03057:0000000000000063
#02956:5300000000000053
#02952:00230000
#0295b:0000000000000013
#03352:0000000000000023
#03357:0000000000230000
#03356:00000053
#0335b:0053
#03457:0023000000230000
#03452:0000002300000013
#03456:00530000
#0345b:5300000053000053
#03657:0000230000000063
#03652:6300000000000013
#04052:0000000000000053
#0405b:0000130000000043
#04156:23
#04952:6363
#04956:00630000
#04857:0023000053000000
#0485b:5300000000230000
#05057:6300000000000063
#0505b:0023000000430000
#05052:63330000
#05056:0023000000000000
#06956:0000000053000063
#06952:0013
#07157:0000000000130000
#0715b:23
#07256:63
#07252:0023000000000000
#0725b:0000002300000000
#07258:00530000
#07257:0000000033000053
#07556:00230000000000000000000000000000
#07552:00000033
#0755b:00000043
#07452:0000000000000063
#07457:0000000000000043
#0765b:53430000
#07657:0023000000000000
#07652:00006333
#07656:0000000000230000
#09458:0000000000000063
#09452:00630000
#09457:00630000
#09456:63
#0945b:63
#09455:0000000000000053
#0685b:0013
#06857:0063
#0085b:53430000
#00857:0023000000000000
#00852:0000000000000063
#00956:23
#01052:63330000
#01056:0023000000000000
#0105b:0000000000000053
#01157:23
#0115b:0000000000430000
#01152:00000033
#0125b:0023000000000000
#01257:6300000000000053
#01252:0000130000000033
#0145b:0000130000000043
#01456:5300000000000063
#01452:0023000000000000
#0155b:0000000000130000
#01556:00000013
#0165b:00430000
#01852:00330000
#01955:0000000000330000
#01957:00006333
#0195b:0000000000230000
#01952:0063
#02356:00005343
#02352:0000000000230000
#0235b:0053
#02358:0000000000430000
#02752:00230000000000000000000000000000
#02757:00230000000000000000000000000000
#02856:53000023
#0285b:0053
#02852:00230000
#0315b:00000023000000000000000000000000
#03252:0023000000000000
#03256:5300002300000013
#03254:00530000
#0325b:5300002300000000
#03257:0023000000001300
#03259:00530000
#0375b:0013000000000000
#03756:00330000
#03856:0000230000000053
#0385b:5300000000000013
#03952:0013000000000000
#03957:00430000
#04357:23
#04358:00000046
#04352:0000000000360000
#04552:23
#0475b:23
#04758:0000000000460000
#04752:00000036
#05252:6300000000230000
#05256:0023000063000000
#0535b:53
#05357:00530000
#05356:00000053
#05452:0023000000000000
#05457:0000000000000053
#0555b:00000023000000000000000000000000
#05556:0000000000230000
#05552:0063
#05757:0043
#05752:0000000033000053
#0565b:0043
#05656:0033
#06056:0023000000000000
#0605b:13
#06052:0013
#06057:0000000000230000
#0615b:1363
#06158:0023000000000000
#06152:5313
#06155:0000000000230000
#0665b:0000000000000043
#07052:2300000000000013
#07057:0000000000000053
#0735b:23
#07352:0000002300000000
#07355:00630000
#07356:0043
#0775b:53430000
#07757:0023000000000000
#07752:00006333
#07756:0000000000230000
#07856:5300000000230000
#07852:0023000063003300
#0785b:5300430000230000
#07857:0023000063000000
#07952:63330000
#07955:0023000000000000
#0795b:53430000
#07958:0023000000000000
#0805b:0063
#08057:0000000000230000
#08052:0033
#08156:0000000000230063
#08152:0053
#0815b:0043
#0835b:00000000002300000000000000000000
#08357:0063000033000000
#08356:00000000002300000000000000000000
#08352:0063000033000000
#0845a:0054
#08452:0014
#08557:0000000000000053
#08552:0064
#0855a:0014
#0885b:0023000000000000
#08856:0000002300000063
#08857:5363
#08852:00633300
#09056:0000000000000033
#0905b:0000000000000053
#0865b:2300000000000013
#08656:0000000000000063
#08752:23
#08756:0000000000130000
#0875b:0000000000130000
#0915b:00000043
#09152:00000033
#09157:00230000000000000000000000000000
#08252:0000000000000033
#08952:23
#08957:0000002300000000
#0895b:00534300
#08956:0053
#0925b:53430000
#09257:0023000000000000
#09252:00006333
#09256:0000000000230000
#0935b:53430000
#09357:0023000000000000
#09352:00006333
#09356:0000000000230000
#0955b:00000023000000000000000000000000
#09558:0033
#09552:00000023000000000000340000000000
#09555:0043
#0955a:0000000000440000
#02052:00330000
#0225b:00430000
#0425b:0000000000000063
#04252:0000130000000033
#0445b:0000430000000043
#04456:0000000000630000
#04657:0000000000530000
#04652:0000330000000033
#000320:12
#000360:0022000000000000
#000381:0012000000000000
#0003c1:00220000
#000381:00000012
#0003a1:00000000000000000000000000320000
#0003c1:0000000000000022
#0013c1:0000000000120000
#0013a1:00000000000000000000003200000000
#001381:00000022
#001361:0000000000000012
#001341:00000000000000000000000000000032
#002321:22
#0023c0:12
#002380:0022000000000000
#002361:0012000000000000
#002321:00220000
#002361:00000012
#002341:00000000000000000000000000320000
#002321:0000000000000022
#0043c1:0000001200000000
#0073c1:0022
#004320:00000012
#004340:00000000000000000000000000320000
#004360:0000000000000022
#005330:0000000000120000
#005350:00000000000000000000003200000000
#005370:00000022
#005360:0000000000000012
#005340:00000000000000000000000000000032
#006320:22
#007371:00000012
#007361:0000000000000000000000000000000000000000000000000032000000000000
#007351:00000000000000000000000000320000
#007341:0000000000000000000000000000000000000000000000000000003200000000
#007321:0000000000000022
#0073c0:00000012
#0073b0:0000000000000000000000000000000000000000000000000032000000000000
#0073a0:00000000000000000000000000320000
#007390:0000000000000000000000000000000000000000000000000000003200000000
#007370:0000000000000022
#0083b0:13230000
#008370:0033000000000000
#008320:0000000000000013
#009360:33
#009320:0023000000000000
#010320:13230000
#010360:0033000000000000
#0103b0:0000000000000013
#011370:33
#0113b0:0023000000000000
#012370:13230000
#0123b0:0033000000000000
#0123b0:0013
#012370:0000000000230000
#012321:0000000000130023
#012361:00000033
#012341:00000000000000000000000000330000
#012370:0000000000000013
#0133b0:5323000000000000
#013370:0000000000000013
#013390:00000000000000000000000000000033
#0143b0:23
#014361:13230000
#014321:0033000000000000
#014321:0013
#014361:0000000000230000
#0143b0:0000000000130023
#014370:00000033
#014390:00000000000000000000000000330000
#014361:0000000000000013
#015321:5323000000000000
#015371:0013
#0153b1:0000000000230000
#015320:0013
#015360:0000000000532300
#016320:0013
#016360:0000000000230000
#016320:00000013
#016340:00000000000000000000000000330000
#016360:0000000000000023
#0163b1:0000000000000013
#0173b1:33
#017361:0023000000000000
#0173b1:0000132300000000
#017361:0000000000000013
#017341:00000000000000000000000000000033
#018321:23
#0183b1:0013
#018371:0000000000230000
#0183b1:00000013
#018391:00000000000000000000000000330000
#018371:0000000000000023
#018320:0000000000000013
#019320:33
#019370:0023000000000000
#019320:0000132300000000
#019320:0013
#019350:0000000000230000
#019371:00001323
#0193b1:0000000000530000
#020321:0013
#020361:0000000000230000
#020370:00001323
#0203b0:0000000000330000
#020360:0000000000000013
#021320:33
#021360:0023000000000000
#021320:00130000
#021360:0000002300000000
#022360:00001323
#022320:0000000000330000
#0223b1:0013
#022371:0000000000230000
#022370:0000000000000013
#0233b0:33
#023370:0023000000000000
#0233b0:00130000
#023370:0000002300000000
#023360:00001323
#023320:0000000000530000
#0233b1:0013
#023381:0000000000230000
#024370:1323
#0243b0:00530000
#024321:0013
#024371:00000053
#025321:23
#025370:1323
#0253b0:00530000
#026320:13
#026360:0023000000000000
#0263b1:0013000000000000
#026371:00230000
#0263b1:0000000000000013
#027371:00530000000000000000000000000000
#0273b1:00230000
#026360:0000000000000013
#027320:00530000000000000000000000000000
#027360:00230000
#028360:1323
#028320:00530000
#0283b1:0013
#028361:00000053
#0293b1:23
#029360:1323
#029320:00530000
#029360:0000000000000013
#030320:00000053000000000000000000000000
#030360:0023
#030370:0000000000000013
#0313b0:00000053000000000000000000000000
#031370:0023
#031320:0000000000130000
#031350:00000023
#0313b1:0000000000130000
#031381:00000023
#032361:1300005300000000
#032321:0053000023000000
#032341:00330000
#0323b0:1300005300000000
#032370:0053000023000000
#032390:00330000
#0333b0:00001323
#033370:0000000000530000
#033361:00000013
#033321:0000000000000053
#034361:23
#0343b0:13230000
#034370:0053000000000000
#034361:00132300
#034321:0000005300000000
#0343b0:00001323
#034370:0000000000530000
#0343b0:0000000000000013
#035380:0023000000000000
#035351:0013230000000000
#035321:00001323
#035361:0000000000330000
#0353b0:00000013
#035370:0000000000000033
#0363b0:23
#036321:1323
#036371:00530000
#036371:0000000000000013
#0373b1:0023000000000000
#037360:0013230000000000
#0373b0:00001323
#037370:0000000000330000
#037321:00000013
#037361:0000000000000033
#038321:23
#0383b0:1323
#038360:00530000
#038360:0000000000000013
#039320:0023000000000000
#039371:0013230000000000
#040321:13230000000000000000000000000000
#040380:00132300000000000000000000000000
#040351:00001323000000000000000000000000
#0403b0:00000013230000000000000000000000
#040370:0013
#0403b0:0000000000230000
#040370:00000013
#040390:00000000000000000000000000330000
#0403b0:0000000000000023
#040321:0000000000000013
#041361:53
#041321:0023000000000000
#041380:0013230000000000
#041351:0000132300000000
#0423b1:13230000000000000000000000000000
#042350:00132300000000000000000000000000
#042381:00001323000000000000000000000000
#042320:00000013230000000000000000000000
#042360:0013
#042320:0000000000230000
#042360:00000013
#042340:00000000000000000000000000330000
#042320:0000000000000023
#0423b1:0000000000000013
#043371:53
#0433b1:0023000000000000
#043350:0013230000000000
#043381:0000132300000000
#0443b1:13230000000000000000000000000000
#044381:00001323000000000000000000000000
#044320:00000013230000000000000000000000
#044360:0013
#0443b0:0000000000230000
#044361:0000000000130000
#044321:00000023
#044370:00000013
#044390:00000000000000000000000000330000
#0443b0:0000000000000023
#044321:0000000000000013
#045321:53
#045361:0023000000000000
#045371:00132300
#0453b1:0000005300000000
#046321:13230000000000000000000000000000
#046351:00001323000000000000000000000000
#0463b0:00000013230000000000000000000000
#046370:0013
#046320:0000000000230000
#046371:0000000000130000
#0463b1:00000023
#046360:00000013
#046340:00000000000000000000000000330000
#046320:0000000000000023
#0463b1:0000000000000013
#0473b1:53
#047371:0023000000000000
#047361:00132300
#047321:0000005300000000
#0483b1:13230000
#048371:0053000000000000
#048371:00001323
#0483b1:0000000000530000
#049321:1353
#049361:00530023
#049390:0013230000000000
#049390:0000000013230000
#050371:13230000
#0503b1:0053000000000000
#050320:13230000
#050360:0053000000000000
#050320:0013
#050360:0000000000230000
#050370:0000000000000013
#0513b0:00230000
#051361:0013000000000000
#051341:00000033000000000000000000000000
#051321:00230000
#051371:0000001300000000
#051391:00000000000000330000000000000000
#0513b1:0023
#052321:13230000
#052361:0053000000000000
#052361:00001323
#052321:0000000000530000
#0533b1:1323
#053371:00530000
#053340:0013230000000000
#053340:0000000013230000
#053360:00000013
#054320:0053000000000000
#054360:0023
#0543b0:0000000000130000
#054380:00000023
#054351:00000013
#054321:0000000000000023
#054370:0000000000000013
#0553b0:00000053000000000000000000000000
#055370:0023
#055321:00001323
#055361:0000000000530000
#056321:13
#056361:0023000000000000
#0563b0:1323000000000000
#0563b0:00130000
#056370:0000002300000000
#056321:0000132300000000
#0563b1:0000000000000013
#057371:0023000000000000
#056320:0000000000000013
#057320:0023000000000000
#057320:00130000
#057360:0000002300000000
#0573b1:0000132300000000
#057321:0000000000000013
#058351:0023000000000000
#0583b1:0000000000000013
#059371:0023000000000000
#059351:00132300
#059321:0000005300000000
#059380:00001323
#0593b0:0000000000530000
#060360:0013000000000000
#060320:00230000
#060370:0000000000130000
#0603b0:00000023
#061320:13
#061350:0023000000000000
#061381:0013000000000000
#0613b1:00230000
#0613b1:0013
#061381:0000000000230000
#061350:0000000000130000
#061320:00000023
#0623c0:12000022
#062380:0000005200000000
#062321:12000022
#062361:0000005200000000
#0643b1:13230000
#064371:0053000000000000
#064351:00001323
#064321:0000000000530000
#064321:0000000000000013
#065361:00530000000000000000000000000000
#065321:00230000
#065381:00001323
#0653b1:0000000000530000
#065371:0000000000000013
#066321:0023000000000000
#066381:00130000
#0663b1:0000002300000000
#066351:0013
#066321:0000000000230000
#066381:00000013
#0663b1:0000000000000023
#067361:0013000023000000
#067341:00000033000000330000000000000000
#067331:0000333300000000
#067321:00000000005300000000000000000000
#0673b0:0013000023000000
#067390:00000033000000330000000000000000
#067380:0000333300000000
#067370:00000000005300000000000000000000
#067370:00000013
#067320:0000000000000033
#068320:23
#068360:00130000
#0683b0:0000003323000000
#068371:0013
#068321:00000023
#068361:0000000000000013
#0693b1:3323000000000000
#069371:00130000
#069321:0000003323000000
#069360:0013
#0693b0:00000023
#069360:0000000000000013
#070320:53
#070360:0023000000000000
#070380:0013
#0703b0:0000000000230000
#070350:00000013
#070320:0000000000000023
#070371:0000000000000013
#0713b1:53
#071371:0023000000000000
#071320:0013000000000000
#071360:00230000
#0713b1:0000132300000000
#071360:0000001300000000
#071320:0023
#071371:0000000013230000
#072361:13
#072321:0033000000000000
#072351:00230000
#072380:00130000
#0723b0:0000003300000000
#072370:0023
#072321:00001323
#072371:0000000000000013
#0733b1:33
#073381:0023000000000000
#073351:00130000
#073321:0000003300000000
#073361:0023
#0733b0:00001323
#073320:0000000000000013
#074360:0033003300000000
#074320:00332300
#074320:0000000000000013
#075360:00530000000000000000000000000000
#075320:00230000
#0763b0:13230000
#076370:0053000000000000
#076320:00001323
#076360:0000000000530000
#0773b0:13230000
#077370:0053000000000000
#077320:00001323
#077360:0000000000530000
#078360:13230000
#078320:0053000000000000
#0783b1:13230000
#078371:0053000000000000
#078371:00001323
#0783b1:0000000000530000
#078320:00001323
#078360:0000000000530000
#079320:13230000
#079350:0053000000000000
#0793b1:13230000
#079381:0053000000000000
#079351:00001222
#079390:00001222
#0803b0:00001323
#080370:0000000000530000
#081320:00001323
#081360:0000000000530000
#081360:0000000000000013
#0823b0:0023000000000000
#082350:00130000
#082320:0000002300000000
#082380:0013
#0823b0:0000000000230000
#082350:00000013
#082320:0000000000000023
#083370:0013000023000000
#083390:00000033000000330000000000000000
#0833a0:0000333300000000
#0833b0:00000000005300000000000000000000
#083321:0013000023000000
#083341:00000033000000330000000000000000
#083351:0000333300000000
#083361:00000000005300000000000000000000
#083361:0000000000001333
#0843b1:23
#0843a1:0014
#084361:00000024
#084371:0000000000000013
#085371:33
#085321:0023000000000000
#085321:0014
#085361:00000024
#085371:0000000000000013
#0863b1:53
#086371:0023000000000000
#086351:0013
#086321:0000000000230000
#086381:00000013
#0863b1:0000000000000023
#086360:0000000000000013
#087320:53
#087360:0023000000000000
#0873b1:0013003300000000
#087371:00332300
#087320:00130000
#087360:0000002300000000
#087320:0013
#087360:0000000000230000
#088370:13230000
#0883b0:0033000000000000
#088321:00132300
#088361:0000003300000000
#088370:0013
#0883b0:00000023
#088360:0000000000000013
#089320:33
#089360:0023000000000000
#0893b0:00132300
#089370:0000003300000000
#089361:0013
#089321:00000023
#0893b1:0000000000000013
#090371:0033003300000000
#0903b1:00332300
#0903b1:0000000000000013
#091371:00530000000000000000000000000000
#0913b1:00230000
#0923b1:13230000
#092371:0053000000000000
#092321:00001323
#092361:0000000000530000
#0933b1:13230000
#093371:0053000000000000
#093321:00001323
#093361:0000000000530000
#0943b1:1323
#094371:00330000
#094360:1323
#094320:00330000
#094380:0000000000000013
#0953b0:00000053000000000000000000000000
#095380:0023
#094351:0000000000000013
#095321:00000053000000000000000000000000
#095351:0023
