This file was generated by Ched 2.6.4.0.
#TITLE ""
#ARTIST ""
#DESIGNER ""
#DIFFICULTY 0
#PLAYLEVEL
#SONGID ""
#WAVE ""
#WAVEOFFSET 0
#JACKET ""
#REQUEST "ticks_per_beat 480"
#00002: 4
#BPM01: 195
#00008: 01
#TIL00: ""
#HISPEED 00
#MEASUREHS 00
#0001b:13130000
#00212:13130000
#00418:13130000
#00615:13130000
#0081a:1414
#00810:41
#00914:1414
#0101a:1414
#01114:1414
#01218:1414
#01312:1414
#01418:1414
#01512:1414
#0161a:14
#01614:0014
#0171a:14
#01714:0014
#01818:14
#01812:0014
#01918:14
#01912:0014
#0201a:14
#02014:0014
#02118:14
#02112:0014
#0221a:14
#02214:0014
#02318:14
#02312:0014
#0241a:14
#02414:0014
#02410:41
#02614:14
#0261a:0014
#02818:14
#02812:0014
#03012:14
#03018:0014
#03314:0014
#03418:14
#03414:0014
#03519:0014
#03713:0014
#0251a:14
#02714:14
#02918:14
#03112:14
#0481a:14
#04814:0014
#05014:14
#0501a:0014
#05218:14
#05212:0014
#05412:14
#05418:0014
#06012:14
#06016:0014
#0611a:14
#06116:0014
#06216:0014
#06212:14
#0641a:24141400
#0641f:21
#06514:14141400
#06510:0041
#0661a:1414
#06614:00140014
#06812:14141400
#06918:14141400
#07012:1414
#07018:00140014
#0721a:1414
#07214:00140000
#07312:1414
#07318:00140000
#0741a:1414
#07414:00140014
#07518:1414
#07512:00140014
#07913:0014
#07919:0014
#08014:00140000
#08018:0014
#0801a:24
#08010:41
#08112:14
#08118:00140000
#08114:0014
#0821a:14
#08212:00140000
#08218:0014
#08214:00000014
#08412:14
#08418:00140000
#08414:0014
#0851a:14
#08514:00140000
#08518:0014
#08612:14
#0861a:00140000
#08614:0014
#08618:00000014
#08818:14
#08814:00140000
#0881a:0014
#08914:14
#08918:00140000
#08912:0014
#0901a:14
#09014:00140000
#09018:0014
#09012:00000014
#0911a:14
#09114:00140000
#09118:0014
#09112:00000014
#0921a:14
#09218:0014
#09316:14
#09314:0014
#09412:14
#09416:0000001400000000
#0761a:14
#07616:0014
#07712:0014
#07816:00140000
#07815:3434
#04018:14
#04012:0014
#04010:41
#0411a:14
#04114:0014
#04218:14
#04212:0014
#0431a:14
#04314:0014
#0441a:14
#04412:0014
#04518:14
#04514:0014
#0461a:14
#04612:0014
#04718:14
#04714:0014
#03913:15
#03914:00150000
#03813:1515
#03814:00150000
#03812:00000015
#0581a:14343400
#05818:00000014
#0671a:1414
#06714:00140000
#07112:1414
#07118:00140000
#0831a:14
#08312:00140000
#08318:0014
#08712:14
#0871a:00140000
#08714:0014
#03618:1515
#03617:00150000
#03619:00000015
#0561f:11
#09518:0026
#09512:0000000000260000
#0591a:34340000
#05310:41
#06256:0024
#06252:54
#07656:0024
#0765a:64
#07856:00240000
#07752:0054
#09452:54
#09456:0000002400000000
#03258:00000014
#03953:55
#03954:00250000
#03853:5555
#03854:00250000
#03852:00000025
#05858:00000024
#0585a:64
#09552:0000000000160000
#03658:6565
#03657:00250000
#03659:00000025
#0565a:0014
#05752:0014
#0675a:0014
#07152:0014
#08358:0014
#08754:0014
#032380:14000024
#036380:1555
#036370:00550000
#036390:00000055
#037380:25
#038330:1555
#038340:00550000
#038320:00000055
#039330:5525
#039340:00550000
#0493a0:1424
#051340:1424
#053380:1424
#055320:1424
#056380:14
#056390:00340000
#0563a0:0024
#057340:14
#057330:00340000
#057320:0024
#0583a0:14343400
#058380:00000034
#0593a0:34342400
#062320:14
#062360:0054
#063320:24
#0763a0:14
#076360:0034
#0773a0:24
#077320:0014
#078350:3434
#078360:00540000
#079320:24
#094320:14000024
#094360:0000005400000000
