This file was generated by Ched 2.7.0.0.
#TITLE ""
#ARTIST ""
#DESIGNER ""
#DIFFICULTY 0
#PLAYLEVEL
#SONGID ""
#WAVE ""
#WAVEOFFSET 0
#JACKET ""
#REQUEST "ticks_per_beat 480"
#00002: 4
#BPM01: 159
#00008: 01
#TIL00: ""
#HISPEED 00
#MEASUREHS 00
#00019:14
#00013:0014
#00318:14
#00418:14
#00514:14
#00614:14
#0071a:14
#0081a:14
#00912:14
#01012:14
#01118:14
#01110:41
#01214:14
#01318:14
#01414:14
#0271a:14
#0281a:14
#02914:14
#03014:14
#03118:14
#03110:41
#03218:14
#03312:14
#03412:14
#05118:2616
#0511f:21
#05212:1616
#05210:41
#05318:16
#05312:0016
#05512:1616
#05618:1616
#05712:16
#05718:0016
#06312:0016
#06318:26
#06310:41
#06418:16
#06412:0016
#06518:16
#06512:0016
#06718:0016
#06712:16
#06812:16
#06818:0016
#06912:16
#06918:0016
#06218:14
#06214:0014
#0601a:14
#06112:14
#0351a:14
#03614:14
#03718:14
#03812:14
#0391a:14
#04014:14
#04118:14
#04110:41
#04212:14
#04318:1414
#0431f:11
#0151a:14
#01612:14
#0171a:14
#01812:14
#01918:1414
#01910:41
#02014:1414
#0231a:1414
#02412:1414
#0471a:14
#04714:0014
#0481a:14
#04814:0014
#04918:14
#04912:0014
#05018:14
#05012:0014
#00118:26
#07012:26
#0213a0:1424
#022320:1424
#025380:1424
#026340:1424
#044340:1400000034000034
#045340:0000340000340000
#046340:24
#054380:1626
#058320:1636
#059320:26
#066380:1626
#070320:1636
#071320:26
