This file was generated by Ched 2.7.0.0.
#TITLE ""
#ARTIST ""
#DESIGNER ""
#DIFFICULTY 0
#PLAYLEVEL
#SONGID ""
#WAVE ""
#WAVEOFFSET 0
#JACKET ""
#REQUEST "ticks_per_beat 480"
#00002: 4
#BPM01: 159
#00008: 01
#TIL00: ""
#HISPEED 00
#MEASUREHS 00
#03612:1300000000131600
#03618:00001300000000130000001300001600
#03615:00000013000013001300000000000000
#0361b:00000000130000000013000000000000
#03712:13131300
#03715:00001300000013000000001300130013
#03718:13000013001300130000130000001300
#0371b:00001313
#03917:13000000000000000000001300000000
#03916:0013
#0391b:00000000000000000013000000000000
#03912:0000000000130000
#03914:00000000000000000000000000140014
#03918:0000000000000014
#04316:1414000000000013
#04312:13000000140000001400001300000000
#04319:00000000001300000000000000000013
#0431b:00001300000000130000000000000000
#04315:0000001400000000
#0431f:11
#01818:1300131300131300
#0181b:0013000013000013
#01815:00130013000000130013000000130000
#01812:00000000001300000000001300000000
#01916:1400001400001400
#0191a:00140000000000000000140000000000
#01914:00001400000000000014000000000000
#01918:00000014000000001400000000000000
#01912:00000000140000140000000000001400
#0191b:00000000000000000000000000130013
#01910:41
#02016:14000000140000000000000000130000
#02012:0014000014000000
#0201b:00130013000000000000000000001300
#02014:00000000000013000000001300000000
#02017:0000000000130000
#02019:0000001300001300
#0201a:0014
#02316:00001400140014001400001400001400
#0231b:13
#02312:13000014000000000000140014000000
#0231a:00000000000000140014000000140014
#04816:00000013000000000000130000001300
#04817:00000000000000130000000013000000
#0481b:0013130000130013
#04812:1300001313001300
#05018:13131300
#0501b:0013001300130000
#05015:00000013000000130013000026000000
#05012:00000000001300000000001300000000
#00012:14
#00016:0014
#00212:00001414
#00216:0000000000140014
#00318:0013001300000000
#0031b:23130000
#00312:23000013000000130000130000000000
#00315:00000000001300000000000013000000
#00412:13130000
#0041b:13000013000000130000130000000000
#00415:0013001300000000
#00418:00000000001300000000000013000000
#00518:0013130000000000
#00515:00000013000000130000000013000000
#0051b:1300001300000000
#00512:13000000001300000000130000000000
#00718:0013001300000000
#0071b:23130000
#00712:00000013000000000000130013000000
#00715:23000000001300130000000000000000
#00815:0013001300000000
#00812:13130000
#0081b:00000013000000000000130013000000
#00818:13000000001300130000000000000000
#0091b:13130000
#00915:13000013000000130000000013000000
#00918:0013001300000000
#00912:00000000001300000000130000000000
#01118:0013001300130013
#01115:00000013000000130000001300000000
#0111b:23131313
#01112:23000000001300000013000000130000
#01110:41
#01214:00130000
#01219:00000000001300000000000000000000
#01212:0013000000000013
#01217:00000013000000000000000000000000
#01312:00000013001300000000000000000000
#01318:00001300000013000000003300000000
#01315:00130000000000130000000000000033
#0131b:13130000
#01313:00000000000000000000000000330000
#01314:0000000000000033
#0131a:00000000000000000033000000000000
#01319:0000000000330000
#0151b:1300001300000013
#01515:00001300000000130000001300000000
#01518:00000013000000000000000000000000
#01512:00000000001300000013000000130000
#01519:00001313
#01517:0000000000130000
#02116:0000000000130000
#02119:00000013
#02117:00000000001300000000000000001300
#02114:00000013
#02112:0000000000000013
#02212:1300000000130000
#02216:0013000013000000
#02217:1300000000130000
#0221b:0013000013000000
#02412:0013000000000000
#02417:00000013000000000000000013000000
#02414:00130000
#02419:00000000001300000000000000000000
#02416:0000001300000000
#0241b:00000000000000130000130000001300
#0251b:1313
#02517:0013000000130000
#02512:13130013
#02516:0000001300000013
#0261b:13
#02617:00130000
#02612:00130000
#0411b:13000000000000000000130000000013
#04116:00130000000000000013000000000000
#04117:00000013000000130000000000130000
#04112:0000131300001300
#04110:41
#04216:1300001313000000
#04212:0013000000130013
#04218:00000013000000000000000000000000
#04214:00130000
#0421a:00000000001300000000000000000000
#0421b:0013
#04217:0000000000130000
#04417:0013000000000000
#04412:00000013000000000000001400000000
#0441b:00000000130000130000000000000000
#04416:00000000001300000000000000000000
#04415:00000000000000001300000000000013
#04418:00000000000000000013001300001300
#0451a:00140000000000000000000000000000
#04512:00000000130000000000000000130000
#04518:00000000001300000000000000140000
#04514:00000000000000140000000000000000
#0451b:00000000000000130000130000000000
#04515:00130000000000000000001300000000
#04714:13000013000000000000001300000000
#0471b:0013000000001300
#04717:0000130000130000
#04712:0000001300000000
#04719:13000000000000130000000000000013
#04716:0000000013000013
#0491b:0013000000130000
#04918:1313
#04915:13130013
#04912:0000001300000013
#01012:13130000
#01018:13000013000000130000000013000000
#01015:0013001300000000
#0101b:00000000001300000000130000000000
#0271b:0013000000000000
#02719:00130000
#02716:00000013000000000000000000000000
#02717:2300001300000000
#02714:00000000001300000000000000000000
#02718:00000013
#02712:23000000000000130000000000000000
#02812:0013000000000000
#02814:00130000
#02817:00000013000000000000000000000000
#02816:1300001300000000
#02819:00000000001300000000000000000000
#02815:00000013
#0281b:13000000000000130000000000000000
#02916:0013000000000000
#02914:00130000
#0291b:13000013000000000000000000000000
#02912:1300001300001300
#02919:00000000001300000000000000000000
#02917:00000000000000130000000000000000
#03416:00000013
#03412:13
#03118:0013001300000000
#0311b:23130000
#03112:26000013000000130000000000000000
#03115:00000000001300000000000000000000
#03110:41
#03215:0013001300000000
#03212:13130000
#0321b:00000013000000130000000000000000
#03218:16000000001300000000000000000000
#03318:0013001300000000
#0331b:13130000
#03312:16000013000000130000000000000000
#03315:00000000001300000000000000000000
#01415:00000013001300000000000000000000
#01418:0013001300000000
#01412:00130000000000130000000000000033
#0141b:13000000130000000000003300000000
#01419:00000000000000000033000000000000
#0141a:0000000000330000
#01414:00000000000000000000000000330000
#01413:0000000000000033
#01615:0000000000000013
#01712:13000000000000130013000000000013
#0171b:1300001313000013
#01718:0013130000131300
#01715:00000013001300000000001300130000
#0351b:0013000013000000
#03516:00000013000000000013000000000000
#03517:0000001300001300
#03515:0000000000000013
#03518:23000000000000000000000000000013
#03519:0000130000130000
#03512:23000000001300000000001300000000
#03514:00000000000000130000000000000000
#03818:0014000000000000
#03814:00000014000000130000000000000000
#03812:13000000001300000000000000000000
#03817:0000001300000000
#03819:0013
#0381b:13
#04015:00000000000000000013000000000000
#04018:0000000013130000
#0401a:00330033000000000000000013000000
#04013:00000000003300330000000013000000
#04614:13
#04619:13
#0461a:0014001400000000
#04615:00000014000000000014000000000000
#04617:00141400
#04612:00000000001400140000000014000000
#0611b:13
#05112:0013000000130000
#05116:00000013
#0511b:00001313
#05115:00130000
#0511a:24
#05114:24
#0511f:21
#05212:14001313
#05218:14130000
#0521b:0013000000130000
#05217:00000013
#05210:41
#05312:0013000000001300
#0531a:14
#05314:14130000
#05316:0000001300130000
#05317:00001313
#05412:1414
#05418:14
#0541a:0000000000000014
#05416:0000000000141400
#0541b:0013000000000000
#05417:0000001300000000
#05419:00130000
#05516:2413001300000000
#0551b:23000013
#05512:00130000
#05612:13000013
#05616:14
#05617:0013001300000000
#0561b:00130000
#05716:1413000000141400
#05712:0000131300000014
#0571b:13
#0571a:0014
#05818:13130013
#05812:0013000000130000
#05815:1313
#0581b:0000001300000013
#06317:0013000013000000
#0631b:2300130000130000
#06312:00000013000000000000000013000000
#06316:23000000001300000000130000000000
#06319:0000001300000000
#06314:00000000000000130000000000000000
#06310:41
#06416:0013000013000000
#06412:1300130000130000
#0641b:00000013000000000000000013000000
#06417:13000000001300000000130000000000
#06414:0000001300000000
#06419:00000000000000130000000000000000
#06518:0013001300000000
#0651b:13131300
#06515:00000013000000130000000000000000
#06512:13000000001300000000130000000000
#06517:0000000000130000
#06516:00000013
#06615:0013001300001400
#06612:13131400
#06618:00000013000000130000000000000000
#0661b:13000000001300000000000000000000
#06617:0000000000140000
#0661a:0000000000000014
#0671a:0014000000000000
#06718:2400131300000000
#06715:00000013000000130000000000001600
#06712:24000000001400001300130000000000
#0671b:0013
#06717:0000000000130000
#06812:0014000013000000
#06815:0000131300000016
#06818:00000013000000130000000000000000
#0681a:14000000001400000000000000000000
#06816:0000000000130000
#0681b:0000000013130000
#06814:14
#06916:00001400001400000000000000000000
#0691b:00130013
#06912:14000013000000001300130000000000
#06917:0013
#06919:0000001300000000
#06914:00000000000000130000000000000000
#06915:0000000000000016
#06918:14
#07018:2600260026131313
#07015:00000000000000000000001300130013
#07012:26262600
#00615:0013130000000000
#00618:00000013000000130000000013000000
#00612:1300001300000000
#0061b:13000000001300000000130000000000
#03017:0013000000000000
#03019:00130000
#03012:13000013000000000000000000000000
#0301b:1300001300001300
#03014:00000000001300000000000000000000
#03016:00000000000000130000000000000000
#0011a:24
#06212:26000026
#06218:00262426
#06214:0024
#07112:23
#0711b:23
#05914:00330000000000000000000000000000
#05919:00000000003300000000000000000000
#05915:00000000000000000033000000000000
#05918:00000000000000000000000000330000
#00355:00000013
#00555:00000013
#00752:00000013
#0085b:00000013
#02252:5300000000230000
#02256:0023000063000000
#02257:5300000000230000
#0225b:0023000063000000
#0255b:6363
#02557:0023000000230000
#02552:00530053
#02556:0000002300000023
#0265b:63000033
#02657:00230000
#02656:00000033
#0495b:0023000000230000
#04958:5353
#04952:0000002300000023
#04955:00630063
#00458:00000013
#00955:00000013
#01058:00000013
#02758:00000013
#02855:00000013
#02952:00000013
#0315b:00000043
#03252:00000033
#03358:00000033
#0155b:0000000000000063
#01658:0013000013000013
#01652:00000000001300000000001300000000
#01952:00140000
#0195a:0000000000140000
#02157:00000000002300000000000000000000
#0205b:0000000000000063
#03652:63000036
#0365b:00630000
#03658:0000000000000046
#0385b:00000013
#04053:00000013
#0405a:00000013
#04256:0053
#0425b:0053
#04257:0000000000230000
#04252:0000000000230033
#04452:00000000000000000000001400000000
#0455a:00140000000000000000000000000000
#04554:00000000000000140000000000000000
#04558:00000000000000000000000000140000
#0465a:00000014
#04652:00000014
#06252:36000036
#06258:00461446
#06254:0014
#0515b:00006343
#05252:00005333
#05357:00006343
#05356:0000006300000000
#05452:0014
#05456:00000014
#05457:0000005300000000
#0555b:00000043
#05556:0000005300000000
#05652:00000033
#05657:0000006300000000
#05752:0000005300000000
#0575a:0014
#05756:00000014
#05852:0023000000230000
#05855:63436343
#05858:13533353
#0585b:0000002300000023
#06357:0063
#0635b:0000000000230000
#06352:00000033
#06456:0053
#06452:0000000000230000
#0645b:00000043
#0655b:00006343
#06557:0000000000230000
#06556:00000033
#06652:0014
#06657:0000000000140000
#06655:00000014
#0665a:0000000000000014
#0675b:00006343
#06757:0000000000230000
#06752:0000000000230000
#06756:00000043
#06852:00005333
#06856:0000000000230000
#0685b:0000000000230000
#06857:00000033
#06957:0063
#06952:0000000000230000
#06956:00000043
#0695b:00000043
#07052:3636
#07058:00460000
#07152:33
#0715b:43
#05055:00000016
#00658:00000013
#0305b:00000013
#06055:00000013
#06058:00000013
#01158:0000000000000013
#01252:0000000000000013
#0013a0:14
#0023a0:0024
#0033b0:00001323
#004320:00001323
#005380:0013
#0053b0:00000023
#006350:0013
#006320:00000023
#0073b0:0013
#007370:0000000000332300
#008320:0013
#008360:0000000000332300
#0093b0:00001323
#009380:0000000000330000
#010320:00001323
#010350:0000000000330000
#012360:0000001323000000
#0123b1:0000000013230000
#012320:0000000000132300
#012371:0000000000001323
#0133b1:0013
#0133a1:00000000000000000033000000000000
#013391:0000000000330000
#013381:00000000000000000000003323000000
#013320:00000013
#013330:00000000000000000000000000330000
#013340:0000000000000033
#013350:00000000000000000000000000000033
#014350:23
#014380:0013
#014390:00000000000000000033000000000000
#0143a0:0000000000330000
#0143b0:00000000000000000000003323000000
#014351:00000013
#014341:00000000000000000000000000330000
#014331:0000000000000033
#014321:00000000000000000000000000000033
#015321:23
#0153b1:0000000000000013
#016381:0023000000000000
#016350:0013000000000000
#016320:00000000532300000000000000000000
#0163b1:00000000001300000000000000000000
#016381:00000000000000532300000000000000
#016350:0013
#016320:00000000000000000000532300000000
#0163b1:00000000000000000000001300000000
#016381:00000000000000000000000000532300
#0203b1:0000000000000013
#021371:00000000005300000000000000000000
#0213b1:0000000000230000
#022321:13230000
#022361:0053000000000000
#022370:13230000
#0223b0:0053000000000000
#0223b0:00001323
#022370:0000000000530000
#022361:00001323
#022321:0000000000530000
#024321:00001333
#024361:0000000000330023
#0253b1:13230000
#025371:0053000000000000
#025320:00132300
#025360:0000005300000000
#0253b1:00001323
#025371:0000000000530000
#025320:00000013
#025360:0000000000000053
#026320:23
#0263b1:13003323
#026371:00530000
#026360:00001323
#0273b0:0000000013230000
#027351:0000000000132300
#028321:0000000013230000
#028380:0000000000132300
#029320:0013
#029360:0000000000230000
#0293b1:0000000000130000
#029371:00000023
#0303b1:0013
#030371:0000000000230000
#030320:0000000000130000
#030360:00000023
#0313b0:00001323
#031380:0000000000330000
#031321:0000000000130000
#031351:00000023
#032321:00001323
#032351:0000000000330000
#0323b0:0000000000130000
#032380:00000023
#033380:00001323
#0333b0:0000000000330000
#033351:0000000000130000
#033321:00000023
#034371:13
#034381:00330000000000000000000000000000
#034391:0033000000000000
#0343a1:00000033000000000000000000000000
#0343b1:00230000
#034360:00130000
#034350:00000000003300000000000000000000
#034340:0000003300000000
#034330:00000000000000330000000000000000
#034320:0023
#034371:0013
#034381:00000000000000000033000000000000
#034391:0000000000330000
#0343a1:00000000000000000000003300000000
#0343b1:00000023
#036321:13
#036351:0023000000000000
#0363b1:00130000
#036381:0000002300000000
#038361:00000000000000000013000023000000
#0383b0:0000000000132300
#039320:13230000
#039340:00330033000000000000000000000000
#039360:0033000000000000
#0393b1:00132300
#039391:00000000003300330000000000000000
#039371:0000003300000000
#040381:13230000
#0403a1:00330033000000000000000000000000
#0403b1:0033000000000000
#040350:00132300
#040330:00000000003300330000000000000000
#040320:0000003300000000
#0423b0:0000000013003323
#042370:0000000000530000
#042361:00001323
#042321:0000000000530000
#043370:00000000000000000013002300000000
#044320:1323000000000000
#0463a0:0000000000142400
#049380:13230000
#0493b0:0053000000000000
#049351:00132300
#049321:0000005300000000
#049380:00001323
#0493b0:0000000000530000
#049351:00000013
#049321:0000000000000053
#050351:23
#051371:0013000000000000
#051381:00000033000000000000000000000000
#051391:00330000
#0513a1:00000000003300000000000000000000
#0513b1:0000002300000000
#051320:0000001323000000
#0513b1:0013
#051371:0000000000230000
#052361:0013000000000000
#052351:00000033000000000000000000000000
#052341:00330000
#052331:00000000003300000000000000000000
#052321:0000002300000000
#0523b0:0000001323000000
#052321:0013
#052361:0000000000230000
#053371:0013000000000000
#053381:00000033000000000000000000000000
#053391:00330000
#0533a1:00000000003300000000000000000000
#0533b1:0000002300000000
#053360:0000001300000000
#053320:0023
#053371:0013
#0533b1:0000000000230000
#054361:0013000000000000
#054351:00000033000000000000000000000000
#054341:00330000
#054331:00000000003300000000000000000000
#054321:0000002300000000
#054370:0000001300000000
#0543b0:0023
#0553b0:0013002300000000
#055390:00000033003300000000000000000000
#055370:00330000
#055361:0000001300000000
#055321:0023
#0553b0:0013
#055370:0000000000230000
#055321:0000000000130000
#055361:00000023
#056321:0013002300000000
#056341:00000033003300000000000000000000
#056361:00330000
#056370:0000001300000000
#0563b0:0023
#056321:0013
#056361:0000000000230000
#0563b0:0000000000130000
#056370:00000023
#0573b0:0013002300000000
#057390:00000033003300000000000000000000
#057370:00330000
#057321:0000001300000000
#057361:0023
#058351:13230000
#058321:0053000000000000
#058380:00132300
#0583b0:0000005300000000
#058351:00001323
#058321:0000000000530000
#058380:00000013
#0583b0:0000000000000053
#059380:23
#059321:13
#059341:00330000000000000000000000000000
#059351:00003333230000000000000000000000
#0593b0:00130000
#059390:00000000003300000000000000000000
#059380:00000000000033332300000000000000
#059351:00000000000000001333000000000000
#059321:00000000000000000000333323000000
#059380:00000000000000000000000013330000
#0593b0:00000000000000000000000000003333
#0603b0:23
#060351:13230000
#060321:00333333000000000000000000000000
#060380:00000000130000003333333323000000
#0603b0:00000000003333330000000000000000
#060351:00000000000000001333333323000000
#061361:13
#061341:00330000000000000000000000000000
#061321:0023000000000000
#061370:0013000000000000
#061390:00000033000000000000000000000000
#0613b0:00230000
#061361:00130000
#061341:00000000003300000000000000000000
#061321:0000002300000000
#061370:0000001300000000
#061390:00000000000000330000000000000000
#0613b0:0023
#061351:0000000013230000
#0613b0:0000000000132300
#061321:0000000000001323
#061380:0000000000000013
#062380:23
#063370:00001323
#0633b0:0000000000330000
#064360:00001323
#064320:0000000000330000
#0653b0:00001323
#065370:0000000000330000
#0673b0:00001323
#067370:0000000000330000
#067321:0000000000130000
#067361:00000023
#068321:00001323
#068361:0000000000330000
#0683b0:0000000000130000
#068370:00000023
#069370:0013
#0693b0:0000000000230000
#069321:0000000000130000
#069361:00000023
