This file was generated by Ched 2.7.0.0.
#TITLE ""
#ARTIST ""
#DESIGNER ""
#DIFFICULTY 0
#PLAYLEVEL
#SONGID ""
#WAVE ""
#WAVEOFFSET 0
#JACKET ""
#REQUEST "ticks_per_beat 480"
#00002: 4
#BPM01: 159
#00008: 01
#TIL00: ""
#HISPEED 00
#MEASUREHS 00
#0001a:14
#00016:0014
#01118:0013001300000000
#01112:23130000
#0111b:2300000000130013
#01115:00001313
#01110:41
#0121b:00130013
#01212:0013000000000013
#01215:0000001300130000
#01218:0013
#01618:0014000000000000
#01612:00000000001400000000000000000000
#01619:0014
#01613:00000000000000000000001400000000
#0161a:0000000000000014
#01912:14000014
#01918:0014000000140000
#01914:00141400
#01916:0000000000000014
#0191a:0000001400000000
#01910:41
#0201a:1414
#02016:0014001400000000
#02012:00140000
#02015:0000000000130013
#02018:00000013
#02118:0000000000130000
#02112:00000013
#0211b:0000000000000013
#02215:13
#02218:0013
#0231b:1313
#02312:1313
#02318:0013001300001313
#02315:00000000130000000000130000130013
#0241b:0013000000000013
#02415:00130013
#02418:0000001300130000
#02412:0013
#02512:13
#0251b:0013
#0261b:13
#02618:0013
#02615:13
#02612:0013
#02715:00001313
#02718:00000000003300000000130000000000
#02718:0000000000130000
#02712:23
#0271b:23
#02719:00330000
#0271a:00000033000000000000000000000000
#02812:13
#0281b:13
#02818:00001313
#02815:00000000003300000000130000000000
#02814:00330000
#02813:00000033000000000000000000000000
#0291b:13000000003300000000000000000000
#02912:13000013
#02915:0013
#02918:0000000000130000
#0291a:00330000
#02919:00000033000000000000000000000000
#03012:13000000003300000000000000000000
#0301b:13000013
#03018:0013
#03015:0000000000130000
#03013:00330000
#03014:00000033000000000000000000000000
#03212:1313000000130000
#0321b:1313
#03218:00000013
#03214:00330000
#03213:00000033000000000000000000000000
#03215:00000000003300000000000000000000
#0331b:13000000003300000000000000000000
#03312:1313
#03318:0013000000130000
#03315:00000013
#0331a:00330000
#03319:00000033000000000000000000000000
#0341a:14
#03416:00000000343414343400000000000000
#03417:00000034000000000034000000000000
#03418:0034000000340000
#03419:00340000000000000000003400000000
#04118:14000014
#04112:00000014000000000000000000000014
#0411a:0000001400000000
#04114:00000000000000000014000000000000
#04110:41
#04215:0013
#0421b:00000000003300000000000000001300
#04218:0013000000000000
#04219:00000033000000000000000000000000
#0421a:00330000
#0461a:0014000000000000
#04612:00140000
#04618:0000001400000000
#04614:14
#0371b:1313
#03718:0013001300001300
#03715:0000130000130013
#03712:1313
#03515:0013001300000000
#03518:23001313
#03512:2300000000130013
#0351b:00130000
#03618:00001316
#03615:0000000000130000
#03612:0000000000000016
#03815:0013001300000000
#03818:00130000
#03812:13000014
#0381b:13
#03816:0000000000140000
#0381a:0014
#0501a:0013
#05018:13000026
#05012:0013000000000000
#05019:00130000
#05013:0000001300000000
#05014:0000000000130000
#04712:0013000000130000
#0471b:00130013
#04715:0000001300000013
#04718:1313
#04918:13
#04915:0013
#04815:0013000000001300
#04818:1300000000130000
#0481b:00131300
#04812:0000001300000013
#05115:0000000000130000
#0511b:00001313
#05112:0013001300000000
#05118:00130000
#0511a:24
#05114:24
#0511f:21
#05212:14001313
#05218:1400000000130000
#0521b:0013001300000000
#05215:00130000
#05210:41
#0531a:14
#05314:14
#05315:0000001300130000
#05318:00130013
#0531b:0013
#05312:0013000000000000
#01515:0013000000130000
#01512:0000001300000013
#0151b:1313
#01518:00130013
#05412:1414
#05418:1400001300000000
#0541a:00000014
#0541b:0013000000000000
#05415:00130000
#01412:0000000000000013
#01418:00000013
#01413:0000000000130000
#01419:0013
#01414:0000001300000000
#0141a:00130000
#01415:0013000000000000
#0141b:13
#01315:0000000000000013
#0131b:00000013
#01314:0000000000130000
#0131a:0013
#01313:0000001300000000
#01319:00130000
#01312:0013000000000000
#01318:13
#04018:0000001300130000
#0401b:00000013
#04015:13131300
#04012:0013000000001300
#05614:14
#0561a:14
#05618:0013000000130000
#05612:00000013
#05615:00131300
#0561b:0000001300000000
#05718:14130013
#05715:0013000000130000
#0571b:0013
#05712:1400001300000013
#0591c:0012001200000000
#05916:00120000
#05912:13001212
#05918:1300000000120012
#06014:12001212
#0601a:0012000000120000
#06016:00120000
#06018:0000001200000000
#0611b:1300000000130000
#06115:00000013
#06118:00003313330000000000000000001300
#06112:0013
#06119:00330000003300000000000000000000
#06318:0013131300000000
#06315:00000013001300001300000000000000
#0631b:0000000000130000
#06312:23000013
#06310:41
#0641b:13000013
#06415:0013131300000000
#06418:00000013001300001300000000000000
#06412:0000000000130000
#06614:00000014
#0661a:0014
#0661b:13
#06612:0013131300000000
#06618:00000013001300000000000000000000
#0181b:0000000000000013
#01815:00000013
#0181a:0000000000130000
#01814:0013
#01819:0000001300000000
#01813:00130000
#01818:0013000000000000
#01812:13
#01718:0000000000000013
#01712:00000013
#01719:0000000000130000
#01713:0013
#0171a:0000001300000000
#01714:00130000
#0171b:0013000000000000
#01715:13
#0391b:13000013
#03918:0013000000130013
#03915:00131300
#03912:0000001300000000
#05515:0013000000130000
#0551b:00000013
#05518:24131300
#05512:2400001300000000
#0581b:13
#05815:13
#05812:0013
#05818:0013
#06512:1313
#0651b:0013131300000000
#06515:00000013001300000000000013000000
#06518:0000000000130000
#06712:0013000000130000
#06713:00130000
#06718:00000013000000001300000000000000
#06719:00000000001300000000000000000000
#0671b:23000013
#06714:0000001300000000
#0681b:0013000000130000
#0681a:00130000
#06815:00000013000000001300000000000000
#06814:00000000001300000000000000000000
#06812:13000013
#06819:0000001300000000
#06915:0013000000000013
#06914:00130000
#0691a:00000013000000000000000000000000
#06912:0000000000130000
#06919:00000000001300000000000000000000
#06918:00000013
#0691b:1313
#06913:0000001300000000
#00315:0013001300000000
#00318:00130000
#0031b:23
#00312:23
#0031a:0000000000330000
#00418:0013001300000000
#00415:00130000
#00412:13
#0041b:13
#00413:0000000000330000
#00515:0013001300000000
#0051b:13130000
#00512:13
#00519:0000000000330000
#00618:0013001300000000
#00612:13130000
#0061b:13
#00614:0000000000330000
#00715:0013000000000000
#00718:00131300
#00712:2300001300000000
#0071b:23
#0071a:0000000000330000
#00818:0013000000000000
#00815:00131300
#0081b:1300001300000000
#00812:13
#00813:0000000000330000
#00918:0013000000000000
#00915:00130000
#00912:1300001300000000
#0091b:1313
#00919:0000000000330000
#01015:0013000000000000
#01018:00130000
#0101b:1300001300000000
#01012:1313
#01014:0000000000330000
#03112:2313
#0311b:2313000000130000
#03115:00000013
#03119:00330000
#0311a:00000033000000000000000000000000
#03118:00000000003300000000000000000000
#03110:41
#04314:13
#0431a:0013000000000000
#04313:00130000
#04319:0000001300000000
#04318:0000000000000013
#0431f:11
#04412:1314
#04419:0013000000000000
#04413:00130000
#0441a:0000001300000014
#04418:00000000000000000000000000000034
#04414:00000000000000000034000000000000
#00218:00001414
#00214:0000000000140014
#04514:00140000
#04518:0000000000140000
#0451a:00000000000000000000003400000000
#04512:00000000003400000000000000000000
#0011a:24
#00112:24
#06212:2424
#0621a:00240000
#06214:00000028
#07014:2424
#07018:00240024
#07012:00240024
#0701a:2424
#07113:24
#07119:24
#02055:0000000000000063
#02255:63
#02258:0053
#02552:53
#0255b:0063
#0265b:63000013
#02655:63000013
#02652:0053
#02658:0053
#0345a:64
#03456:0000002400000000
#04255:0053
#04258:0053000000000000
#04958:53
#04955:0063
#04652:00000014
#03852:00000014
#0515b:00000013
#05452:0014
#0545a:00000014
#05652:00000013
#06054:00000012
#06252:1414
#0625a:00140000
#06254:00000018
#06158:00000023000000000000000000000000
#0615b:63
#06352:00000013
#06654:00000014
#0665a:0014
#07153:14
#07159:14
#0645b:00000013
#05358:00000013
#05252:00000013
#0555b:00000013
#0585b:63
#05855:63
#05852:0053
#05858:0053
#06555:00000013
#0675b:00000013
#06852:00000013
#00758:0053
#00855:0063
#0095b:0063
#01052:0053
#0315b:0063000000000000
#03252:0053000000000000
#03358:0053000000000000
#00152:14
#0015a:14
#0445a:0000000000000064
#04452:0054
#04554:00640000
#04558:0000000000540000
#05058:00000016
#003380:0013
#0033a0:0000000000330000
#0033b0:00000023
#004350:0013
#004330:0000000000330000
#004320:00000023
#0053b0:0013
#005390:0000000000330000
#005380:00000023
#006320:0013
#006340:0000000000330000
#006350:00000023
#007380:0013
#0073a0:0000000000330000
#0073b0:00000023
#008350:0013
#008330:0000000000330000
#008320:00000023
#0093b0:0013
#009390:0000000000330000
#009380:00000023
#010320:0013
#010340:0000000000330000
#010350:00000023
#020350:0000000000000013
#021320:0023
#022350:13
#022320:00230000
#022380:0013
#0223b0:00000023
#025320:13
#025350:00230000
#0253b0:0013
#025380:00000023
#0263b0:13000023
#026380:0033
#026351:13000023
#026321:0033
#0273b1:0013000000000000
#0273a1:00000033000000000000000000000000
#027391:00330000
#027381:00000000003323000000000000000000
#028321:0013000000000000
#028331:00000033000000000000000000000000
#028341:00330000
#028351:00000000003323000000000000000000
#029381:0013000000000000
#029391:00000033000000000000000000000000
#0293a1:00330000
#0293b1:00000000003323000000000000000000
#030351:0013000000000000
#030341:00000033000000000000000000000000
#030331:00330000
#030321:00000000003323000000000000000000
#0313b1:0013000000000000
#0313a1:00000033000000000000000000000000
#031391:00330000
#031381:00000000003323000000000000000000
#032321:0013000000000000
#032331:00000033000000000000000000000000
#032341:00330000
#032351:00000000003323000000000000000000
#033381:0013000000000000
#033391:00000033000000000000000000000000
#0333a1:00330000
#0333b1:00000000003323000000000000000000
#0343a1:14000024
#034391:00340000000000000000003400000000
#034381:0034000000340000
#034371:00000034000000000034000000000000
#034361:00000000343434343400000000000000
#0363b1:1323000000000000
#036321:0000132300000000
#042381:0013000000000000
#042391:00000033000000000000000000000000
#0423a1:00330000
#0423b1:00000000003323000000000000000000
#042351:0013
#042321:00000023
#043321:00000000000000001434002400000000
#044321:0014
#044341:00000000000000000034002400000000
#0443a1:0000000000000014
#044381:00000000000000000000000000000034
#045381:00240000000000000000000000000000
#045341:00140000
#045321:00000000003400240000000000000000
#045381:0000000000140000
#0453a1:00000000000000000000003400240000
#046321:00000000000000001434340024000000
#049381:13
#0493b1:00230000
#049351:0013
#049321:00000023
#058351:13
#058321:00230000
#0583b0:13
#058380:00230000
#058320:0013
#058350:00000023
#058381:0013
#0583b1:00000023
#0613b1:1300002300000000
#061391:00330000003300000000000000000000
#061381:00003333330000000000000000000000
