This file was generated by Ched 2.7.0.0.
#TITLE ""
#ARTIST ""
#DESIGNER ""
#DIFFICULTY 0
#PLAYLEVEL
#SONGID ""
#WAVE ""
#WAVEOFFSET 0
#JACKET ""
#REQUEST "ticks_per_beat 480"
#00002: 4
#BPM01: 159
#00008: 01
#TIL00: ""
#HISPEED 00
#MEASUREHS 00
#03612:1300130016001613
#03618:00001300000000130016001300001600
#03615:00000013000013000000130000000000
#0361b:13130013
#03712:13001400000000001900000000000014
#03716:00000014000000000000001400001400
#03714:00000000140000000000000000140000
#03718:00000000001400000000000014000000
#03717:0000001400000000
#0371a:00000000000000140000140000000000
#0371b:13
#0391b:13000000000000000013000000000000
#03912:00000000000000001300000000130000
#03915:00000000000000000000130000000013
#03918:0000000000000013
#03917:0013000000000000
#03916:0000001300000000
#04317:13
#04318:00000000000000000013000000000013
#04312:1300000000000013
#0431b:0013000000130000
#04315:00000000000000000000001300000000
#04316:0013000000000000
#0431f:11
#02018:13
#02016:00000000000000001400000000130000
#02015:0016000000000000
#0201b:0000131300000013
#02012:00130013000013000000000000001300
#02017:0000000000130000
#02014:00000000000000000000001300000000
#02019:00000013
#00318:00001300001300001300000000000000
#00315:00000000130000130000000000000000
#0031b:23000013000000000000130000000000
#00312:2300001300000000
#00317:00000013
#0071b:23130013
#00715:00000013000000000000000000000000
#00718:0000001300000000
#00712:23000000001300000000130000000000
#00716:00000013
#00812:13130013
#0081b:13000000001300000000130000000000
#00818:00000013000000000000000000000000
#00815:0000001300000000
#00817:00000013
#01115:00001300001300000013000013000000
#01112:23000013000000000000001300130000
#01118:00000000130000130000130000001300
#0111b:2300001313000000
#01110:41
#01216:00000014140000000000000000000000
#01212:00000000001400000000000000000000
#0121a:0014000000000014
#01315:00130013000000130013000000000013
#01318:0013001300130013
#0131b:13131313
#01312:13000000001300000000001300130000
#01518:00001300001300000013000013000000
#01515:00000013000000130000130000000000
#01512:1300001313000000
#0151b:13000000000000000000001300130000
#01915:00000000000000000000000000160013
#0191b:00000033000013000000000013001300
#01912:13000000000000000033000000000000
#01917:1300000000130000
#01916:0000131300000000
#01914:00001300000000330000000000000000
#01919:00330000000000001300000000000000
#0191a:0033000000000000
#01913:0033
#01910:41
#02116:0000000000130000
#02119:00000013
#02117:0000000000000013
#02115:00000000001300000000000000000000
#02114:00000013
#02112:0000000000000013
#02412:00001300000000001600000000160000
#02417:00000013000000000000000000000000
#02414:00130012
#02419:00000000001300000000000000000000
#02416:0000001300000000
#0241b:00000000000000130000000000000000
#0241a:00000012
#02418:00000000000000000000160000160000
#0251b:1300001313000013
#02517:0013000000130000
#02512:1313130000131300
#02516:0000001300000013
#02617:13
#0261b:00130013
#02612:13000013
#02616:00130000
#02618:0000000000130000
#02615:00000000000000000000001300000000
#04117:1300001300000000
#04112:13000000000000000013000000000013
#04116:00000013000000000000000000000000
#0411b:00000013
#04110:41
#04212:1314000014000014
#04218:00000014000000000000000000000000
#04214:00140000
#0421a:00000000001400001400000000000000
#04216:0000001400140000
#04412:00130000001300001300000000000000
#04417:00000000000000131300001300000000
#0441b:0000000000000013
#04416:0000000000000013
#04415:13
#04715:00001300000000000000000000000013
#04718:00000013000013000000000000001300
#04712:13000000000000130000130000000000
#0471b:00000000000000000000001300000000
#04916:0013000000130000
#04912:1300001313000013
#04917:0000001300000013
#0491b:1313130000131300
#05012:1600161316002c00
#05018:00160013001600000016001300000000
#05015:0013000000130000
#0501b:00000000000000130000000000000000
#02718:00131300
#02715:00000013000000130000000000000000
#0271b:0000001300000000
#02717:23000013
#02716:0000000000130000
#02712:23000000001300001300000013000000
#01712:13000000130000001300000013000013
#0171b:13000000001300000013000013000000
#01715:00001300000013000000000000130000
#01718:00000013000000000000001300001300
#01719:00000000000000130000000000000000
#01714:0000000000130000
#02312:13000000000000130013000000130000
#02315:00001300000000000000001300000013
#0231b:00000013000000001300000013000013
#02318:0000001300130013
#0351b:0013000013000000
#03516:00000014000014000014000014000000
#03515:0000000000000013
#03518:23000000000000000000000000000013
#0351a:0000130000130000
#03512:23000000001300000000001300000000
#03513:00000000000000130000000000000000
#03819:00001414000000000000000000000000
#03813:00001414000000000000000000000000
#03815:19
#04012:13000000000000000016000000000000
#04018:0000000016160000
#04019:00000014
#04013:00000000003300330000000014000000
#04016:0013000000000000
#04017:0000001300000000
#0401a:00330033000000000000000000000000
#04612:1300001300000000
#0461b:1300001300000000
#04615:0013000000000000
#04618:0013000000000000
#04614:00000033000000003333000000000000
#04613:00000000333300330000000000000000
#04619:00000033000000003333000000000000
#0461a:00000000333300330000000000000000
#05912:1200000000120000
#05916:00120000120000001200000012000000
#05918:00000012000012000012000000120000
#0591c:00000000000000120000001200000000
#05914:0012000000000012
#0591a:00000000001200000000000000000012
#06016:00120000120000001200000000000000
#06018:00000012000012000012000000000000
#06014:0000000000120000
#0601a:00000000000000000000001200000000
#0601c:00000012
#05116:0000000000130013
#05112:00130000000000000000000013000000
#05117:00000013
#0511b:0013000000000013
#05115:00000013000000000000000000000000
#05118:26
#0511f:21
#05418:00000013000000000000000013000000
#05412:1613000013001300
#05415:0000000000130013
#0541b:00130000000000000000000000000000
#05818:1313130000131300
#05812:0013000000130000
#05815:1300001313000013
#0581b:0000001300000013
#0631b:0013000000001300
#06315:00130000160000130000130000001600
#06312:00000000001300001300000013000000
#06318:26000000000000000000001300000000
#06310:41
#00215:0000000000130013
#00212:00001313
#00412:13000013000000000000130000000000
#0041b:1300001300000000
#00415:00001300001300001300000000000000
#00418:00000000130000130000000000000000
#00416:00000013
#0051b:13000013000000000000130000000000
#00512:1300001300000000
#00518:00001300001300001300000000000000
#00515:00000000130000130000000000000000
#00517:00000013
#0061b:1300001300130000
#00617:00000013
#00616:0000000000130000
#00612:13000013000000000000000013000000
#00615:00001300001300001300000000000000
#00618:00000000130000130000000000000000
#0091b:13130013
#00912:13000000001300000000130000000000
#00915:00000013000000000000000000000000
#00918:0000001300000000
#00916:00000013
#01012:13130000
#0101b:13000000001300000000000000000000
#01018:00000013000000000013000000000013
#01015:0000001313000013
#01014:0000000000131300
#01019:00000000000000000000001300130000
#01817:00001300000000000000000000130000
#01814:00130000000000000000000000001300
#01812:00000013000000000013000000000000
#01813:00000000001300000000000013000000
#01819:0000001300130000
#01816:00000000000000130000001300000000
#0181b:13131300
#0181a:00000013
#02816:13000013
#0281b:13000000001300001300000013000000
#02815:00131300
#02818:00000013000000130000000000000000
#02812:0000001300000000
#02817:0000000000130000
#02917:13000013
#02912:13000000001300001300000013000000
#02918:00131300
#02915:00000013000000130000000000000000
#0291b:0000001300000000
#02916:0000000000130000
#03112:23131300
#0311b:00000013000000130000000013000000
#03118:00000000001300000000000000000000
#03115:0013000000000000
#03110:41
#0321b:13131300
#03212:00000013000000130000000013000000
#03215:00000000001300000000000000000000
#03218:0013000000000000
#03312:13131300
#0331b:00000013000000130000000013000000
#03318:00000000001300000000000000000000
#03315:0013000000000000
#0341c:1200000000000012
#0341a:0012000000001200
#03418:0000120000120000
#03416:0000001212000000
#03417:00130000000000000000000000130000
#03415:00000013000000000000001300000000
#03413:00000000001300000013000000000000
#03412:00000000000000130000000000000000
#0611c:12120000
#0611b:0012
#06113:00120000
#06114:00120000000000000000000000000000
#06119:0012000000000000
#06116:00000012000000000000000000000000
#0611a:00000000001200000000000000000000
#06115:00000000000012000000001300130013
#06118:00000000000000120000130013001300
#04516:00130000000000000000000000000000
#04512:00000000130000000000000000130000
#0451b:00000000000000130000130000000000
#05212:1613000000000013
#05217:0000000000130013
#0521b:00130000000000000000000013000000
#05216:00000013
#05218:00000013000000000000000000000000
#05210:41
#05516:00000013
#0551b:0000130000001313
#05515:00000013000000000000000000000000
#05512:00130000001300000000130000001300
#05518:2600001300000000
#06215:0013000000000000
#06218:2600001326002600
#06212:23262326
#0621b:00230000
#06716:00000000140000140000000000001300
#06718:0013000000000000
#0671b:2300001313000013
#06712:00000013000000000000140014000000
#06715:00130000000000000000000000000000
#07018:00001300260000130000000000000000
#07015:00000013000013000000000000000013
#07012:26232600
#0701b:2323
#01616:0000000000000016
#0481b:00001313
#04812:0000000013130013
#04815:00001300000000130000000000000000
#04818:00000013000013000000000000000000
#06616:0000000000160000
#06614:00000016
#06618:00130000000000130000000000001600
#06612:1613001316000000
#06615:00160000
#0661b:00000000001300001300000000000000
#01418:00130013000000130013000000000013
#01415:0013001300130013
#01412:13131313
#0141b:13000000001300000000001300130000
#03012:0000001316000000
#03018:00000013000000130000160000000000
#03015:00130016
#03016:13
#0301b:13000000001300000000000000000000
#05318:16
#05316:0000000000130013
#05312:00130000000000000000000013000000
#05317:00000013
#0531b:0013000000000013
#05315:00000013000000000000000000000000
#05617:00000013
#05612:1600130000001313
#05618:00000013000000000000000000000000
#0561b:00130000001300000000130000001300
#05615:0000001300000000
#05716:00000013
#0571b:0000130000001313
#05712:00130000001300000000130000001300
#05715:00000013000000000000000000000000
#05718:1600001300000000
#06412:1613000000001300
#06415:00000000160000000000001300001600
#0641b:00000000001300001300000013000000
#06418:00130000000000130000130000000000
#0651b:0013000000001300
#06515:00130000160000130000130000001600
#06512:00000000001300001300000013000000
#06518:16000000000000000000001300000000
#06815:00001300160000160000000000000000
#06812:1300001313000013
#06819:0000000000151500
#06818:00130000000000000000000000000000
#06817:0000000000000013
#0681b:00000013000000000000000000000000
#06915:00130000160000160000000000000000
#06918:0013000016000000
#0691b:1300001300000013
#06912:00000016000000000000160016000000
#06916:0000000000000013
#07112:23
#0711b:23
#00118:26
#0255b:6363
#02557:0023000000230000
#02552:00530000
#02556:0000002300000000
#02657:63
#0265b:00230043
#02652:63000033
#02656:00230000
#04956:0023000000230000
#04952:53335333
#04957:0000002300000023
#0495b:43634363
#02155:00000000002300000000000000000000
#0205b:0000000000000063
#03652:63130036
#0365b:13630000
#03658:0000000000000046
#04053:00000014
#04059:00000014
#0425a:0000000054000034
#04252:0000000000000034
#04256:0000000000240000
#06252:00360036
#06258:46004646
#0605c:00000012
#05157:00000043
#05852:0023000000230000
#05855:63436343
#0585b:0000002300000023
#05858:33533353
#07052:3636
#07058:00460000
#07152:33
#0715b:43
#00357:00000043
#00656:0000000000130000
#00657:00000013
#0075b:00000043
#00852:00000033
#0095b:00000043
#0125a:0000000000000014
#01158:0000000000000013
#0155b:00000000000000000000000000130000
#01854:0000000000000013
#0195b:00130000
#01957:63
#01956:0000005300000000
#01952:0000000000130000
#0235b:00000000000000000000000000000013
#02452:00000000000000000000000000260000
#02454:00000052
#0245a:00000062
#02458:00000000000000000000000000260000
#02758:0053
#02752:00000033
#02855:0063
#0285b:00000043
#02958:0053
#02952:00000033
#0315b:00000043
#03252:00000033
#0335b:00000043
#03858:00000043
#03855:00000033
#04556:00130000000000000000000000000000
#0455b:00000000000000130000000000000000
#04552:00000000000000000000000000130000
#04457:00000000000000000000001300000000
#04455:63
#04452:00230000000000000000000000000000
#04358:00000000000000000053000000000000
#0435b:0000000000230000
#04652:0000002300000000
#04655:0063000000003300
#04658:0053000000430000
#0465b:0000002300000000
#05556:00000033
#0555b:00000043
#05455:0000000000230023
#05452:00005353
#05458:00004343
#0635b:00001343
#06352:00000033
#06752:00000034
#0675b:0043
#06756:00000044
#01652:0034000034000034
#0165a:00000000004400000000004400000000
#0485b:00006363
#04852:0000000000530000
#06654:00000036
#06658:0000000000000046
#06656:0000000000460000
#06652:0036
#03058:0000000000460000
#03055:00000016
#03052:0036
#05052:0000001c
#05256:00000033
#05357:00000043
#05657:00000043
#05652:00000033
#05756:00000033
#0575b:00000043
#06452:00001333
#0645b:00000043
#0655b:00001343
#06552:00000033
#06859:00000045
#06852:0033
#06854:00000035
#06952:00000036
#06958:00004646
#00456:00000033
#00557:00000043
#000320:16260000
#000350:00001626
#001380:16
#002380:0000000000000026
#003320:00001323
#003360:0000000000330000
#0043b0:00001323
#004370:0000000000330000
#005320:00001323
#005360:0000000000330000
#007380:00001323000000000000000000000000
#007350:00000000000000132300000000000000
#0073b1:0013
#007361:0000000000230000
#008351:00001323000000000000000000000000
#008381:00000000000000132300000000000000
#008320:0013
#008370:0000000000230000
#009380:00001323000000000000000000000000
#009350:00000000000000132300000000000000
#0093b1:0013
#009361:0000000000230000
#010351:00001323000000000000000000000000
#010381:00000000000000132300000000000000
#012361:0000001400000000
#0123a1:0024
#012320:0014
#012360:0000000000240000
#0123a1:0000000000140000
#012361:00000024
#012320:00000014
#012360:0000000000000024
#015340:0000000000000016
#016320:000000000000000000000000000000000000000000000000000000000000000000000000000000000000000000000000000000000000000000000000000000000000000000000000000000000000000000000000000000000000000000000000000000000000000000000000000000000000000000000000000000000000000000000000000000000000000000000000000000000000000000000000000000000000000000000000000000000000000000000000000000000000000000000000000000000000000000000000000000000000000000000000000000000000000000000000000000000000000000000056240000000000000000000000000000000000000000000000000000000000000000000000000000000000000000000000000000000000000000000000000000000000000000000000000000000000000000000000000000000000000000000000000000000000000000000000000000000000000000000000000000000000000000000000000000000000000000000000000000000000000000000000000000000000000000000000000000000000000000000000000000000000000000000000000000000000000000000000000000000000000000000000000000000000000000000000000000000000000000000000000000000000000000000000000000000000000000000000000000000000000000000000000000000000000000000000000000000000000000000000000000000000000000000000000000000000000000000000000000000000000000000000000000000000000000000000000000000000000000000000000000000000000000000000000000000000000000000000000000000000000000000000000000000000000000000000000000000000000000000000000000000000000000000000000000000000000000000000000000000000000000000000000000000000000000000000000000000000000000000000000000000000000000000000000000000000000000000000000000000000000000000000000000000000000000000000000000000000000000000000000000000000000000000000000000000000000000000000000000000000000000000000000000000000000000000000000000000000000000000000000000000000000000000000000000000000000000000000000000000000000000000000000000000000000000000000000000000000000000000000000000000000000000000000000000000000000000000000000000000000000000000000000000000000000000000000000000000000000000000000000000000000000000000000000000000000000000000000000000000000000000000000000000000000000000000000000000000000000000000000000000000000000000000000000000000000000000000000000000000000000000000000000000000000000000000000000000000000000000000000000000000000000000000000000000000000000000000000000000000000000000000000000000000000000000000000000000000000000000000000000000000000000000000000000000000000000000000000000000000000000000000000000000000000000000000000000000000000000000000000000000000000000000000000000000000000000000000000000000000000000000000000000000000000000000000000000000000000000000000000000000000000000000000000000000000000000000000000000000000000000000000000000000000000000000000000000000000000000000000000000000000000000000000000000000000000000000000000000000000000000000000000000000000000000000000000000000000000000000000000000000000000000000000000000000000000000000000000000000000000000000000000000000000000000000000000000000000000000000000000000000000000000000000000000000000000000000000000000000000000000000000000000000000000000000000000000000000000000000000000000000000000000000000000000000000000000000000000000000000000000000000000000000000000000000000000000000000000000000000000000000000000000000000000000000000000000000000000000000000000000000000000000000000000000000000000000000000000000000000000000000000000000000000000000000000000000000000000000000000000000000000000000000000000000000000000000000000000000000000000000000000000000000000000000000000000000000000000000000000000000000000000000000000000000000000000000000000000000000000000000000000000000000000000000000000000000000000000000000000000000000000000000000000000000000000000000000000000000000000000000000000000000000000000000000000000000000000000000000000000000000000000000000000000000000000000000000000000000000000000000000000000000000000000000000000000000000000000000000000000000000000000000000000000000000000000000000000000000000000000
#016381:000000000000000000000000000000000000000000000000000000000000000000000000000000000000000000000000000000000000000000000000000000000000000000000000000000000000000000000000000000000000000000000000000000000000000000000000000000000000000000000000000000000000000000000000000000000000000000000000000000000000000000000000000000000000000000000000000000000000000000000000000000000000000000000000000000000000000000000000000000000000000000000000000000000000000000000000000000000000000000000000140000000000000000000000000000000000000000000000000000000000000000000000000000000000000000000000000000000000000000000000000000000000000000000000000000000000000000000000000000000000000000000000000000000000000000000000000000000000000000000000000000000000000000000000000000000000000000000000000000000000000000000000000000000000000000000000000000000000000000000000000000000000000000000000000000000000000000000000000000000000000000000000000000000000000000000000000000000000000000000000000000000000000000000000000000000000000000000000000000000000000000000000000000000000000000000000000000000000000000000000000000000000000000000000000000000000000000000000000000000000000000000000000000000000000000000000000000000000000000000056000000000000000000000000000000000000000000000000000000000000000000000000000000000000000000000000000000000000000000000000000000000000000000000000000000000000000000000000000000000000000000000000000000000000000000000000000000000000000000000000000000000000000000000000000000000000000000000000000000000000000000000000000000000000000000000000000000000000000000000000000000000000000000000000000000000000000000000000000000000000000000000000000000000000000000000000000000000000000000000000000000000000000000000000000000000000000000000000000000000000000000000000000000000000000000000000000000000000000000000000000000000000000000000000000000000000000000000000000000000000000000000000000000000000000000000000000000000000000000000000000000000000000000000000000000000000000000000000000000000000000000000000000000000000000000000000000000000000000000000000000000000000000000000000000000000000000000000000000000000000000000000000000000000000000000000000000000000000000000000000000000000000000000000000000000000000000000000000000000000000000000000000000000000000000000000000000000000000000000000000000000000000000000000000000000000000000000000000000000000000000000000000000000000000000000000000000000000000000000000000000000000000000000000000000000000000000000000000000000000000000000000000000000000000000000000000000000000000000000000000000000000000000000000000000000000000000000000000000000000000000000000000000000000000000000000000000000000000000000000000000000000000000000000000000000000000000000000000000000000000000000000000000000000000000000000000000000000000000000000000000000000000000000000000000000000000000000000000000000000000000000000000000000000000000000000000000000000000000000000000000000000000000000000000000000000000000000000000000000000000000000000000000000000000000000000000000000000000000000000000000000000000000000000000000000000000000000000000000000000000000000000000000000000000000000000000000000000000000000000000000000000000000000000000000000000000000000000000000000000000000000000000000000000000000000000000000000000000000000000000000000000000000000000000000000000000000000000000000000000000000000000000000000000000000000000000000000000000000000000000000000000000000000000000000000000000000000000000000000000000000000000000000000000000000000000000000000000000000000000000000000000000000000000000000000000000000000000000000000000000000000000000000000000000000000000000000000000000000000000000000000000000000000000000000000000000000000000000000000000000000000000000000000000000000000000000000000000000000000000000000000000000000000000000000000000000000000000000000000000000000000000000000000000000000000000000000000000000000000000000
#016361:000000000000000000000000000000000000000000000000000000000000000000000000000000000000000000000000000000000000000000000000000000000000000000000000000000000000000000000000000000000000000000000000000000000000000000000000000000000000000000000000000000000000000000000000000000000000000000000000000000000000000000000000000000000000000000000000000000000000000000000000000000000000000000000000000000000000000000000000000000000000000000000000000000000000000000000000000000000000000000000000005600000000000000000000000000000000000000000000000000000000000000000000000000000000000000000000000000000000000000000000000000000000000000000000000000000000000000000000000000000000000000000000000000000000000000000000000000000000000000000000000000000000000000000000000000000000000000000000000000000000000000000000000000000000000000000000000000000000000000000000000000000000000000000000000000000000000000000000000000000000000000000000000000000000000000000000000000000000000000000000000000000000000000000000000000000000000000000000000000000000000000000000000000000000000000000000000000000000000000000000000000000000000000000000000000000000000000000000000000000000000000000000000000000000000000000000000000000000000000000000000000000000000000000000000000000000000000000000000000000000000000000000000000000000000000000000000000000000000000000000000000000000000000000000000000000000000000000000000000000000000000000000000000000000000000000000000000000000000000000000000000000000000000000000000000000000000000000000000000000000000000000000000000000000000000000000000000000000000000000000000000000000000000000000000000000000000000000000000000000000000000000000000000000000000000000000000000000000000000000000000000000000000000000000000000000000000000000000000000000000000000000000000000000000000000000000000000000000000000000000000000000000000000000000000000000000000000000000000000000000000000000000000000000000000000000000000000000000000000000000000000000000000000000000000000000000000000000000000000000000000000000000000000000000000000000000000000000000000000000000000000000000000000000000000000000000000000000000000000000000000000000000000000000000000000000000000000000000000000000000000000000000000000000000000000000000000000000000000000000000000000000000000000000000000000000000000000000000000000000000000000000000000000000000000000000000000000000000000000000000000000000000000000000000000000000000000000000000000000000000000000000000000000000000000000000000000000000000000000000000000000000000000000000000000000000000000000000000000000000000000000000000000000000000000000000000000000000000000000000000000000000000000000000000000000000000000000000000000000000000000000000000000000000000000000000000000000000000000000000000000000000000000000000000000000000000000000000000000000000000000000000000000000000000000000000000000000000000000000000000000000000000000000000000000000000000000000000000000000000000000000000000000000000000000000000000000000000000000000000000000000000000000000000000000000000000000000000000000000000000000000000000000000000000000000000000000000000000000000000000000000000000000000000000000000000000000000000000000000000000000000000000000000000000000000000000000000000000000000000000000000000000000000000000000000000000000000000000000000000000000000000000000000000000000000000000000000000000000000000000000000000000000000000000000000000000000000000000000000000000000000000000000000000000000000000000000000000000000000000000000000000000000000000000000000000000000000000000000000000000000000000000000000000000000000000000000000000000000000000000000000000000000000000000000000000000000000000000000000000000000000000000000000000000000000000000000000000000000000000000000000000000000000000000000000000000000000000000000000000000000000000000000000000000000000000000000000000000000000000000000000000000000000000000000000000000000000000000000000000000
#0163a1:00000000002400000000000000000000
#016340:000000000000000000000000000000000000000000000000000000000000000000000000000000000000000000000000000000000000000000000000000000000000000000000000000000000000000000000000000000000000000000000000000000000000000000000000000000000000000000000000000000000000000000000000000000000000000000000000000000000000000000000000000000000000000000000000000000000000000000000000000000000000000000000000000000000000000000000000000000000000000000000000000000000000000000000000000000000000000000000000000000000000000000000000000000000000000000000000000000000000000000000000000000000000000000000000000000000000000000000000000000000000000000000000000000000000000000000000000000000000000000000000000000000000000000000000000000000000000000000000000000000000000000000000000000000000000000000000000000000000000000000000000000000000000000000000000000000000000000000000000000000000000000000000000000000000000000000000000000000000000000000000000000000000000000000000000000000000000000000000000000000000000000000000000000000000000000000000000000000000000000000000000000000000000000000000000000000000000000000000000000000000000000000000000000000000000000000000000000000000000000000000000000000000000000000000000000000000000000000000145600000000000000000000000000000000000000000000000000000000000000000000000000000000000000000000000000000000000000000000000000000000000000000000000000000000000000000000000000000000000000000000000000000000000000000000000000000000000000000000000000000000000000000000000000000000000000000000000000000000000000000000000000000000000000000000000000000000000000000000000000000000000000000000000000000000000000000000000000000000000000000000000000000000000000000000000000000000000000000000000000000000000000000000000000000000000000000000000000000000000000000000000000000000000000000000000000000000000000000000000000000000000000000000000000000000000000000000000000000000000000000000000000000000000000000000000000000000000000000000000000000000000000000000000000000000000000000000000000000000000000000000000000000000000000000000000000000000000000000000000000000000000000000000000000000000000000000000000000000000000000000000000000000000000000000000000000000000000000000000000000000000000000000000000000000000000000000000000000000000000000000000000000000000000000000000000000000000000000000000000000000000000000000000000000000000000000000000000000000000000000000000000000000000000000000000000000000000000000000000000000000000000000000000000000000000000000000000000000000000000000000000000000000000000000000000000000000000000000000000000000000000000000000000000000000000000000000000000000000000000000000000000000000000000000000000000000000000000000000000000000000000000000000000000000000000000000000000000000000000000000000000000000000000000000000000000000000000000000000000000000000000000000000000000000000000000000000000000000000000000000000000000000000000000000000000000000000000000000000000000000000000000000000000000000000000000000000000000000000000000000000000000000000000000000000000000000000000000000000000000000000000000000000000000000000000000000000000000000000000000000000000000000000000000000000000000000000000000000000000000000000000000000000000000000000000000000000000000000000000000000000000000000000000000000000000000000000000000000000000000000000000000000000000000000000000000000000000000000000000000000000000000000000000000000000000000000000000000000000000000000000000000000000000000000000000000000000000000000000000000000000000000000000000000000000000000000000000000000000000000000000000000000000000000000000000000000000000000000000000000000000000000000000000000000000000000000000000000000000000000000000000000000000000000000000000000000000000000000000000000000000000000000000000000000000000000000000000000000000000000000000000000000000000000000000000000000000000000000000000000000000000000000000000000000000000000000000000000000000000
#016320:000000000000000000000000000000000000000000000000000000000000000000000000000000000000000000000000000000000000000000000000000000000000000000000000000000000000000000000000000000000000000000000000000000000000000000000000000000000000000000000000000000000000000000000000000000000000000000000000000000000000000000000000000000000000000000000000000000000000000000000000000000000000000000000000000000000000000000000000000000000000000000000000000000000000000000000000000000000000000000000000000000000000000000000000000000000000000000000000000000000000000000000000000000000000000000000000000000000000000000000000000000000000000000000000000000000000000000000000000000000000000000000000000000000000000000000000000000000000000000000000000000000000000000000000000000000000000000000000000000000000000000000000000000000000000000000000000000000000000000000000000000000000000000000000000000000000000000000000000000000000000000000000000000000000000000000000000000000000000000000000000000000000000000000000000000000000000000000000000000000000000000000000000000000000000000000000000000000000000000000000000000000000000000000000000000000000000000000000000000000000000000000000000000000000000000000000000000000000000000000000000000000000000000000000000000000000000000000000000000000000000000000000000000000000000000000000000000000000000000000000000000000000000000000000000000000000000000000000000000000000000000000000000000000000000000000000000000000000000000000000000000000000000000000000000000000000000000000000000000000000000000000000000000000000000000000000000000000000000000000000000000000000000000000000000000000000000000000000000000000000000000000000000000000000000000000000000000000000000000000000000000000000000000000000000000000000000000000000000000000000000000000000000000000000000000000000000000000000000000000000000000000000000000000000000000000000000000000000000000000000000000000000000000000000000000000000000000000000000000000056240000000000000000000000000000000000000000000000000000000000000000000000000000000000000000000000000000000000000000000000000000000000000000000000000000000000000000000000000000000000000000000000000000000000000000000000000000000000000000000000000000000000000000000000000000000000000000000000000000000000000000000000000000000000000000000000000000000000000000000000000000000000000000000000000000000000000000000000000000000000000000000000000000000000000000000000000000000000000000000000000000000000000000000000000000000000000000000000000000000000000000000000000000000000000000000000000000000000000000000000000000000000000000000000000000000000000000000000000000000000000000000000000000000000000000000000000000000000000000000000000000000000000000000000000000000000000000000000000000000000000000000000000000000000000000000000000000000000000000000000000000000000000000000000000000000000000000000000000000000000000000000000000000000000000000000000000000000000000000000000000000000000000000000000000000000000000000000000000000000000000000000000000000000000000000000000000000000000000000000000000000000000000000000000000000000000000000000000000000000000000000000000000000000000000000000000000000000000000000000000000000000000000000000000000000000000000000000000000000000000000000000000000000000000000000000000000000000000000000000000000000000000000000000000000000000000000000000000000000000000000000000000000000000000000000000000000000000000000000000000000000000000000000000000000000000000000000000000000000000000000000000000000000000000000000000000000000000000000000000000000000000000000000000000000000000000000000000000000000000000000000000000000000000000000000000000000000000000000000000000000000000000000000000000000000000000000000000000000000000000000000000000000000000000000000000000000000000000000000000000000000000000000000000000000000000000000000000000000000000000000000000000000000000000000000000000000000000000000000000000
#016381:000000000000000000000000000000000000000000000000000000000000000000000000000000000000000000000000000000000000000000000000000000000000000000000000000000000000000000000000000000000000000000000000000000000000000000000000000000000000000000000000000000000000000000000000000000000000000000000000000000000000000000000000000000000000000000000000000000000000000000000000000000000000000000000000000000000000000000000000000000000000000000000000000000000000000000000000000000000000000000000000000000000000000000000000000000000000000000000000000000000000000000000000000000000000000000000000000000000000000000000000000000000000000000000000000000000000000000000000000000000000000000000000000000000000000000000000000000000000000000000000000000000000000000000000000000000000000000000000000000000000000000000000000000000000000000000000000000000000000000000000000000000000000000000000000000000000000000000000000000000000000000000000000000000000000000000000000000000000000000000000000000000000000000000000000000000000000000000000000000000000000000000000000000000000000000000000000000000000000000000000000000000000000000000000000000000000000000000000000000000000000000000000000000000000000000000000000000000000000000000000000000000000000000000000000000000000000000000000000000000000000000000000000000000000000000000000000000000000000000000000000000000000000000000000000000000000000000000000000000000000000000000000000000000000000000000000000000000000000000000000000000000000000000000000000000000000000000000000000000000000000000000000000000000000000000000000000000000000000000000000000000000000000000000000000000000000000000000000000000000000000000000000000000000000000000000000000000000000000000000000000000000000000000000000000000000000000000000000000000000000000000000000000000000000000000000000000000000000000000000000000000000000000000000000000000000000000000000000000000000000000000000000000000000000000000000000000000000000000000000000140000000000000000000000000000000000000000000000000000000000000000000000000000000000000000000000000000000000000000000000000000000000000000000000000000000000000000000000000000000000000000000000000000000000000000000000000000000000000000000000000000000000000000000000000000000000000000000000000000000000000000000000000000000000000000000000000000000000000000000000000000000000000000000000000000000000000000000000000000000000000000000000000000000000000000000000000000000000000000000000000000000000000000000000000000000000000000000000000000000000000000000000000000000000000000000000000000000000000000000000000000000000000000000000000000000000000000000000000000000000000000000000000000000000000000000000000000000000000000000056000000000000000000000000000000000000000000000000000000000000000000000000000000000000000000000000000000000000000000000000000000000000000000000000000000000000000000000000000000000000000000000000000000000000000000000000000000000000000000000000000000000000000000000000000000000000000000000000000000000000000000000000000000000000000000000000000000000000000000000000000000000000000000000000000000000000000000000000000000000000000000000000000000000000000000000000000000000000000000000000000000000000000000000000000000000000000000000000000000000000000000000000000000000000000000000000000000000000000000000000000000000000000000000000000000000000000000000000000000000000000000000000000000000000000000000000000000000000000000000000000000000000000000000000000000000000000000000000000000000000000000000000000000000000000000000000000000000000000000000000000000000000000000000000000000000000000000000000000000000000000000000000000000000000000000000000000000000000000000000000000000000000000000000000000000000000000000000000000000000000000000000000000000000000000000000000000000000000000000000000000000000000000000000000000000000000000000000000000000000000000000000000000000000000000000000000000000000000000000000000
#016361:000000000000000000000000000000000000000000000000000000000000000000000000000000000000000000000000000000000000000000000000000000000000000000000000000000000000000000000000000000000000000000000000000000000000000000000000000000000000000000000000000000000000000000000000000000000000000000000000000000000000000000000000000000000000000000000000000000000000000000000000000000000000000000000000000000000000000000000000000000000000000000000000000000000000000000000000000000000000000000000000000000000000000000000000000000000000000000000000000000000000000000000000000000000000000000000000000000000000000000000000000000000000000000000000000000000000000000000000000000000000000000000000000000000000000000000000000000000000000000000000000000000000000000000000000000000000000000000000000000000000000000000000000000000000000000000000000000000000000000000000000000000000000000000000000000000000000000000000000000000000000000000000000000000000000000000000000000000000000000000000000000000000000000000000000000000000000000000000000000000000000000000000000000000000000000000000000000000000000000000000000000000000000000000000000000000000000000000000000000000000000000000000000000000000000000000000000000000000000000000000000000000000000000000000000000000000000000000000000000000000000000000000000000000000000000000000000000000000000000000000000000000000000000000000000000000000000000000000000000000000000000000000000000000000000000000000000000000000000000000000000000000000000000000000000000000000000000000000000000000000000000000000000000000000000000000000000000000000000000000000000000000000000000000000000000000000000000000000000000000000000000000000000000000000000000000000000000000000000000000000000000000000000000000000000000000000000000000000000000000000000000000000000000000000000000000000000000000000000000000000000000000000000000000000000000000000000000000000000000000000000000000000000000000000000000000000000000000000000000000000005600000000000000000000000000000000000000000000000000000000000000000000000000000000000000000000000000000000000000000000000000000000000000000000000000000000000000000000000000000000000000000000000000000000000000000000000000000000000000000000000000000000000000000000000000000000000000000000000000000000000000000000000000000000000000000000000000000000000000000000000000000000000000000000000000000000000000000000000000000000000000000000000000000000000000000000000000000000000000000000000000000000000000000000000000000000000000000000000000000000000000000000000000000000000000000000000000000000000000000000000000000000000000000000000000000000000000000000000000000000000000000000000000000000000000000000000000000000000000000000000000000000000000000000000000000000000000000000000000000000000000000000000000000000000000000000000000000000000000000000000000000000000000000000000000000000000000000000000000000000000000000000000000000000000000000000000000000000000000000000000000000000000000000000000000000000000000000000000000000000000000000000000000000000000000000000000000000000000000000000000000000000000000000000000000000000000000000000000000000000000000000000000000000000000000000000000000000000000000000000000000000000000000000000000000000000000000000000000000000000000000000000000000000000000000000000000000000000000000000000000000000000000000000000000000000000000000000000000000000000000000000000000000000000000000000000000000000000000000000000000000000000000000000000000000000000000000000000000000000000000000000000000000000000000000000000000000000000000000000000000000000000000000000000000000000000000000000000000000000000000000000000000000000000000000000000000000000000000000000000000000000000000000000000000000000000000000000000000000000000000000000000000000000000000000000000000000000000000000000000000000000000000000000000000000000000000000000000000000000000000000000000000000000000000000000000000000000000000000000000
#0163a1:00000000000000000000002400000000
#016340:000000000000000000000000000000000000000000000000000000000000000000000000000000000000000000000000000000000000000000000000000000000000000000000000000000000000000000000000000000000000000000000000000000000000000000000000000000000000000000000000000000000000000000000000000000000000000000000000000000000000000000000000000000000000000000000000000000000000000000000000000000000000000000000000000000000000000000000000000000000000000000000000000000000000000000000000000000000000000000000000000000000000000000000000000000000000000000000000000000000000000000000000000000000000000000000000000000000000000000000000000000000000000000000000000000000000000000000000000000000000000000000000000000000000000000000000000000000000000000000000000000000000000000000000000000000000000000000000000000000000000000000000000000000000000000000000000000000000000000000000000000000000000000000000000000000000000000000000000000000000000000000000000000000000000000000000000000000000000000000000000000000000000000000000000000000000000000000000000000000000000000000000000000000000000000000000000000000000000000000000000000000000000000000000000000000000000000000000000000000000000000000000000000000000000000000000000000000000000000000000000000000000000000000000000000000000000000000000000000000000000000000000000000000000000000000000000000000000000000000000000000000000000000000000000000000000000000000000000000000000000000000000000000000000000000000000000000000000000000000000000000000000000000000000000000000000000000000000000000000000000000000000000000000000000000000000000000000000000000000000000000000000000000000000000000000000000000000000000000000000000000000000000000000000000000000000000000000000000000000000000000000000000000000000000000000000000000000000000000000000000000000000000000000000000000000000000000000000000000000000000000000000000000000000000000000000000000000000000000000000000000000000000000000000000000000000000000000000000000000000000000000000000000000000000000000000000000000000000000000000000000000000000000000000000000000000000000000000000000000000000000000000000000000000000000000000000000000000000000000000000000000000000000000000000000000000000000000000000000000000000000000000000000000000000000000000000000000000000000000000000000000000000000000000000000000000000000000000000000000000000000000000000000000000000000000000000000000000000000000000000000000000000000000000000000000000000000000000000000000000000000000000000000000000000000000000000000000000000000000000000000000000000000000000000000000000000000000000000000000000000000000000000000000000000000000000000000000000000000000000000000000000000000000000000000000000000000000000000000000000145600000000000000000000000000000000000000000000000000000000000000000000000000000000000000000000000000000000000000000000000000000000000000000000000000000000000000000000000000000000000000000000000000000000000000000000000000000000000000000000000000000000000000000000000000000000000000000000000000000000000000000000000000000000000000000000000000000000000000000000000000000000000000000000000000000000000000000000000000000000000000000000000000000000000000000000000000000000000000000000000000000000000000000000000000000000000000000000000000000000000000000000000000000000000000000000000000000000000000000000000000000000000000000000000000000000000000000000000000000000000000000000000000000000000000000000000000000000000000000000000000000000000000000000000000000000000000000000000000000000000000000000000000000000000000000000000000000000000000000000000000000000000000000000000000000000000000000000000000000000000000000000000000000000000000000000000000000000000000000000000000000000000000000000000000000000000000000000000000000000000000000000000000000000000000000000000000000000000000000000000000000000000000000000000000000000000000000000000000000000000000000000000000000000000000000000000000000000000000000000
#016320:000000000000000000000000000000000000000000000000000000000000000000000000000000000000000000000000000000000000000000000000000000000000000000000000000000000000000000000000000000000000000000000000000000000000000000000000000000000000000000000000000000000000000000000000000000000000000000000000000000000000000000000000000000000000000000000000000000000000000000000000000000000000000000000000000000000000000000000000000000000000000000000000000000000000000000000000000000000000000000000000000000000000000000000000000000000000000000000000000000000000000000000000000000000000000000000000000000000000000000000000000000000000000000000000000000000000000000000000000000000000000000000000000000000000000000000000000000000000000000000000000000000000000000000000000000000000000000000000000000000000000000000000000000000000000000000000000000000000000000000000000000000000000000000000000000000000000000000000000000000000000000000000000000000000000000000000000000000000000000000000000000000000000000000000000000000000000000000000000000000000000000000000000000000000000000000000000000000000000000000000000000000000000000000000000000000000000000000000000000000000000000000000000000000000000000000000000000000000000000000000000000000000000000000000000000000000000000000000000000000000000000000000000000000000000000000000000000000000000000000000000000000000000000000000000000000000000000000000000000000000000000000000000000000000000000000000000000000000000000000000000000000000000000000000000000000000000000000000000000000000000000000000000000000000000000000000000000000000000000000000000000000000000000000000000000000000000000000000000000000000000000000000000000000000000000000000000000000000000000000000000000000000000000000000000000000000000000000000000000000000000000000000000000000000000000000000000000000000000000000000000000000000000000000000000000000000000000000000000000000000000000000000000000000000000000000000000000000000000000000000000000000000000000000000000000000000000000000000000000000000000000000000000000000000000000000000000000000000000000000000000000000000000000000000000000000000000000000000000000000000000000000000000000000000000000000000000000000000000000000000000000000000000000000000000000000000000000000000000000000000000000000000000000000000000000000000000000000000000000000000000000000000000000000000000000000000000000000000000000000000000000000000000000000000000000000000000000000000000000000000000000000000000000000000000000000000000000000000000000000000000000000000000000000000000000000000000000000000000000000000000000000000000000000000000000000000000000000000000000000000000000000000000000000000000000000000000000000000000000000000000000000000000000000000000000000000000000000000000000000000000000000000000000000000000000000000000000000000000000000000000000000000000000000000000000000000000000000000000000000000000000000000000000000000000000000000000000000000000000000000000000000000000000000000000000000000000000000000000000000000000000000000000000000000000000000000000000000000000000000000000000000000000000000000000000000000000000000000000000000000000000000000000000000000000000000000000000000000000000000000000000000000000000000000000000000000000000000000000000000000000000000000000000000000000000000000000000000000000000000000000000000000000000000000000000000000000000000000000000000000000000000000000000000000000000000000000000000000000000000056240000000000000000000000000000000000000000000000000000000000000000000000000000000000000000000000000000000000000000000000000000000000000000000000000000000000000000000000000000000000000000000000000000000000000000000000000000000000000000000000000000000000000000000000000000000000000000000000000000000000000000000000000000000000000000000000000000000000000000000000000000000000000000000000000000000000000000000000000000000000000000000000000000000000000000000000000000000000000000000000
#019370:13
#019390:00330000000000000000000000000000
#0193a0:0033000000000000
#0193b0:00000033230000000000000000000000
#019360:0000001300000000
#019340:00000000000000330000000000000000
#019330:0033
#019320:00000000000000000033230000000000
#0203b0:0000000000000013
#021350:00000000005300000000000000000000
#0213b0:0000000000230000
#022320:13
#022360:0023000000000000
#022371:13
#0223b1:0023000000000000
#0223b1:00130000
#022371:0000002300000000
#022360:00130000
#022320:0000002300000000
#022320:0013
#022360:0000000000230000
#022371:0013
#0223b1:0000000000230000
#0223b1:00000013
#022371:0000000000000023
#022360:00000013
#022320:0000000000000023
#023380:1323000000000000
#023350:0000132300000000
#024340:0000000000001222
#024320:00000000000000000000000000560000
#0243a1:0000000000001222
#024381:00000000000000000000000000560000
#0253b1:13230000
#025371:0053000000000000
#025320:00132300
#025360:0000005300000000
#0253b1:00001323
#025371:0000000000530000
#026321:1323
#026361:00530000
#026370:1323
#0263b0:00530000
#0273b0:00001323000000000000000000000000
#027380:0013
#0273b0:0000000000230000
#028320:00001323000000000000000000000000
#028350:0013
#028320:0000000000230000
#0293b0:00001323000000000000000000000000
#029380:0013
#0293b0:0000000000230000
#030320:00001323000000000000000000000000
#031380:00132300000000000000000000000000
#031350:00000000000013230000000000000000
#031380:0000000013230000
#031321:0000000000130000
#031361:00000023
#032351:00132300000000000000000000000000
#032381:00000000000013230000000000000000
#032351:0000000013230000
#0323b0:0000000000130000
#032370:00000023
#033380:00132300000000000000000000000000
#033350:00000000000013230000000000000000
#033380:0000000013230000
#033321:0000000000130000
#033361:00000023
#036321:13
#036351:0023000000000000
#0363b1:00130000
#036381:0000002300000000
#038381:00000000001323000000000000000000
#038350:00000000000013230000000000000000
#0383b1:00000000000000132300000000000000
#038320:00000000000000001323000000000000
#038381:00000000000000000013000023000000
#038350:0000000000132300
#039320:1333230000000000
#039340:00330033000000000000000000000000
#0393b1:0000133323000000
#039391:00000000003300330000000000000000
#039381:00000000000000000000001300230000
#040381:13230000
#0403a1:00330033000000000000000000000000
#0403b1:0033000000000000
#040350:00132300
#040330:00000000003300330000000000000000
#040320:0000003300000000
#041370:00130000000000000000000000000000
#0413b0:00230000
#041361:00130000
#041321:00000000000000230000000000000000
#041370:00000000000000130000000000000000
#0413b0:0000000000230000
#041321:0000000000130000
#041361:00000000000000000000000000230000
#0413b0:00000000000000000000000000130000
#042370:23
#0423a0:0000000014003424
#042360:0000000000540000
#043320:00000000132300000000000000000000
#043381:00000000001323000000000000000000
#043350:00000000000013230000000000000000
#0433b1:00000000000000132300000000000000
#043320:00000000000000001323000000000000
#043381:00000000000000000013002300000000
#0433b1:0000000000530000
#044351:1323000000000000
#044321:00530000000000000000000000000000
#044380:00001323000000000000000000000000
#044351:00000013230000000000000000000000
#0443b0:00000000132300000000000000000000
#044320:00000000000000000013002300000000
#0443b0:00000000000000000000000000000013
#0453b0:00230000000000000000000000000000
#045370:00000000132300000000000000000000
#045321:00000000001300000000000000000000
#045361:00000000000000230000000000000000
#045361:00000000000000000000132300000000
#0453b0:00000000000000000000001300000000
#045370:00000000000000000000000000230000
#046350:0013000000332300
#046340:00000033000000003333000000000000
#046330:00000000333300330000000000000000
#046320:0000003300000000
#046381:0013000000230000
#046391:00000033000000003333000000000000
#0463a1:00000000333300330000000000000000
#0463b1:0000003300000000
#0473b0:1323000000000000
#047350:0000132300000000
#047380:0000000013230000
#047320:0000000000001323
#0483b0:13
#048380:0023000000000000
#048320:00130000
#048350:0000002300000000
#0483b0:0013
#048370:0000000000230000
#048321:0000000000130000
#048361:00000023
#0483b0:00000013
#048370:0000000000000023
#049320:13230000
#049360:0053000000000000
#0493b1:00132300
#049371:0000005300000000
#049320:00001323
#049360:0000000000530000
#0493b1:00000013
#049371:0000000000000053
#0503b1:23
#051381:00000000132300000000000000000000
#051320:00000000001323000000000000000000
#0513b1:00000000000013230000000000000000
#051350:00000000000000132300000000000000
#051381:0013
#0513b1:0000000000230000
#052351:00000000132300000000000000000000
#0523b0:00000000001323000000000000000000
#052321:00000000000013230000000000000000
#052380:00000000000000132300000000000000
#052351:0013
#052321:0000000000230000
#053381:00000000132300000000000000000000
#053320:00000000001323000000000000000000
#0533b1:00000000000013230000000000000000
#053350:00000000000000132300000000000000
#053381:0013
#0533b1:0000000000230000
#054351:00000000132300000000000000000000
#0543b0:00000000001323000000000000000000
#054321:00000000000013230000000000000000
#054380:00000000000000132300000000000000
#054321:00001333
#054351:0000000000330033
#055321:23
#055381:00001323000000000000000000000000
#055351:00000000000000132300000000000000
#0553b0:0013
#055370:0000000000230000
#056350:00001323000000000000000000000000
#056380:00000000000000132300000000000000
#056321:0013
#056361:0000000000230000
#057381:00001323000000000000000000000000
#057351:00000000000000132300000000000000
#0573b0:0013
#057370:0000000000230000
#058350:13230000
#058320:0053000000000000
#058381:00132300
#0583b1:0000005300000000
#058350:00001323
#058320:0000000000530000
#058381:00000013
#0583b1:0000000000000053
#059381:23
#060321:12220000000000000000000000000000
#060341:00001222000000000000000000000000
#0603a1:00000000001222000000000000000000
#0603c1:00000000000000122200000000000000
#060321:00000012
#061321:22
#061321:0012
#061361:0000000000220000
#062321:0000000000162600
#062380:0000000000162600
#063320:00000013230000000000000000000000
#0633b0:0000001323000000
#0643b0:00000013230000000000000000000000
#064320:0000001323000000
#065320:00000013230000000000000000000000
#0653b0:0000001323000000
#0663b0:00000013230000000000000000000000
#067360:00000000001424000000000000000000
#067360:00000000000000000000001424000000
#068350:00000000001626000000000000000000
#068340:00000000000000000000001525000000
#069350:00000000001626000000000000000000
#069380:00000000000000000000001626000000
#070380:00000000000000000000132300000000
#070351:00000000000000000000001323000000
#070380:00000000000000000000000013230000
#070351:00000000000000000000000000132300
#070380:00000000000000000000000000001323
