This file was generated by Ched 2.7.0.0.
#TITLE ""
#ARTIST ""
#DESIGNER ""
#DIFFICULTY 0
#PLAYLEVEL
#SONGID ""
#WAVE ""
#WAVEOFFSET 0
#JACKET ""
#REQUEST "ticks_per_beat 480"
#00002: 4
#BPM01: 159
#00008: 01
#TIL00: ""
#HISPEED 00
#MEASUREHS 00
#0001a:14
#00012:0014
#00318:1414
#00414:1414
#05112:00160000
#05118:26001414
#05114:0000000000140000
#0511f:21
#05212:16001414
#05218:0000160000140000
#05210:41
#05318:16
#05312:00160000
#0531a:00001414
#05314:0000000000140000
#05412:1616
#05418:00160016
#0551a:0000000000140000
#05514:00001414
#05518:00160000
#05512:16
#06218:14140000
#06214:00001414
#0621a:00001414
#06212:14140000
#06118:0014
#06114:00000014
#04418:00140000
#04414:1400000000000016
#04412:0016
#04618:1414
#04614:00140014
#04718:14
#04719:00343400
#04814:14
#04813:00343400
#0491a:14
#04918:00343400
#05012:14
#05014:0000343434340000
#05013:0034000000000000
#04316:00140000
#0431a:0014
#04312:14
#0431f:11
#04118:16000016
#04116:0000001600000000
#04110:41
#04216:0016000000000000
#04512:00160000
#05618:16001414
#05612:0000160000140000
#05712:16001414
#05718:00160000
#0571a:0000000000140000
#0051a:1414
#00612:1414
#0071a:1414
#00814:1414
#00918:1414
#01012:1414
#0111a:1414
#01114:00140000
#01110:41
#01214:1414
#0121a:00140000
#01318:1414
#01312:00140000
#01412:1414
#01418:00140000
#01518:14
#01514:00140000
#0151a:0014
#0171a:14
#01714:00140000
#01718:0014
#01812:14
#01818:00140000
#01814:0014
#02414:00140000
#02418:0014
#02412:00000014
#0241a:14
#02718:14141400
#01614:14
#01618:00140000
#01612:0014
#02814:14141400
#0291a:14141400
#03012:14141400
#0311a:14141400
#03110:41
#03214:14141400
#03318:14141400
#03412:14141400
#0351a:1414
#03514:00140014
#03618:1414
#03612:00140000
#03712:1414
#03718:00140014
#03814:1414
#0381a:00140000
#0391a:14
#03914:00140000
#03918:0014
#03912:00000014
#0401a:14
#04016:00140000
#04012:0014
#0191a:1414
#01914:00140014
#01910:41
#02018:1414
#02012:00140014
#02218:1616
#02212:00160016
#0231a:14
#02314:00140000
#02318:0014
#02312:00000014
#06312:00160000
#0631a:0014
#06314:0000000000140000
#06318:26000014
#06310:41
#06412:1614
#06418:0000160000140000
#06414:00000014
#06518:16000014
#06512:00160000
#0651a:0014
#06514:0000000000140000
#06612:1616
#06618:00160016
#06718:0000160000140000
#06714:0014
#06712:16000014
#06818:1614
#06812:00160000
#0681a:00000014
#06814:0000000000140000
#06912:16000014
#06918:0000160000140000
#06914:0014
#05818:1616
#05812:00160016
#05918:16
#00115:26
#0711a:24
#07112:24
#07018:2424
#07014:00240024
#02612:00000026
#06019:0000000000340000
#00155:16
#04758:54
#04854:64
#0495a:64
#05052:54
#05054:00000014
#04258:0016
#04256:0056000000000000
#04158:66000066
#04156:0000005600000000
#02652:00000016
#04452:0056
#04454:0000000000000066
#04552:00560000
#05452:0016
#05458:00000016
#06652:0016
#06658:00000016
#0213a0:14240000
#021340:00001424
#025380:14240000
#025320:00001424
#026380:14
#0263a0:0024
#041380:16000036
#041360:0000003600000000
#042360:0036000000000000
#042380:0026
#044320:0016
#044340:0000000000000036
#045320:00360000
#045340:0000000000260000
#047380:14
#047390:00343400
#0473a0:00000024
#048340:14
#048330:00343400
#048320:00000024
#0493a0:14
#049380:00343424
#050320:14
#050330:0034000000000000
#050340:0000343434342400
#059380:0014
#0593a0:00000024
#060340:14
#060320:00240000
#0603a0:0014
#060390:0000000000340000
#060380:00000024
#061320:14
#061340:00240000
