This file was generated by Ched 2.6.4.0.
#TITLE ""
#ARTIST ""
#DESIGNER ""
#DIFFICULTY 0
#PLAYLEVEL
#SONGID ""
#WAVE ""
#WAVEOFFSET 0
#JACKET ""
#REQUEST "ticks_per_beat 480"
#00002: 4
#BPM01: 222
#00008: 01
#TIL00: ""
#HISPEED 00
#MEASUREHS 00
#00214:14
#0031a:14
#00414:14
#00518:14
#00612:14
#00718:14
#02214:14
#02318:14
#06112:16
#06118:0016
#06212:16
#06218:0016
#08414:14
#0851a:14
#08614:14
#00812:14
#0171a:14
#02412:14
#0251a:14
#03018:14
#03112:14
#03212:14
#03812:14
#05918:16
#05912:0016
#0011a:14
#01814:14
#01918:14
#02012:14
#0211a:14
#02110:41
#0261a:14
#02714:14
#02814:14
#02918:14
#03718:14
#0331a:14
#04114:14
#0421a:14
#04518:14
#04612:14
#04912:14
#05012:14
#0511a:14
#0521a:14
#05314:14
#05414:14
#05518:14
#05618:14
#05812:16
#06018:16
#08118:14
#0811f:11
#08218:14
#08314:14
#10312:16
#10318:0016
#10412:16
#10418:0016
#1111a:14
#10512:16
#10718:14
#10914:14
#05718:0016
#05712:26
#05710:41
#06519:14
#06713:14
#06919:14
#07113:14
#0731a:14
#07310:41
#07514:14
#07718:14
#07912:14
#09218:14
#09312:14
#09418:14
#08914:14
#09014:14
#09118:14
#0971f:21
#09810:0041
#00910:41
#03510:41
#0093a0:14
#0103a0:24
#011340:14
#012340:24
#013380:14
#014380:24
#015320:14
#016320:24
#035340:14
#036340:24
#039380:14
#040380:24
#043340:14
#044340:24
#047380:14
#048380:24
#063320:1636
#064320:3626
#0873a0:14
#0883a0:24
#095320:14
#096320:24
#097380:1636
#098380:3626
#099320:1636
#100320:3626
#101380:1636
#102380:3626
#113330:14
#115330:24
#117390:14
#119390:24
#121320:14
#124320:0024
