This file was generated by Ched 2.6.4.0.
#TITLE ""
#ARTIST ""
#DESIGNER ""
#DIFFICULTY 0
#PLAYLEVEL
#SONGID ""
#WAVE ""
#WAVEOFFSET 0
#JACKET ""
#REQUEST "ticks_per_beat 480"
#00002: 4
#BPM01: 222
#00008: 01
#TIL00: ""
#HISPEED 00
#MEASUREHS 00
#00012:0000000000130000
#00018:00000013
#00015:0000000000000013
#00112:2300000000130000
#00118:00000013
#00115:0000001300000013
#0011b:23130000
#00218:1300001300000000
#00212:0013000000000000
#00215:0000130000130000
#0021b:00000013
#00315:0000131300000000
#00318:1300000000131300
#00312:1300000000000013
#00418:1300000000000013
#00415:0013000000001300
#0041b:0000130000130000
#00412:0000001300000000
#00512:1300000000130000
#00518:00000013
#00515:0000001300000013
#0051b:00130000
#00618:13130000
#00615:0013000000000000
#00612:0000001300000000
#0061a:0000000000140000
#00614:00000014
#0061b:0000001300000000
#00718:1300001300001300
#00715:0000000000000013
#00712:00130000
#0071b:0000000000130000
#00812:0014
#0081b:0000000000130000
#00815:00000013
#00818:0000000000000013
#01515:1300001300000013
#01518:00130013
#01512:0000000000130000
#01618:000014000000003300000000
#01616:000014000014
#01614:003300001400
#0161a:24000033
#01612:0024
#01619:000033
#01613:00330000
#01615:003300000000000000000000
#01815:00000013
#0181b:00000013
#01812:1616
#01918:13
#01912:13160016
#0261b:0000000000130000
#02615:00000013
#02618:1600000000000013
#02612:0016
#02915:00130000
#0291b:13130013
#02912:13
#03018:1300000000130013
#03012:1313
#03015:00000013
#04618:13130000
#04615:0013000000001300
#0461b:0000001300001300
#04612:0000001300000000
#04918:0013
#0491b:00000013
#04915:0013
#0491a:24
#05015:1300000013000013
#05018:0000001300130000
#05012:00000013000000000000000000000000
#0501b:00000000000000000000000000130000
#05112:2400000000000013
#0511b:0000000000000013
#05114:002400
#05118:002400000000
#0511a:0024
#05116:000024
#06616:00000012
#06618:0000000000000012
#0661a:0000000000120000
#06617:12
#06714:12
#06712:0012
#06718:0000001212000000
#0671a:0000000000000012
#06814:12
#06816:0012
#0681c:0000001212000000
#0681a:12
#08115:00130000
#08118:0000001300000000
#08112:2313
#0811b:23000013
#08116:0000000000000013
#0811f:11
#08512:00131300
#08515:0000000000130013
#08518:00000013
#08618:1300000013000013
#0861b:0013000000000000
#08615:0000001300130000
#0871b:13
#08712:0000130000000014
#0871a:0014
#08714:0000000000140000
#08718:00000014
#08816:1400000000130000
#08817:0000001300000000
#08819:0013
#0881b:0000000000130000
#08812:0000001300000000
#08814:0013
#01712:24160016
#0171a:24
#02512:13000016
#02518:00160000
#0251b:13
#03112:13130013
#03118:00130000
#0311b:13
#03918:1300131300000000
#03915:13
#03912:0013000000003333
#0391b:0000000000003333
#05816:001300000000000000000000
#0581a:241414141414
#05815:00130000
#05814:000000000013000000000000
#05813:000000000000001300000000
#05812:00000013
#06214:001400000000000000000000
#06212:000000160016001600160000
#06218:241616261616
#03512:0000000000130000
#03515:23130013
#03518:0000001300000013
#0351b:23
#03510:41
#03612:0000001300000000
#0361b:0000000000130000
#03618:00000013
#03615:0000000000000013
#03718:1300001300000013
#0371b:0000130000130000
#03712:1300000000130000
#03715:00130013
#03812:1300001300000000
#03818:0013000000000000
#03815:0000130000131300
#0381b:0000001300131300
#04015:0000000000130013
#04018:00000013
#04418:0000130000000013
#04412:0000001300130000
#04415:0013000000001300
#0441b:1300001300000000
#0451b:13
#04515:0000130000130000
#04518:00000013
#04512:0000000000000013
#05315:1313
#05318:13
#0531b:00130000
#05312:00000013
#05418:1300000013000013
#05415:0000001300130000
#0541b:00000013000000000000000000000000
#05412:00000000000000000000000000130000
#06912:12
#06916:0012
#07012:12
#07018:00000012
#07016:0000000000000012
#07014:0000000000120000
#07718:12120000
#0771c:00001212
#07818:1200000000000012
#07816:00000012
#0781a:0000000000120000
#0411b:0000000000130000
#04118:23130013
#04115:0000001300000013
#04112:23
#0421b:0000001300000000
#04218:0000000000000013
#04215:00000013
#04212:0000000000130000
#04315:1300001300000013
#04312:0000130000130000
#0431b:1300000000130000
#04318:00000013
#0711a:12
#0711c:0012
#07116:0000001212000000
#07114:0000000000000012
#0721a:12
#07218:0012
#07212:0000001212000000
#07214:12
#07417:12
#07418:00000012
#07416:0000000000000012
#07414:0000000000120000
#0931b:00131300
#09318:0000000000130000
#09315:00000013
#09312:0000000000000013
#0941b:1300001300000000
#09412:1300001300000000
#09415:0013000000001300
#09418:0000130000130013
#0971b:00000013000000000000000000000000
#09712:00000000000000000013000000000000
#09715:2300002300000000
#09718:23000023
#0971f:21
#09912:00000013000000000000000000000000
#0991b:00000000000000000013000000000000
#09918:2300002300000000
#09915:23000023
#10812:0013000000000000
#10818:0000130000000013
#10815:1300001300001300
#1081b:0000000000130000
#11012:0000131300000000
#1101b:0000131300000000
#11015:13
#11018:0013000000000000
#03314:0000000000120000
#0331a:00000012
#03316:0000000000000012
#03312:23
#0331b:23
#03418:1200000000130013
#03414:0012000000000000
#0341a:00120000
#03416:0000001200000000
#03415:00000013
#08216:0013000000000000
#08214:0000001300000000
#08212:0000000000130000
#0821b:13000013
#08219:00130000
#08217:0013
#08915:0000130013000013
#08918:0000001300001300
#0891b:2313
#08912:23
#10515:0000001300000000
#1051b:1300000000130000
#10512:00000013
#10518:0000000000000013
#10615:13
#10618:0013000000000000
#10612:0000131300000000
#10712:13
#10718:0013000000000013
#10715:0000130000130000
#1071b:0000001300000000
#10912:13000013
#1091b:1300000000000013
#10918:0000130000130000
#1121b:0013000000000000
#11215:0000130000000013
#11218:1300001300001300
#11212:0000000000130000
#1111b:13
#11115:0013000000001300
#11118:0000130000130000
#11112:0000001300000000
#11312:1300000000130000
#1131b:13130013
#11315:0000001300000013
#11418:13
#11415:0013000000000000
#1141b:0000131300000000
#1151b:1313000000000013
#11515:1313000000000000
#11517:0000001300000000
#11512:0000000033333300
#11616:13
#11619:0013000000000000
#11614:00130000
#11617:0000001300000000
#11612:0000000000130000
#11618:00000013
#11615:0000000000000013
#1171b:1300000000130000
#11715:00000013
#11718:0000131300000013
#11712:1300001300130000
#11815:13130013
#11818:0013000000130013
#1181b:0000001300000000
#11812:0000001300130000
#1191b:1300000000130000
#11918:0000131300001300
#11912:0000001300000000
#11915:0000000000000013
#12012:0013000000000000
#12015:00130000
#12018:0000001300000000
#1201b:0013
#0091b:2300000000130000
#00915:00000013
#00918:0000001300000013
#00912:23130000
#00910:41
#01015:1300001300000000
#0101b:0013000000000000
#01018:0000130000140000
#01012:00000014
#01118:0000131300000000
#01115:1300000000131300
#0111b:1300000000000013
#01215:1300000000000013
#01218:0013000000001300
#01212:0000130000130000
#0121b:0000001300000000
#0131b:1300000000130000
#01315:00000013
#01318:0000001300000013
#01312:00130000
#01415:13130000
#01418:0013000000001400
#0141b:0000001300000000
#01412:0000001300140000
#02015:00000013
#0201b:00000013
#02012:1616
#02118:13160016
#02112:13
#02110:41
#02712:13160000
#02718:00000016
#0271b:13
#03215:1300000000130013
#0321b:1313
#03218:00000013
#08318:00130000
#08315:0000001300000000
#0831b:0013
#08312:00000013
#08317:0000000000000013
#08417:0013000000000000
#08419:0000001300000000
#0841b:0000000000130000
#08412:13000013
#08414:00130000
#08416:0013
#0551b:0000000000000013
#05512:0000000024000013
#0551a:24
#05518:002400
#05514:002400000000
#05516:000024
#02218:16001613
#02212:00000013
#02315:13
#0231b:13
#02318:00160016
#02418:16001613
#02412:00000013
#02812:1600000000130000
#02818:00001613
#02815:0000000000000013
#06118:001313231414
#06114:000000000000000000140014
#06115:000000130013001300000000
#06112:26
#06017:001300000000000000000000
#06012:241414141414
#06018:00130000
#06019:000000000013000000000000
#0601a:000000000000001300000000
#0601b:00000013
#10112:00000013000000000000000000000000
#1011b:00000000000000000013000000000000
#10118:2300002300000000
#10115:23000023
#1031b:00000013000000000000000000000000
#10312:00000000000000000013000000000000
#10315:2300002300000000
#10318:23000023
#09016:0013000000000000
#09014:0000001300000000
#09012:0000000000130000
#0901b:00000013
#09118:0000130013000013
#09115:0000001300001300
#09112:0013
#09217:0013000000000000
#09219:0000001300000000
#0921b:0000000000130000
#09212:00000013
#0751a:12
#0751c:0012
#07516:0000001212000000
#07514:0000000000000012
#0761a:12
#0761c:0012
#07612:00120000
#07614:12
#07616:0012
#07618:00120000
#07914:12
#07912:0012
#07918:0000001212000000
#0791a:0000000000000012
#08014:12
#08016:0012
#0801c:0000001212000000
#0801a:12
#0471b:0013001300000000
#04712:00131300
#04718:1300000000131300
#04715:1300001300000000
#0481a:14
#0631a:00242424
#06312:00242424
#0641a:24240000
#06412:24240000
#05712:260000000000003333333333
#0571b:003333333333000000000000
#05710:41
#0951b:23
#09512:23
#0951a:0023
#09513:0023
#09619:23
#09614:23
#0521a:24
#05218:002400
#05214:002400000000
#05212:0024
#05216:000024
#05612:24
#05614:002400
#05618:002400000000
#0561a:0024
#05616:000024
#05918:26
#05912:003333333333000000000000
#0591b:000000000000003333333333
#09816:00230000
#09814:0023
#09812:00000023
#09819:0023
#09817:00000023
#09810:0041
#10012:23
#10017:23
#1001b:000000233333000000000000
#10016:000000233333000000000000
#10217:00230000
#10219:0023
#1021b:00000023
#10214:0023
#10216:00000023
#1041b:23
#10416:23
#10412:000000233333000000000000
#10417:000000233333000000000000
#12117:00340000000000000000000000000000
#07310:41
#0065a:0000000000140000
#00654:00000014
#01752:00000016
#02552:00000016
#03052:0013
#0405b:0013000000000000
#04052:00130000
#04958:0053
#0495b:00000023
#0495a:14
#05055:53
#05052:00000023000000000000000000000000
#05058:0000000000530000
#0505b:00000000000000000000000000230000
#05458:63
#05455:0000000000630000
#0545b:00000023000000000000000000000000
#05452:00000000000000000000000000230000
#05358:53
#05355:0053
#0535b:00230000
#05352:00000023
#00358:53
#00355:0000005300000000
#03952:0023000000000000
#03955:53
#0435b:53
#0295b:00000013
#08152:0053
#0885b:0000000000130000
#08856:0000000000130000
#0875b:53
#09655:0013
#09658:0013
#09659:53
#09654:53
#09752:00000000000000000023000000000000
#0975b:00000023000000000000000000000000
#09758:53000053
#09755:0000005300000000
#09952:00000023000000000000000000000000
#0995b:00000000000000000023000000000000
#09955:53
#09958:0000005300000000
#08655:0000000000530000
#0645a:0014
#06452:0014
#08955:0053
#1055b:53
#10855:0000001300000000
#01155:63
#01158:0000006300000000
#01058:0000000000140000
#01052:00000014
#01452:0000000000140000
#01458:00000014
#02652:0016
#03152:00000013
#0325b:0013
#0835b:0063
#01852:0016
#01952:00000016
#02052:0016
#02158:00000016
#02258:0016
#02358:00000016
#02458:0016
#02758:00000016
#02858:0016
#10052:0033
#10057:0033
#10152:00000023000000000000000000000000
#1015b:00000000000000000023000000000000
#10155:63000063
#10158:0000006300000000
#1035b:00000023000000000000000000000000
#10352:00000000000000000023000000000000
#10358:63
#10355:0000006300000000
#1045b:0043
#10456:0043
#0825b:00000013
#08452:00000013
#0905b:00000013
#09158:0063
#09252:00000013
#11657:0000001300000000
#04755:0000006300000000
#04758:53
#04752:0023
#0475b:0023000000000000
#003380:13
#0033b0:0000002300000000
#003351:0000001300000000
#003321:00000023
#0083a1:143424000000000000000000
#008340:000014342400000000000000
#008381:000000001434240000000000
#011351:13
#011321:0000002300000000
#011380:0000001300000000
#0113b0:00000023
#016360:13
#016350:003300000000000000000000
#016340:003300000000
#016330:00330000
#016320:002300
#016370:0013
#016380:000000000000003300000000
#016390:000033
#0163a0:00000033
#0163b0:000000000023
#017380:0000001600260000
#018380:0016002600000000
#019380:0000001600260000
#020380:0016002600000000
#021320:0000001600260000
#022320:0016002600000000
#023320:0000001600260000
#024320:0016002600000000
#025380:0000001600260000
#026380:0016002600000000
#027320:0000001600260000
#028320:0016002600000000
#029350:0000001300002300
#0293b1:0000001300230000
#030380:0013000023000000
#030321:0013002300000000
#031380:0000001300002300
#031321:0000001300230000
#032350:0013000023000000
#0323b1:0013002300000000
#033380:0000001200220000
#0363b0:1323000000000000
#036351:0013230000000000
#036380:0000132300000000
#039350:13230000
#039320:0053000000000000
#0393b0:0000000000133333
#039380:00000000000000000000000000530000
#0403b0:3323000000000000
#039321:0000000000133333
#039351:00000000000000000000000000530000
#040321:33230000
#042321:1323000000000000
#042380:0013230000000000
#042351:0000132300000000
#0433b1:13
#043381:00230000
#045381:0000001300230000
#047381:13230000
#0473b1:0053000000000000
#047351:0000001300230000
#047321:0053
#048361:143424000000000000000000
#0483a0:000014342400000000000000
#048341:000000001434240000000000
#048380:000000000000143424000000
#048321:000014
#049321:24
#049381:0013
#0493b1:00000053
#050381:23
#050350:1300002300000000
#050320:00000053000000000000000000000000
#050380:0000000000130000
#0503b0:00000000000000000000000000530000
#051380:23
#053380:1323
#0533b0:00530000
#053351:0013
#053321:00000053
#054351:23
#054380:1300002300000000
#0543b0:00000053000000000000000000000000
#054350:0000000000130000
#054320:00000000000000000000000000530000
#055350:23
#0573b0:133333333333000000000000
#057370:0023
#057321:000000000000133333333333
#058361:23
#059321:133333333333000000000000
#059361:0023
#0593b0:000000000000133333333333
#060370:23
#0643a0:00142400
#064321:00142400
#065321:12
#065351:0052000022000000
#065380:0012
#0653b0:0000000000520000
#0663b0:22
#069380:1200005200000000
#0693c0:0000000032000052
#070380:22
#0733c0:12
#073390:0052000022000000
#073361:0012
#073331:0000000000520000
#074331:22
#077321:1200005200000000
#077361:0000000032000052
#078321:22
#081321:0013
#081361:00000023
#0833b1:0013
#083371:00000023
#085371:00130000
#0853b1:0000005323000000
#086351:0000000000130000
#086321:0000000000000023
#0873b1:13
#087371:00230000
#089351:0013
#089321:00000023
#0903b1:1323000000000000
#090391:0000132300000000
#090371:0000000013230000
#091381:0013
#0913b1:00000023
#092321:1323000000000000
#092341:0000132300000000
#092361:0000000013230000
#093361:00130000
#093321:0000005323000000
#0953b1:1300002300000000
#095320:1300002300000000
#0953a0:0000000013000023
#095331:0000000013000023
#096341:13
#096351:0023
#096390:13
#096380:0023
#097380:1300002300000000
#0973b0:00000053000000000000000000000000
#097351:0000001300002300
#097321:00000000000000000053000000000000
#097380:00000013
#0983b0:00230000
#099350:1300002300000000
#099320:00000053000000000000000000000000
#099381:0000001300002300
#0993b1:00000000000000000053000000000000
#100361:000000133333000000000000
#100321:0023
#1003b0:000000133333000000000000
#100370:0023
#101350:1300002300000000
#101320:00000053000000000000000000000000
#101381:0000001300002300
#1013b1:00000000000000000053000000000000
#101350:00000013
#102320:00230000
#103380:1300002300000000
#1033b0:00000053000000000000000000000000
#103351:0000001300002300
#103321:00000000000000000053000000000000
#104371:000000133333000000000000
#1043b1:0023
#104320:000000133333000000000000
#104360:0023
#1053b0:13
#105380:0000002300000000
#109350:0000001300230000
#115320:0000001333333300
#115360:0000000000000023
#119350:13230000
#120320:0000000000130000
#121320:23
#121371:14340000000000000000000000000000
#1213a1:0034000000000000
#1243c1:0022
