This file was generated by Ched 2.6.4.0.
#TITLE " "
#ARTIST ""
#DESIGNER ""
#DIFFICULTY 0
#PLAYLEVEL
#SONGID ""
#WAVE ""
#WAVEOFFSET 0
#JACKET ""
#REQUEST "ticks_per_beat 480"
#00002: 4
#BPM01: 222
#00008: 01
#TIL00: ""
#HISPEED 00
#MEASUREHS 00
#03715:1300001300000000
#03718:0000000000130000
#03712:00000013
#0371b:00130000
#0001b:0000000000000013
#00018:0000000000130000
#00015:00000013
#03515:0000000000000013
#03518:13000013
#03512:0000000000130000
#03510:41
#11015:13
#1101b:0013000000000000
#11012:00130000
#11018:0000001300000000
#0021b:13130000
#00215:0013001300000000
#00112:00000013
#00118:0000130000130000
#00115:2300001300000000
#01615:133333003333
#01612:0013
#0041b:0013000000000000
#00415:1300000000000013
#00418:0000001300001300
#00412:0000130000130000
#00318:13
#0031b:0000001300000000
#00615:13130000
#0061b:0013001300000000
#0051b:13
#00518:0000001300001300
#00512:00130000
#00515:0000000000130000
#01718:0000001300000000
#01812:0013000000000000
#0181b:00000013
#01815:00000013
#01918:13
#01915:0000001300000000
#0201b:0013000000000000
#02012:00000013
#02018:00000013
#02118:0000001300000000
#02115:13
#02110:41
#02212:0013000000000000
#0221b:00000013
#02215:00000013
#02318:13
#02315:0000001300000000
#0241b:0013000000000000
#02412:00000013
#02418:00000013
#02515:1300001300000000
#02518:00130000
#0251b:13
#02615:13000013
#02618:0013000000000000
#0261b:00000013
#02712:13
#02715:00130000
#02718:1300001300000000
#02915:1300001300000000
#02918:00130000
#0291b:13
#02818:13000013
#02812:00000013
#02815:0013000000000000
#03018:13
#03015:00000013
#03012:0013000000000000
#0301b:00000013
#0321b:0013000000000000
#03215:1300000000130000
#03212:0000000000000013
#03218:00000013
#03118:1300001300000000
#03115:00130000
#03112:13
#0361b:1300000000000013
#03618:0000130000130000
#03612:0000001300001300
#03615:0013000000000000
#03818:1300001300001300
#03812:13
#03815:0000130000130000
#04715:00130000
#0471b:0000001300000000
#04718:1300000000130000
#04712:13000013
#0491a:0014
#04912:24
#04918:24
#05012:14
#05018:0000001400140000
#05014:0014
#05314:14
#05312:0014
#0531a:14
#0541a:14
#05414:0000001400140000
#05418:0014
#05112:001300
#05115:233300330000
#0521b:001300
#05218:233300330000
#05715:0013
#05718:13
#05710:41
#0581b:13
#05818:000000000000001300130000
#05815:000000131300
#06618:0000000000130013
#06615:00000013
#06815:1300001300000000
#0681b:0013
#06918:0013
#0691b:13
#07015:0000000000130013
#07018:00000013
#0711b:1300000000000013
#07118:0000001300000000
#07112:0013
#07218:0000001300000000
#07212:0013
#07215:13
#0811b:00131300
#08115:0000001300000000
#08112:00000013
#0811f:11
#08312:00131300
#08318:0000001300000000
#0831b:00000013
#0851b:00130000
#08515:0013
#08518:00000013
#08618:0013000000000013
#08612:13
#08615:0000001300130000
#0861b:0013
#08715:1300000013330033
#08712:00130013
#08818:0000001300000000
#08815:0013
#0881b:0000000000130000
#09315:00130000
#0931b:0013
#09312:00000013
#09415:0013001300000000
#0941b:13130000
#09418:0000000000130000
#09412:00000013
#10815:0000000000130000
#10812:0000000000000013
#10818:00000013
#1091b:1300001300000000
#10918:00000013
#10915:0000130000130000
#11215:13000013
#11218:0000000000000013
#1121b:0000000000130000
#11112:13130000
#1111b:0013001300000000
#11115:0000000000130000
#11118:00000013
#1181b:13
#11815:0013000000000000
#11818:0000130000130013
#11812:0000001300001300
#11518:0013000000000000
#11515:1300000033333300
#1161b:0000000000130000
#11618:0000000000000013
#11615:3333330000001300
#11712:1300000000130000
#1171b:0000001300000000
#11718:00000013
#11715:0000130000000013
#1191b:00130013
#11915:0000001300130013
#11912:13
#12012:0013001300130000
#12018:00131300
#05918:0013
#05915:13
#06012:13
#06015:000000000000001300130000
#06018:000000131300
#00712:13
#00715:0000001300000000
#00812:0000000000000013
#00815:0000000000130000
#00818:00000013
#0081b:003333000000
#01012:13130000
#01018:0013001300000000
#0091b:00000013
#00915:0000130000130000
#00918:2300001300000000
#00910:41
#01212:0013000000000000
#01218:1300000000000013
#01215:0000001300001300
#0121b:0000130000130000
#01115:13
#01112:0000001300000000
#01418:13130000
#01412:0013001300000000
#01312:13
#01315:0000001300001300
#0131b:00130000
#01318:0000000000130000
#0151b:13
#01518:0000001300000000
#03919:13
#03914:13
#04315:1300000000130000
#0431b:13000013
#04318:00130000
#04312:0000001300000000
#04118:0000000000000013
#04115:13000013
#0411b:0000000000130000
#04212:13
#04215:00130000
#0421b:0000001300000000
#04218:0013000000000000
#04412:1300000000000013
#04418:0013000000001300
#0441b:0000001300000000
#04415:0000130000130000
#0401b:0000000000000013
#04015:00000013
#04018:0000000000130000
#04518:13000013
#04515:0000000000000013
#04512:0000000000130000
#0451b:00330000
#06712:1300001300000000
#06718:0000000013000013
#07415:0000000000130013
#07418:00000013
#07618:13
#0761b:00130000
#07612:0013
#07712:13
#07715:0013
#07818:0000000000130013
#07815:00000013
#07912:1300000000000013
#07915:0000001300000000
#0791b:0013
#08015:0000001300000000
#0801b:0013
#08018:13
#0751b:1300001300000000
#07515:0000000013000013
#08918:0000001300000000
#08912:00131300
#08915:00000013
#0891b:0000000000000013
#1051b:13
#10515:0000130000130000
#10518:0000001300001300
#10612:13
#10618:0013000000000000
#10615:00130000
#1061b:0000001300000000
#06515:13
#06512:0013
#07318:13
#0731b:0013
#07310:41
#0461b:13000013
#04618:00130000
#04612:0000001300000000
#04615:0013000000001300
#11315:0000001300001300
#11312:13
#11318:0000130000130000
#1141b:13
#11415:0013000000000000
#11418:00130000
#11412:0000001300000000
#09115:0000001300000000
#0911b:00131300
#09118:00000013
#09112:0000000000000013
#0551b:001300
#05518:233300330000
#05612:001300
#05615:233300330000
#0331b:23
#06318:00260026
#06312:0026
#06412:26
#06418:00260000
#0951b:23
#09518:0023
#09615:23
#09612:0023
#09718:2300003300000000
#0971f:21
#0981b:00230000
#09815:0023
#09818:00000023
#09810:0041
#09912:23
#1001b:23
#10115:2300003300000000
#10212:00230000
#10218:0023
#10215:00000023
#1031b:23
#10412:23
#0821b:0033000000000000
#08218:0000000000330000
#08412:0033000000000000
#08415:0000000000330000
#0481a:003300000000
#04819:003300
#04818:0033
#04812:0033
#04813:003300
#04814:003300000000
#0611a:003300000000000000330000
#06119:000000330000003300000000
#06118:000000000033000000000000
#0611b:000000000000000000000033
#0621a:003300000000000000330000
#06219:000000330000003300000000
#06218:000000000033000000000000
#0621b:000000000000000000000033
#09015:0033000000000000
#09012:0000000000330000
#09218:0033000000000000
#0921b:0000000000330000
#01655:23
#01652:0023
#01758:0000005300000000
#01852:0053000000000000
#01955:0000006300000000
#0205b:0063000000000000
#02158:0000005300000000
#02252:0053000000000000
#02355:0000006300000000
#0245b:0063000000000000
#02555:0000006300000000
#02658:0053000000000000
#02955:0000006300000000
#02758:0000005300000000
#0325b:0063000000000000
#03052:0053000000000000
#03158:0000005300000000
#05152:002300
#05155:53
#0525b:002300
#05258:53
#05755:0063
#05758:53
#08755:6363
#08752:00230023
#0885b:0000000000130000
#11255:13
#0585b:63
#05958:0053
#05955:63
#06052:53
#06458:0016
#00358:53
#0035b:0000006300000000
#00752:53
#00755:0000006300000000
#01155:63
#01152:0000005300000000
#0155b:63
#01558:0000005300000000
#03558:53
#03959:53
#03954:63
#04155:63
#04558:53
#10058:0013
#1005b:53
#06552:0023
#06555:63
#0695b:63
#06958:0023
#0735b:0023
#07358:53
#02855:0063000000000000
#07752:53
#07755:0023
#09758:23
#09952:53
#10155:23
#1035b:63
#10452:63
#10455:0013
#0555b:002300
#05558:63
#05652:002300
#05655:63
#09652:0013
#11655:0000001300000000
#10858:0000001300000000
#003380:1300000000332300
#0033b0:0000333300000000
#007320:1300000000332300
#007350:0000333300000000
#0083b0:133333000000
#008380:0023
#011350:1300000000332300
#011320:0000333300000000
#0153b0:1300000000332300
#015380:0000333300000000
#016350:133333003333
#016320:0033
#017350:23
#017380:0000001300000000
#0173b0:00000023
#018320:0013000000000000
#018350:0023
#019350:0000001300000000
#019320:00000023
#0203b0:0013000000000000
#020380:0023
#021380:0000001300000000
#0213b0:00000023
#022320:0013000000000000
#022350:0023
#023350:0000001300000000
#023320:00000023
#0243b0:0013000000000000
#024380:0023
#025350:0000001300000000
#025320:00000023
#026380:0013000000000000
#0263b0:0023
#027380:0000001300000000
#0273b0:00000023
#028350:0013000000000000
#028320:0023
#029350:0000001300000000
#029320:00000023
#030320:0013000000000000
#030350:0023
#031380:0000001300000000
#0313b0:00000023
#0323b0:0013000000000000
#032380:0023
#033340:0000001400340034
#033330:00000034
#034330:34340000
#034340:0034002400000000
#035380:13
#0353b0:0000332300000000
#039390:13
#0393b0:0000332300000000
#039341:13
#039321:0000332300000000
#0393b1:0000000000130000
#0393a1:00000033
#039391:0000000000000033
#040381:23
#039320:0000000000130000
#039330:00000033
#039340:0000000000000033
#040350:23
#041350:13
#041320:0000002300000000
#045380:13
#0453b0:0000332300000000
#0483b0:13
#0483a0:003300000000
#048390:003300
#048380:000000332300
#048351:13
#048341:003300000000
#048331:003300
#048321:000000332300
#051351:133300332300
#051321:003300
#052381:133300332300
#0523b1:003300
#055381:133300332300
#0553b1:003300
#056351:133300332300
#056321:003300
#057381:13
#0573b1:00230000
#057351:0013
#057321:00000023
#0583b1:13
#058381:00230000
#059351:13
#059321:00230000
#059381:0013
#0593b1:00000023
#060321:13
#060351:00230000
#0613b1:130000000000000000000033
#0613a1:003300000000000000330000
#061391:000000330000003300000000
#061381:000000000033530000000000
#0623b1:530000000000000000000033
#0623a1:003300000000000000330000
#062391:000000330000003300000000
#062381:000000000033530000000000
#0633b1:23
#061350:13
#061340:003300000033
#061330:003333
#061320:0033
#062350:33
#062340:003300000033
#062330:003333
#062320:0033
#063350:23
#064380:00162600
#065350:13
#065320:0033
#066350:23
#0693b0:13
#069380:0033
#0703b0:23
#073380:13
#0733b0:0033
#074380:23
#077320:13
#077350:0033
#078320:23
#0823b0:1333000000002300
#082380:0000333333330000
#084320:1333000000002300
#084350:0000333333330000
#087350:1300000033330033
#087320:00330033
#088350:23
#090350:1333000000002300
#090320:0000333333330000
#092380:1333000000002300
#0923b0:0000333333330000
#097380:1300003300000000
#0973b0:00000023
#099320:13
#099350:0000003300002300
#1003b0:13
#100380:0023
#101350:1300003300000000
#101320:00000023
#1033b0:13
#103380:0000003300002300
#104320:13
#104350:0023
#107320:13
#107330:0033000000000000
#107340:00330000
#107350:0000002300000000
#1073b0:0000000000130033
#1083b0:33
#1083a0:0033000000000000
#108390:00330000
#108380:0000002300000000
#115350:0000001333333300
#115320:0000000000000033
#116350:3333332300000000
#121380:16
#1243b0:0023
