This file was generated by Ched 2.6.4.0.
#TITLE ""
#ARTIST ""
#DESIGNER ""
#DIFFICULTY 0
#PLAYLEVEL
#SONGID ""
#WAVE ""
#WAVEOFFSET 0
#JACKET ""
#REQUEST "ticks_per_beat 480"
#00002: 4
#BPM01: 222
#00008: 01
#TIL00: ""
#HISPEED 00
#MEASUREHS 00
#00012:0000000000130000
#00015:00000013
#00018:0000000000000013
#00112:2300000000130000
#00115:00000000001300000000000013000000
#00118:0000130000000013
#0011b:2300001300000000
#0021b:1300000000130000
#00212:0013001300130000
#00215:0000130000001313
#00218:00000000000013000000000000130000
#00315:0000131300000000
#00318:0000000000130000
#0031b:00000013000000000000000013000000
#00312:13000000000000000013000000001300
#00317:13
#00418:00001300000000000000000000130000
#0041b:0000130000130000
#00415:1300000000001313
#00412:0000001300000000
#00417:0000001300000000
#00516:0000000000130000
#00513:00000013
#00512:1300001300000013
#0051b:1300000000133333
#00518:00130000
#00612:13001300000000000000001400000000
#00613:00130000
#00616:0000001300181800
#00617:13
#0061b:0033330000000000
#00717:13
#00715:00000000000013000000000000130000
#00718:00000000001300001300000013001300
#00712:13130000
#0071b:0000000000130000
#01912:13160016
#0191b:13000013
#01918:00001300001300000000130000001300
#02612:0000000000130000
#02618:00000013
#02615:00130000000013001600000000001300
#0261b:1300000000130000
#04618:14000013
#04616:0014000000000000
#04614:13140000
#0461b:0000001300130013
#04612:0000001400001300
#04615:0000000000130000
#04619:00130000
#04715:1319001300000013
#04718:0000130000130000
#04712:00131319
#0471b:0000001300000013
#06616:00001212
#06618:0000000000000012
#0661c:0000000012120000
#06612:12
#06614:00120000
#0661a:00120000
#06712:12
#0671a:0000001200000000
#0671c:0000000000000012
#06718:0012
#08115:00130000
#08118:0000001300000000
#08112:2313
#0811b:23001313
#08116:0000000000000013
#0811f:11
#08512:00131300
#08514:0000000000130000
#08516:00000013
#0851b:0000000000000013
#08515:16
#08619:13
#08617:0013000000000000
#08615:0000001300130000
#08618:0000000013000013
#08612:0013000000001300
#0861b:0000000000130000
#08718:1300000000140000
#08712:00130000
#0871b:0013000000000000
#08715:13
#0871a:0014
#08716:00000014
#08714:0000000000000014
#0351b:13000000001300000000000000000000
#03512:1300000000130000
#03514:00000013
#03516:0000131300000013
#03518:0013000013000000
#03510:41
#01718:00160016
#01715:00001300001300000000130000001300
#01712:24000013
#0171a:24
#02515:0013000000001600
#02518:00130000
#02512:13000000001300000000130000001300
#0251b:13
#03918:13
#0391b:0013000000000000
#03915:1300001300000000
#03912:0013000000000000
#06114:000000140014001400140014
#06118:001414241414
#06112:26
#06212:001600160016001600160000
#06218:241616261616
#03612:00000033000013000000000000000000
#0361b:0000000000130000
#03618:00330000003300000000000013001300
#03615:00000000000000000000000000130000
#0371b:1300000000130000
#03717:00000000001300000000000000000000
#03712:1300131300130000
#03718:0013000013000013
#03715:00000013
#04018:0000000000130013
#04015:00000013
#04012:0000000000130000
#0401b:0013
#04512:0013130000130013
#04515:00000013
#0451a:0000000000000014
#04517:00000013000000000000000000000000
#0451b:13
#0491b:0013
#04915:26
#0681a:1200001200000000
#0681c:0012
#06912:12
#06916:0012
#06914:0000001200001200
#07012:1200000012120000
#07018:00000012
#07016:0000000000000012
#0701a:00120000
#0701c:0012
#07718:12120000
#0771c:00001212
#07818:1200000000000012
#07816:00000012
#0781c:0000000012120000
#07814:00120000
#07812:0012
#0711c:12000000000000120000000000000000
#0711a:00000000120000000000000000000012
#07116:0000001212000000
#07114:0000000000000012
#07118:00000012
#07218:00000000000000120000000000000000
#07212:0000001212000000
#07214:12
#07216:00120000
#0931b:13131300
#09319:0000000000130000
#09317:00000013
#09315:0000000000000013
#09312:13
#0941b:13
#09412:1300001300000000
#09414:0013000000000018
#09416:0000130000140000
#09418:0000001300000000
#09415:00000016
#03314:0000000000120000
#03316:00000012
#0331a:0000000000000012
#03312:23
#0331b:23
#03418:1200001200001300
#03414:0012000000000000
#03416:00120000
#03415:0000000000130013
#0341b:0000000000130000
#08215:1316001613160000
#0821b:13001313
#08212:00130013
#08218:00130000
#08918:00130000
#08915:0000001300000000
#08912:2313
#0891b:23001313
#08916:0000000000130013
#01016:0000000000181800
#0101b:0013001300000000
#01018:00130000
#01012:13000000000000000000001400000000
#01015:0000001300000000
#0081b:0000000000130000
#00818:00000013
#00815:0000000000000013
#00912:2300001300000000
#00918:00000000001300000000000013000000
#00915:0000130000000013
#0091b:2300000000130000
#00910:41
#01118:0000131300000000
#01115:0000000000130000
#01112:00000013000000000000000013000000
#0111b:13000000000000000013000000001300
#01116:13
#01212:0000130000130000
#01218:1300000000001313
#01215:00001300000000000000000000130000
#0121b:0000001300000000
#01216:0000001300000000
#01317:0000000000130000
#0131a:00000013
#0131b:1300001300000013
#01312:1300000000133333
#01315:00130000
#0141b:1313000000000000
#0141a:00000000130000000000001400000000
#01417:0000001300000000
#01412:0033330000181800
#01416:13
#01515:13000013
#01512:0000131300130013
#0161a:001400000000000000000000
#01614:000013000000000000140000
#01618:00140000
#01612:000000001300001400000000
#01616:230000000014000000000014
#01619:000013
#0161b:000000000013
#01617:0023
#01818:1600000016130013
#01815:00130000000013000000000013000000
#01812:0013
#02115:0013000000001600
#02118:00160000
#02112:13000000001300000000130000001300
#0211b:13
#02110:41
#02215:00130000000000001600000013000000
#02218:1600000000130013
#02212:0000001300000000
#0411b:2300000000130000
#04119:00000013
#04117:0000131300000013
#04112:23000000001300000000000000000000
#04115:0013000013000000
#0421b:00000033000013000000000000000000
#04212:0000000000130000
#04215:00330000003300000000000013001300
#04218:00000000000000000000000000130000
#04312:1300000000160000
#04316:00000000001300000000000000000000
#0431b:1300131300130000
#04318:00000013
#04315:0013000013000013
#04412:1300001600130000
#04415:0013000000001300
#04418:1600130000000013
#0441b:0000001300000000
#0481a:14
#04819:001500000000
#04818:001600
#04817:0017
#04812:001400150016001700000000
#05017:0000001300000000
#0501b:13
#05012:0000000013130000
#05016:0000000000000013
#0531b:13
#05416:0000001300000000
#05412:13
#0541b:0000000013130000
#05417:0000000000000013
#05118:0000000000000013
#05112:24
#05113:002400000000
#05114:002400
#05115:0024
#05116:000024
#05515:0000000000000013
#0551a:24
#05519:002400000000
#05518:002400
#05517:0024
#05516:000024
#06518:1200001200000000
#06516:00000012
#07418:00001212
#07416:0000000000000012
#07412:0000000012120000
#0741c:12
#0741a:00120000
#07414:00120000
#0751c:12
#07514:0000001200000000
#07512:0000000000000012
#07516:0012
#07614:12
#07612:0012
#07616:00120000
#07316:1200001200000000
#07318:00000012
#07310:41
#07912:12000000000000120000000000000000
#07914:00000000120000000000000000000012
#07918:0000001212000000
#0791a:0000000000000012
#07916:00000012
#08016:00000000000000120000000000000000
#0801c:0000001212000000
#0801a:12
#08018:00120000
#08318:00130000
#08315:1600001300000000
#0831b:0013
#08312:00001313
#08317:0000000000000013
#08812:1400001300000000
#08814:0013
#08816:0000000000130000
#09115:00130000
#09118:0000001300000000
#0911b:1313
#09112:13001313
#09117:0000000000130013
#09215:0016001600160000
#0921b:13001313
#09212:00130013
#0571b:001300000000000000000013
#05716:001300000013
#05719:00130013
#05712:291313
#05717:000000000013001300000000
#05715:0013
#05710:41
#05817:001300000000001300000000
#05812:291300131300
#0581b:000000130013000000130000
#05816:000013000013
#02012:1616
#02018:00130000000013000000000013000000
#02015:0000000000130013
#0201b:0013
#02418:00130000000000000000000013000000
#02415:0000000016130013
#02412:16
#0241b:0000001300000000
#05912:001300000000000000000013
#05917:001300000013
#05914:00130013
#0591b:001313
#05916:000000000013001300000000
#05918:0013
#05915:29
#06016:001300000000001300000000
#0601b:001300131300
#06012:000000130013000000130000
#06017:000013000013
#06015:29
#10519:1200001200000012
#10515:0000121200001200
#1051c:0000000000120000
#10612:12
#10619:0012000000000000
#10615:0000121200000000
#1061c:0000001200000000
#10713:12
#10715:0012000000000000
#10717:00120000
#10719:0000001200120012
#10712:0000000000000012
#10814:12
#10818:0012000000000000
#10816:00120000
#1081a:0000001200000000
#1081b:0000000000120000
#10819:00000012
#10817:0000000000000012
#10915:12
#10912:0000120000120000
#10916:00000012
#1091a:0000000000000012
#1091c:12
#10919:00120000
#11016:12120000
#11012:0012000000000000
#1101c:0000121200000000
#11113:1200000000121200
#11115:0012000000000000
#11117:00120000
#11119:0000001200000000
#11118:00000012
#1121b:12
#11216:1200001200120000
#11218:00120012
#11214:0012
#1121a:0000000000000012
#11312:12
#11318:12
#1131a:0000121200000000
#11314:0000001200000000
#1131c:0000000000121200
#11316:0000000000001212
#11414:12
#11418:0012120000000000
#11412:00120000
#1141a:12
#1141c:0000001200000000
#11416:0000001200000000
#11512:1212000000000000
#11517:1212000000000000
#1151a:0000001212121200
#11513:0000000000000012
#11515:00001212
#11616:12
#11619:0012000000000000
#1161c:00120000
#11612:0000001200000000
#11618:0000001200000000
#11613:0000000000120000
#11617:00000012
#1161b:0000000000000012
#11712:1200000000120000
#11718:0000121200001200
#11716:0000000000000012
#11715:0000001200000000
#1171a:0000000000120000
#1181c:12
#11814:0012000000000000
#1181a:0000121200000000
#11812:0000001200000000
#11818:0012
#11816:12000012
#11813:0000000000120000
#11819:0000000000000012
#1191c:12
#03012:00130000000000000000130000000000
#03018:16000013
#03015:0000000016000013
#0301b:0000000000130000
#02915:0013000000001600
#02918:00160000
#02912:13000000001300000000000000001300
#0291b:13
#03815:00001300001300000000000000000000
#03818:00130000130000000000000000000000
#0381b:0000001300000000
#03812:13
#08415:0016131600160000
#08412:13001313
#0841b:00130013
#08418:1313
#12018:0000000000120000
#03215:00001613
#03218:0000000000000013
#0321b:00130000000000000000130000000000
#03212:1600000000130000
#03115:00000016
#03112:13160000
#0311b:13000000001300000000000000001300
#03118:0013000000000000
#02315:00000016
#02312:13160000
#0231b:13000000001300000000130000001300
#02318:0013000000000000
#0281b:0000000000130000
#02815:00001613
#02818:00130000000013000000000000001300
#02812:1300000000130000
#02715:00130016
#02718:0013000000000000
#0271b:13000000001300000000130000001300
#02712:13
#09015:0016001600160000
#09012:13001313
#0901b:00130013
#0951b:23
#09512:23
#09518:0023
#09515:0023
#0961b:23
#09612:23
#0521a:24
#05219:002400000000
#05218:002400
#05217:0024
#05216:000024
#05612:24
#05613:002400000000
#05614:002400
#05615:0024
#05616:000024
#06312:002c2c2c
#06412:2c2c0000
#09715:2300002300000000
#09718:23000023
#09712:00230000
#0971f:21
#09812:00260000
#09815:0026
#09818:00000026
#09810:0041
#09918:2300002300000000
#09915:23
#0991b:00230000
#09916:0000000000000023
#10012:232400
#10017:23
#1001a:00242400
#10016:000000000024000000000000
#10118:2300002300000000
#10115:23000023
#1011b:00230000
#10218:00260000
#10215:0026
#10212:00000026
#10315:2300002300000000
#10318:23
#10312:00230000
#10317:0000000000000023
#1041b:23
#10416:230000000024000000000000
#10412:00242400
#1041a:002400
#12112:00360000000000000000000000000000
#01758:00000016
#02555:00000016
#04658:00000053
#0465b:0000000000000053
#00357:53
#00355:0000005300000000
#0035b:00000023000000000000000000000000
#00352:00000000000000000023000000000000
#03952:0023000000000000
#03955:53
#03958:53
#0395b:0023000000000000
#08152:0053
#08758:53
#0875b:0023000000000000
#09655:0013
#09658:0013
#0965b:53
#09652:53
#08655:0000000000530000
#08652:00000023
#08952:0053
#08956:0000000000230000
#02655:0016
#0055b:0000000000530000
#00657:23
#00656:0000000000484800
#00852:0033
#01056:0000000000484800
#01156:63
#01158:0000006300000000
#0115b:00000000000000000023000000000000
#01152:00000023000000000000000000000000
#01452:0000000000383800
#01456:23
#01352:0000000000630000
#01858:0016
#02155:00000016
#00152:13
#0405a:0034000000000000
#04052:00440000
#04352:0000000000160000
#04458:16
#04452:0000001600000000
#0095b:13
#0485a:14
#04859:001500000000
#04858:001600
#04857:0017
#04955:16
#06452:001c
#07758:12
#0775c:0012
#07858:12
#0835b:0063
#08856:0000000000130000
#0885b:0000000000130000
#0915b:0063
#09157:0000000000230000
#1005a:0044
#10452:0034
#04755:0000006300000000
#04752:0063
#05856:000000000013
#05852:39
#01952:00000016
#02052:0016
#02255:0016
#06152:16
#06158:0014
#06258:1416
#06057:000000000013
#06055:49
#05752:39
#05955:49
#06952:12
#06956:0012
#07052:12
#08252:00000013
#09252:00000013
#02955:00000016
#03055:0016
#0845b:00000013
#1065c:0000001200000000
#12058:0000000000520000
#03155:00000016
#03255:0016
#02355:00000016
#02455:0016
#1085a:0000001200000000
#02755:00000016
#02855:0016
#0905b:00000013
#11652:0000001200000000
#003370:13
#0033b0:00000053000000000000000000000000
#003380:0000002300000000
#003351:0000001300000000
#003321:00000000000000000053000000000000
#003361:00000023
#0053b1:0000001300333333
#006371:33
#0063b1:0033332300000000
#0083b1:13
#0083a1:002300000000000000000000
#008370:001300000000000000000000
#008360:002300000000
#008391:001300000000
#008381:00230000
#008350:00130000
#008340:002300
#008371:001300
#008361:000000000023000000000000
#008330:000000000013000000000000
#008320:0023
#011360:13
#011320:00000053000000000000000000000000
#011350:0000002300000000
#011381:0000001300000000
#0113b1:00000000000000000053000000000000
#011371:00000023
#013321:0000001300333333
#014361:33
#014321:0033332300000000
#015391:14
#0153a1:0054005400540054005400540054005400540054005400540054005400540054
#015381:00545454545454545454545454545454
#016391:24
#017381:0000001600260000
#018381:0016002600000000
#019321:0000001600260000
#020321:0016002600000000
#021351:0000001600260000
#022381:0016002600000000
#023351:0000001600260000
#024321:0016002600000000
#025351:0000001600260000
#026381:0016002600000000
#027351:0000001600260000
#028321:0016002600000000
#029351:0000001600260000
#030351:0016002600000000
#031351:0000001600260000
#032351:0016002600000000
#0333a1:0000001200220000
#036381:13330000000000000000000000000000
#0363b1:0023000000000000
#036320:00001333000000000000000000000000
#036350:00230000
#036381:00000000133300000000000000000000
#0363b1:0000002300000000
#0383b1:0000000000132300
#038381:00000000000000000000005300000000
#038320:0000000000132300
#038350:00000000000000000000005300000000
#039350:13230000
#039320:0053000000000000
#039381:1300332300000000
#0393b1:0053000000000000
#0393a1:0000000000140000
#040321:34240000
#039320:0000000000140000
#0403a0:3424000000000000
#042351:13330000000000000000000000000000
#042321:0023000000000000
#0423b0:00001333000000000000000000000000
#042380:00230000
#042351:00000000133300000000000000000000
#042321:0000002300000000
#045381:0000001300230000
#046381:00000013
#0463b1:0000000000000033
#047381:23
#047351:0000001300230000
#047321:0033
#048351:000016
#049351:26
#049371:0013
#049321:0000000000530000
#050321:0000002300000000
#050371:0013
#0503b1:0000000000530000
#0513b1:000023
#052361:13
#052321:000000530000000000000000000000002300000000000000
#053371:13
#053321:0053000023000000
#053360:0013
#0533b0:0000000000530000
#0543b0:0000002300000000
#054360:0013
#054320:0000000000530000
#055320:000023
#056370:13
#0563b0:000000530000000000000000000000002300000000000000
#064320:001c2c00
#065320:1222
#065350:0052005200000000
#065381:0012
#0653b1:0000000000520052
#066381:22
#067321:0000000012000032
#068341:3200003200000000
#068361:0022
#069381:1200005200000000
#0693c1:0000000032000052
#070381:22
#0733c1:1222
#073391:0052005200000000
#073360:0012
#073330:0000000000520052
#074360:22
#0753c0:0000000012000032
#076390:32322200
#077320:1200005200000000
#077360:0000000032000052
#078320:22
#081320:0013
#081360:00000023
#0833b0:0013
#083370:00000023
#085370:00130000
#0853b0:0000005300002300
#086350:0000000000130023
#086320:00000053
#087380:13230000
#0873b0:0053000000000000
#088370:0000001300000000
#0883b0:0000000053230000
#089320:00001323
#089360:0000000000530000
#0903b0:1323000000000000
#090320:0000132300000000
#0903b0:0000000013230000
#0913b0:00001323
#091370:0000000000530000
#092320:1323000000000000
#0923b0:0000132300000000
#092320:0000000013230000
#093360:00130000
#093320:0000005300002300
#0953b0:13
#095380:0053002300000000
#095321:13
#095351:0053002300000000
#095381:0013
#0953b1:0000000000530023
#095350:0013
#095320:0000000000530023
#096320:13
#096350:00532300
#0963b1:13
#096381:00532300
#097381:13
#0973b1:0000000000230000
#097350:0000001300000000
#098320:23
#097381:00000013
#0983b1:00230000
#099351:13
#099321:00000023
#099380:0000001300000000
#0993b0:0000000000000023
#101350:13
#101320:0000000000230000
#101381:0000001300000000
#1023b1:23
#101350:00000013
#102320:00230000
#103380:13
#1033b0:00000023
#103351:0000001300000000
#103321:0000000000000023
#107351:0000001200220000
#109391:0000001200220000
#119321:12
#119351:0052220000000000
#119380:0000122200000000
#119351:0000001200000000
#119321:0000000052220000
#1193a0:0000000000122200
#119361:0000000000001222
#1193c0:0000000000000012
#1203c0:22
#120321:1222000000000000
#1203a0:0012220000000000
#120361:0000122200000000
#120380:0000001222000000
#120321:0000000012220000
#120380:0000000000120000
#1213c0:22
#121321:16360000000000000000000000000000
#121351:0036000000000000
#1243c1:0022
