This file was generated by Ched 2.6.4.0.
#TITLE ""
#ARTIST ""
#DESIGNER ""
#DIFFICULTY 0
#PLAYLEVEL
#SONGID ""
#WAVE ""
#WAVEOFFSET 0
#JACKET ""
#REQUEST "ticks_per_beat 480"
#00002: 4
#BPM01: 222
#00008: 01
#TIL00: ""
#HISPEED 00
#MEASUREHS 00
#0021a:14
#00512:14
#00518:0014
#00612:14
#02114:0014
#0211a:14
#02110:41
#06018:14
#06012:0014
#06218:14
#06214:0014
#01712:14
#01718:0014
#03812:14
#05814:0014
#0581a:14
#0011a:14
#00114:0014
#0181a:0014
#01814:14
#03718:0014
#03712:14
#04918:14
#05012:14
#05314:14
#0541a:14
#05912:0014
#05918:14
#05714:0014
#0571a:24
#05710:41
#0651a:14
#06612:14
#06718:14
#07112:14
#07218:14
#02218:14
#02212:0014
#01912:14
#02914:0014
#02918:14
#02518:0014
#02514:14
#0261a:0014
#02612:14
#02714:14
#03118:14
#0351a:14
#03514:0014
#03510:41
#03012:0014
#0301a:14
#0361a:14
#0461a:14
#04514:0014
#0451a:14
#04312:14
#04318:0014
#04412:14
#0411a:14
#04114:0014
#0421a:14
#0611a:14
#06112:0014
#06814:14
#07312:14
#07310:41
#0741a:14
#07514:14
#0791a:14
#08014:14
#07618:14
#0821a:14
#08412:14
#0231a:14
#1051a:14
#1061a:14
#10714:14
#10814:14
#10918:14
#11112:14
#11018:14
#11212:14
#11512:1400003400000000
#1131a:1400003400000000
#11914:1400003400000000
#11718:14
#1171a:0000003400000000
#08614:14
#08114:0014
#0811f:11
#0811a:24
#08312:14
#08318:0014
#08812:14
#0851a:14
#0871a:14
#09412:14
#0951a:14
#09512:0014
#09618:14
#09614:0014
#09018:14
#09214:14
#08912:0014
#08918:24
#09114:14
#0911a:0014
#09318:14
#0151a:14
#01312:14
#01118:14
#00914:14
#00910:41
#03313:24
#03319:24
#06415:0026
#0971f:21
#09810:0041
#03158:54
#1005a:0014
#10452:0014
#01952:54
#0235a:64
#02754:64
#11552:54
#1135a:64
#11954:64
#11758:54
#06455:0016
#0155a:64
#01352:54
#01158:54
#00954:64
#003340:14
#004320:24
#007380:14
#0083a0:24
#009340:14
#010320:3424
#011380:14
#0123a0:3424
#013320:14
#014340:3424
#0153a0:14
#016380:3424
#019320:14
#020340:24
#0233a0:14
#024380:24
#027340:14
#028320:24
#031380:14
#0323a0:24
#0393a0:14
#0403a0:24
#039341:14
#040341:24
#047321:14
#048321:24
#047380:14
#048380:24
#051380:14
#0523a0:24
#055340:14
#056320:24
#063350:16363636
#064350:36362600
#069380:14
#0693a0:0034
#070380:24
#077340:14
#077320:0034
#078340:24
#0973a0:14
#097390:0034
#098380:34
#0983a0:0034
#099380:34
#099390:0034
#1003a0:3424
#101320:14
#101330:0034
#102340:34
#102320:0034
#103340:34
#103330:0034
#104320:3424
#1133a0:1400003400000000
#113380:00000034
#114380:00342400
#115320:1400003400000000
#115340:00000034
#116340:00342400
#117380:14
#1173a0:0000003400003400
#1183a0:00342400
#119340:1400003400000000
#119320:00000034
#120320:00342400
#121380:14
#1243a0:0024
