This file was generated by Ched 2.7.0.0.
#TITLE ""
#ARTIST ""
#DESIGNER ""
#DIFFICULTY 0
#PLAYLEVEL
#SONGID ""
#WAVE ""
#WAVEOFFSET 0
#JACKET ""
#REQUEST "ticks_per_beat 480"
#00002: 4
#BPM01: 171
#00008: 01
#TIL00: ""
#VOLUME: ""
#HISPEED 00
#MEASUREHS 00
#00612:1300000000120000
#00616:0000000000000012
#0061b:13
#00618:00000012
#0061a:0000000000120000
#00812:0000130000130000
#0081b:0000130000130013
#00818:5300001313000000
#00815:53000000000000130000130000000000
#00915:0013001300000000
#00912:0013000000000000
#00918:0013001300000013
#0091b:0000001300000013
#01015:1300000013000013
#0101b:0000131300130013
#01018:13000000000000130000130000000000
#01112:0013130000000000
#01118:0013000000000000
#01115:00130000
#0121b:0013000000130013
#01218:0000000000000000130000000000000000000000000000530000000000000000
#01215:0000001300000000
#01212:0013000000000000
#01210:0041
#0121a:0000000000000000000000000000000000000000005300000000000000000000
#01219:00000000000000000000005300000000
#01217:00000053
#01312:1300001300000013
#01315:0013000000130000
#01318:00130013
#0131b:0000001300130013
#01612:13
#01615:00130000
#01618:0000000013000000000000001300000000000000000000530000000000000000
#0161b:1300130013130013
#0161a:0000000000000000000000000000000000000000005300000000000000000000
#01619:00000000000000000000005300000000
#01617:00000053
#01515:0000000000000013
#0151b:0013000000000000
#01517:0013000000000000
#01519:0000001300000000
#01514:0000001300000000
#01518:0000000000000013
#01715:0013001300000013
#01712:0000001300130013
#0171b:0000001300130013
#01718:0000130000130000
#0181b:0000001300001300
#01818:00000013
#01815:0000000000000013
#01812:0000001300000013
#01915:0013000013000000
#01912:0000001300130000
#0191b:0013000000000000
#01918:0000001300130000
#0201b:13130013
#02015:00130000
#02014:0000000000120012
#02018:0013000013000000
#02012:00002222
#02010:0041
#0261c:0000001212000000
#02612:12
#0271b:0000120000000013
#02712:0012000000001300
#02713:00120000
#0271c:0012000000000000
#02714:0000001200000000
#0271a:0000001200000000
#02718:00002313
#02715:0000000023000013
#0291b:0000001313000000
#02916:0000000000000013
#02912:1300001300000000
#02918:13
#0301b:0000001313001300
#03016:13
#03017:0000000000001313
#03013:0000000000000013
#03112:00001313
#03115:0000000000130013
#0311b:0000130000130013
#03117:13
#03113:0013000000000000
#03118:00001313
#03110:0041
#03212:13131300
#03215:0000001300001300
#03218:13131300
#0321b:0000001300001300
#0331b:0000000000000013
#03315:13
#03318:00130000
#03312:0013
#0341b:13
#03412:0000001300000000
#03414:0000000000130000
#03416:0000000000000013
#03415:0000001300000000
#03417:0000000000130000
#03419:0000000000000013
#03512:00131313
#03518:0013001300001300
#0351b:0013000013000013
#03515:0000001300000000
#0361b:0013002300000000
#03612:13130000
#03618:13
#03615:0000002300000000
#03718:1300001300000013
#03715:1300001300000000
#0371b:13131313
#03712:1300130013001313
#03815:0013000000130013
#03818:0013001300001300
#0381b:13131300
#03812:0000001300000000
#03912:1323000013000000
#0391b:13230000
#03915:0013000000000000
#03918:00130000
#04012:0000130000130000
#04015:0000001300000013
#0401b:0000000000130000
#04018:0000000013000013
#0431b:1300001300000000
#04312:0000001300000000
#04318:13
#04319:0023
#04310:0041
#04718:00000013
#04715:0000000000000013
#0481b:1300001300230000
#04812:1300001300232c00
#04818:0013
#04815:0013
#0501b:0013130000000000
#05018:0023230013001212
#05015:0013130023000000
#05012:0013
#05016:0000000000001212
#05116:12
#05112:0000000000130000
#05115:00000013
#05118:2200000000000013
#0531b:0013000000000000
#05312:13131313
#05315:0013001300130000
#05512:0013000000001300
#05515:0000000000130000
#05518:0000000013000013
#0551b:13130023
#05510:0041
#05615:1300001300001300
#05612:0013000013000013
#05618:0000000000130000
#0561b:23232323
#06212:00000013
#06218:00000013
#0621b:005200520052005200520052000000000000000000130000
#0621a:525252525252620000000000
#06312:13
#06315:0000001300000000
#06318:13
#0631b:0000001300000000
#06313:000000000000000000525252
#06314:000000000000000000000000000000000000005200520052
#06412:0013
#0641b:0013
#06413:525252620000000000000000
#06414:005200520052000000000000000000000000000000000000
#06418:00000063
#06612:6300005300001300
#0661b:53
#06618:00636353
#06615:00000053
#0671b:13000013
#06718:00130000
#06715:0013
#06712:00000013
#09118:0000000000121200
#0911b:0000000000120000
#09216:1212000000001200
#09218:0000001200000000
#0921b:0000001212000000
#09213:1200000000001212
#0001c:1212120000120000
#00018:0000000000000012
#00016:0000000000120000
#00012:0000000000000012
#00019:0000000000120000
#00015:0000000000000012
#00116:0000001200000000
#00112:0000001200001200
#00118:00000012
#00115:00000012
#0021c:1212120000120000
#00218:0000000000000012
#00216:0000000000120000
#00212:0000000000000012
#00219:0000000000120000
#00215:0000000000000012
#00316:0000001200000000
#00312:0000001200130000
#00315:00000013
#00318:0000000000000013
#0051b:0000000000130000
#00518:00000013
#00515:0000000000000013
#00512:0032000000000000
#00718:1200000053000013
#00712:0012000000005300
#0071a:0012000000000000
#00716:0000001300000000
#00719:0000001300000000
#00717:0000000000130000
#00714:0000000000130000
#00715:0000000000005313
#0071b:0053
#00415:12
#00419:12
#01412:0013000000130013
#01415:0000000000000000130000000000000000000000000000530000000000000000
#01418:0000001300000000
#0141b:0013000000000000
#01413:0000000000000000000000000000000000000000005300000000000000000000
#01414:00000000000000000000005300000000
#01416:00000053
#02114:0012001200000000
#02118:1300000000120000
#0211c:0000000000000012
#02112:22220000
#02116:0022
#0211a:00000022
#02512:0000220000000012
#02514:0012001200000000
#0251c:0012
#0251b:13
#02518:00130000
#02516:2222
#0221c:0012001200120000
#02218:0000000000000012
#02212:00130000
#02215:1313
#0221a:22222222
#02314:0012001200120000
#02318:0000000000000012
#02316:22002222
#02312:00220000
#02418:0012001200000012
#0241c:0000000000120000
#02412:00000013
#02416:22
#0241a:00222222
#0281b:0000000013000013
#02815:0000001313000013
#02818:0000001300000013
#02812:0013001300000000
#04112:1300000000000013
#04115:00130000
#0411b:1313
#04212:1313
#04215:1313
#04218:00130000
#0421b:00130000
#0441b:0000000000000013
#04412:0000000000000013
#04515:0000001313131300
#04518:0000001313131300
#04512:13
#0451b:23
#04612:0000001212000000
#04615:0000001212000000
#04619:0000001212000000
#0461c:0000001212000000
#0871b:0000000013000013
#08718:0000000000130000
#08712:0000000000000013
#08715:00000013
#08818:0013000013000000
#0881b:00130000
#08812:00130013
#08815:0013000000000000
#0891b:0013130000001300
#08918:00130013
#08915:0013
#08912:0013
#09015:00130000
#09012:00130000
#09018:00000013
#0901b:00000013
#0491a:00140000
#04919:000000000000000000000000000000000000000000000000000000000000000000000000000000000000000000000000000000000000000000000000000000000000000000000000000000000000000000000000000000000000000000000000000000000000000000000000000000000000000000000000000000000000000000000000000000000000000000000000000000000000000000000000000000000000000000000000000000000000000000000000000000000000000000000000000000000000000000000000000000000000000000000000000000000000000000000000000000000000000000000000000000000000000000000000000000000000000000000000000000000000000000000000000000000000000000000000000000000000000000000000000000000000000000000000000000000000000000000000000000000000000000000000000000000000000000000000000000000000000000000000000000000000000000000000000000000000000000000000000000000000000000000000000000000000000000000000000000000000000000000000000000000000000000000000000000000000000000000000000000000000000000000000000000000000000000000000000000000000000000000000001400000000000000000000000000000000000000000000000000000000000000000000000000000000000000000000000000000000000000000000000000000000000000000000000000000000000000000000000000000000000000000000000000000000000000000000000000000000000000000000000000000000000000000000000000000000000000000000000000000000000000000000000000000000000000000000000000000000000000000000000000000000000000000000000000000000000000000000000000000000000000000000000000000000000000000000000000000000000000000000000000000000000000000000000000000000000000000000000000000000000000000000000000000000000000000000000000000000000000000000000000000000000000000000000000000000000000000000000000000000000000000000000000000000000000000000000000000000000000000000000000000000000000000000000000000000000000000000000000000000000000000000000000000000000000000000000000000000000000000000000000000000000000000000000000000000000000000000000000000000000000000000000000000000000000000000000000000000000000000000
#04915:000000000000000000000000000000000000000000000000000000000000000000000000000000000000000000000000000000000000000000000000000000000000000000000000000000000000000000000000000000000000000000000000000000000000000000000000000000000000000000000000000000000000000000000000000000000000000000000000000000000000000000000000000000000000000000000000000000000000000000000000000000000000000000000000000000000000000000000000000000000000000000000000000000000000000000000000000000000000000000000000000000000000000000000000000000000000000000000000000000000000000000000000000000000000000000000000000000000000000000000000000000000000000000000000000000000000000000000000000000000000000000000000000000000000000000000000000000000000000000000000000000000000000000000000000000000000000000000000000000000000000000000000000000000000000000000000000000000000000000000000000000000000000000000000000000000000000000000000000000000000000000000000000000000000000000000000000000000000000000000000001400000000000000000000000000000000000000000000000000000000000000000000000000000000000000000000000000000000000000000000000000000000000000000000000000000000000000000000000000000000000000000000000000000000000000000000000000000000000000000000000000000000000000000000000000000000000000000000000000000000000000000000000000000000000000000000000000000000000000000000000000000000000000000000000000000000000000000000000000000000000000000000000000000000000000000000000000000000000000000000000000000000000000000000000000000000000000000000000000000000000000000000000000000000000000000000000000000000000000000000000000000000000000000000000000000000000000000000000000000000000000000000000000000000000000000000000000000000000000000000000000000000000000000000000000000000000000000000000000000000000000000000000000000000000000000000000000000000000000000000000000000000000000000000000000000000000000000000000000000000000000000000000000000000000000000000000000000000000000000000
#04912:005b
#05218:0013
#05212:00000013
#05215:0000000000000013
#0541b:13
#05418:0013000000000000
#05415:00130013
#05718:0013000013000013
#0571b:2300130000130000
#05715:1300001300000000
#05712:00232323
#0581b:1300001300002300
#05815:0013000000130000
#05818:0000130013000013
#05812:23232313
#05915:1300001300001300
#05912:0013000013000013
#05918:0000000000130000
#0591b:23232323
#06018:0013000013000013
#0601b:2300130000130000
#06015:1300001300000000
#06012:00232323
#0611b:130000000000000000000000130000000000000000520052
#06117:00130000
#06119:0013001300000000
#0611f:0011
#06112:2323232323000000
#0611a:000000000000000000000052
#07512:0013000000001300
#0751b:1300001300130000
#07518:0013000000131300
#07515:1300000000130000
#07510:00000041
#07612:0013000000131300
#07618:0013000000000000
#0761b:0000130000130000
#07615:0013130000000000
#07717:0013130000000000
#07712:0000000000131300
#0781b:00000013
#07818:0000000000000013
#07812:1300000013000013
#07816:1313130000000000
#0781a:0013001300000000
#07815:00000013
#07918:0013000000130000
#0791b:13131313
#07915:13131313
#07912:0013000000130000
#08112:0013130000000000
#0811b:0000000000130000
#08119:0000000000000013
#08118:0000000000130000
#08116:0000000000000013
#08217:0013000000000000
#0821b:00001313
#08215:0000001300130000
#08212:0000001300001300
#08214:0013000000000000
#08218:0000000000130000
#08315:13130000
#08312:0013001300230000
#0831b:13131300
#08318:0000000000230000
#08418:0000130000130000
#08412:00131313
#0841b:00131313
#08415:0000130000130000
#0851b:1313000000130000
#08518:0000001300000013
#08512:13131313
#08515:0013001300130000
#08615:1313
#08618:0013001300000000
#0861b:0000132300001300
#08612:00132300
#0741c:0000001200000000
#0741b:0012
#07412:0000001200000000
#0741a:0000000000120000
#07413:0012
#07414:0000000000120000
#07415:00000023
#07418:00000023
#0741f:00000021
#08012:13
#08018:13130000
#08015:0013
#0801b:00000013
#06812:000000000000005c
#06912:5c00005c005c0000
#07012:005c005c00005959
#0701c:000000000000000000000000000000000000000000000000000000000000000000000000000000000000000000000000000000000000000000000000000000000000000000000000000000000000000000000000000000000000000000000000000000000000000000000000000000000000000000000000000000000000000000000000000000000000000000000000000000000000000000000000000000000000000000000000000000000000000000000000000000000000000000000000000000000000000000000000000000000000000000000000000000000000000000000000000000000000000000000000000000000000000000000000000000000000000000000000000000000000000000000000000000000000000000000000000000000000000000000000000000000000000000000000000000000000000000000000000000000000000000000000000000000000000000000000000000000000000000000072000000000000000000000000000000000000000000000000000000000000000000000000000000000000000000000000000000000000000000000000000000000000000000000000000000000000000000000000000000000000000000000000000000000000000000000000000000000000000000000000000000000000000000000000000000000000000000000000000000000000000000000000000000000000000000000000000000000000000000000000000000000000000000000000000000000000000000000000000000000000000000000000000000000000000000000000000000000000000000000000000000000000000000000000000000000000000000000000000000000000000000000000000000000000000000000000000000000000000000000000000000000000000000000000000000000000000000000000000000000000000000000000000000000000000000000000000000000000000000000000000000000000000000000000000000000000000000000000000000000000000000000000000000000000000000000000000000000000000000000000000000000000000000000000000000000000000000000000000000000000000000000000000000000000000000000000000000000000000000000000000000000000000000000000000000000000000000000000000000000000000000000000000000000000000000000000000000000000000000000000000000000000000000000000000000000000000000000000000000000000000000000000000000000000000000000000000000000000000000000000
#07112:5900005900590000
#07119:000000000000000000000000000000000000000000000000000000000000000000000000000000000000000000000000000000000000000000000000000000000000000000000000000000000000000000000000000000000000000000000000000000000000000000000000000000000000000000000000000000000000000000000000000000000000000000000000000000000000000000000000000000000000000000000000000000000000000000000000000000000000000000000000000000000000000000000000000000000000000000000000000000000000000000000000000000000000000000000000000000000000000000000000000000000000000000000000000000000000000000000000000000000000000000000000000000000000000000000000000000000000000000000000000000000000000000000000000000000000000000000000000000000000000000000000000000000000000000000000000000000000000000000000000000000000000000000000000000000000000000000000000000000000000000000000000000000000000000000000000000000000000000000000000000000000000000000000000000000000000000000000000000000000000000000000000000000000000000000000000000000000000000000000000000000000000000000000000000000000000000000000000000000000000000000000000000000000000000000000000000000000000000000000000000000000000000000000000000000000000000000000000000000000000000000000000000000000000000000072000000000000000000000000000000000000000000000000000000000000000000000000000000000000000000000000000000000000000000000000000000000000000000000000000000000000000000000000000000000000000000000000000000000000000000000000000000000000000000000000000000000000000000000000000000000000000000000000000000000000000000000000000000000000000000000000000000000000000000000000000000000000000000000000000000000000000000000000000000000000000000000000000000000000000000000000000000000000000000000000000000000000000000000000000000000000000000000000000000000000000000000000000000000000000000000000000000000000000000000000000000000000000000000000000000000000000000000000000000000000000000000000000000000000000000000000000000000000000000000000
#07212:0055005500005252
#07215:000000000000000000000072000000000000000000000000000000000000
#07312:5200005200520000
#06515:0000630000530000
#06518:63530000
#0651b:00006363
#0065b:13
#00652:13
#00858:13
#00855:1300000000530000
#00852:0000000000530000
#0085b:0000000000000013
#00952:0013000000000000
#0095b:0000001300000000
#01055:53
#01152:00130000
#0155b:0053000000000000
#01557:0053000000000000
#01559:0000002300000000
#01554:0000002300000000
#01755:0000001300000013
#01758:0000000000130000
#0205b:00130000
#02055:00130000
#0255c:0052
#02652:52
#02656:0012
#0265c:0012
#02758:0013
#02755:0013
#0275b:0000000000000053
#0285b:0053
#02855:0053
#02858:0013000000000000
#02952:63
#02958:63
#0295b:0053
#03056:53
#03052:0013
#0305b:00001353
#03057:0000000000005323
#03053:0000000000000023
#03157:53
#03153:0023000000000000
#03258:1313
#03252:1313
#0325b:00000053
#03355:53
#03358:00530000
#03352:0053
#0345b:13
#03458:13
#03752:0000000000000013
#03855:0013000000000000
#03852:0000001300000000
#03952:0053
#04058:13
#04052:0000000000130000
#0405b:1300000000130000
#0415b:5353
#04155:00530000
#04255:5353
#04252:5353
#0425b:00230000
#04258:00230000
#04358:63
#0435b:63
#04555:0000005363535300
#04558:0000006353635300
#04552:63
#0455b:53
#0465c:0052
#04659:0052
#04655:0052
#04652:0052
#08752:0000130000000013
#0875b:0000000000000013
#08755:00130000
#08858:0063
#08852:00630063
#0895b:00630063
#08958:00630063
#08955:0023
#08952:0023
#09055:00530000
#09052:00530000
#09058:00000063
#0905b:00000063
#09253:0000000000000012
#0485b:53
#04852:5300001c
#05156:52
#05158:52
#05258:0053
#0535b:0023000000000000
#05552:0023000000000000
#05455:00000053
#06152:0013
#0615b:0013
#06352:13
#0635b:0000001300000000
#06752:00000013
#0675b:00000013
#04959:000000000000000000000000000000000000000000000000000000000000000000000000000000000000000000000000000000000000000000000000000000000000000000000000000000000000000000000000000000000000000000000000000000000000000000000000000000000000000000000000000000000000000000000000000000000000000000000000000000000000000000000000000000000000000000000000000000000000000000000000000000000000000000000000000000000000000000000000000000000000000000000000000000000000000000000000000000000000000000000000000000000000000000000000000000000000000000000000000000000000000000000000000000000000000000000000000000000000000000000000000000000000000000000000000000000000000000000000000000000000000000000000000000000000000000000000000000000000000000000000000000000000000000000000000000000000000000000000000000000000000000000000000000000000000000000000000000000000000000000000000000000000000000000000000000000000000000000000000000000000000000000000000000000000000000000000000000000000000000000000002400000000000000000000000000000000000000000000000000000000000000000000000000000000000000000000000000000000000000000000000000000000000000000000000000000000000000000000000000000000000000000000000000000000000000000000000000000000000000000000000000000000000000000000000000000000000000000000000000000000000000000000000000000000000000000000000000000000000000000000000000000000000000000000000000000000000000000000000000000000000000000000000000000000000000000000000000000000000000000000000000000000000000000000000000000000000000000000000000000000000000000000000000000000000000000000000000000000000000000000000000000000000000000000000000000000000000000000000000000000000000000000000000000000000000000000000000000000000000000000000000000000000000000000000000000000000000000000000000000000000000000000000000000000000000000000000000000000000000000000000000000000000000000000000000000000000000000000000000000000000000000000000000000000000000000000000000000000000000000000
#04955:000000000000000000000000000000000000000000000000000000000000000000000000000000000000000000000000000000000000000000000000000000000000000000000000000000000000000000000000000000000000000000000000000000000000000000000000000000000000000000000000000000000000000000000000000000000000000000000000000000000000000000000000000000000000000000000000000000000000000000000000000000000000000000000000000000000000000000000000000000000000000000000000000000000000000000000000000000000000000000000000000000000000000000000000000000000000000000000000000000000000000000000000000000000000000000000000000000000000000000000000000000000000000000000000000000000000000000000000000000000000000000000000000000000000000000000000000000000000000000000000000000000000000000000000000000000000000000000000000000000000000000000000000000000000000000000000000000000000000000000000000000000000000000000000000000000000000000000000000000000000000000000000000000000000000000000000000000000000000000000000002400000000000000000000000000000000000000000000000000000000000000000000000000000000000000000000000000000000000000000000000000000000000000000000000000000000000000000000000000000000000000000000000000000000000000000000000000000000000000000000000000000000000000000000000000000000000000000000000000000000000000000000000000000000000000000000000000000000000000000000000000000000000000000000000000000000000000000000000000000000000000000000000000000000000000000000000000000000000000000000000000000000000000000000000000000000000000000000000000000000000000000000000000000000000000000000000000000000000000000000000000000000000000000000000000000000000000000000000000000000000000000000000000000000000000000000000000000000000000000000000000000000000000000000000000000000000000000000000000000000000000000000000000000000000000000000000000000000000000000000000000000000000000000000000000000000000000000000000000000000000000000000000000000000000000000000000000000000000000000000
#07552:0063000000006300
#07558:00000063
#07555:0000001300000000
#0795b:00130013
#07955:00130013
#08152:00130000
#08155:00130000
#0765b:00530000
#07655:00530000
#07652:00000063
#07757:00630000
#07752:00000013
#0775b:00000013
#07852:63
#07856:6323630000000000
#0785a:0023002300000000
#08052:63
#08058:00630000
#08055:0063
#0805b:00000063
#0855b:0013000000130000
#08558:0000001300000000
#07455:00000013
#07458:00000013
#0865b:00000063
#09152:00130000
#09155:00130000
#0043c0:1200000000000032
#005320:0000002200000000
#004321:1200000000000032
#005321:0032000000000000
#0053c1:0000002200000000
#008351:0000000000130000
#008381:0000000000000023
#008320:0000000000130000
#008350:0000000000000023
#010350:13
#010320:00230000
#012320:00001323
#0143b0:00001323
#0153b0:0013000000000000
#015340:0000003300000000
#015360:0000000000230000
#015371:0013000000000000
#015391:0000003300000000
#015321:0000000000230000
#016321:00001323
#018351:00001323
#019351:00000013
#020351:23
#0253c1:0012
#026381:22
#026320:12
#026360:0022
#0273b0:0000000000000013
#028380:0023000000000000
#0283b0:0013
#028380:00000023
#028351:0013
#028321:00000023
#029321:13
#029351:00230000
#029380:13
#0293b0:00230000
#0293b0:0013
#029360:00000023
#029321:0013
#030321:0023
#030360:13
#0303b0:00230000
#0303b1:00000013
#030371:0000000000000053
#0313b1:23
#030370:00000013
#030330:0000000000000053
#031370:33230000
#031330:0053000000000000
#0323b0:00000013
#033380:23
#033351:13
#033321:00230000
#033380:00130000
#033350:0023
#033321:0013
#033381:0000000000000033
#034381:23
#036321:0000001300002300
#036350:0000001300002300
#036382:0000001300002300
#0363b3:0000001300002300
#039320:0013
#039380:0000000000530000
#040380:23
#0393b2:00000013
#0403b2:23
#0413b2:13
#041382:00230000
#041350:00130000
#041380:0023
#0413b2:0013
#041352:0000000000000033
#042352:3333
#0423b2:00530053
#0433b2:33
#043352:00230000
#042320:1333
#042380:00530053
#043380:33
#043320:00230000
#043370:0000000012000032
#044370:3232220000000000
#043392:0000000013000053
#044342:53230000
#044392:0053000000000000
#0453b2:13
#045352:0000003300330000
#045382:00003333
#046322:23
#045320:13
#045380:0000003300330000
#045350:00003333
#0463b0:23
#046320:0012
#046340:0000000000000032
#047340:0032220000000000
#046352:0012
#046362:0000000000000032
#047362:0032220000000000
#046393:0012
#046383:0000000000000032
#047383:0032220000000000
#0463c1:0012
#0463a1:0000000000000032
#0473a1:0032220000000000
#048322:13
#048352:00230000
#0483b3:13
#048383:00230000
#049363:000000000000000000000000000000000000000000000000000000000000000000000000000000000000000000000000000000000000000000000000000000000000000000000000000000000000000000000000000000000000000000000000000000000000000000000000000000000000000000000000000000000000000000000000000000000000000000000000000000000000000000000000000000000000000000000000000000000000000000000000000000000000000000000000000000000000000000000000000000000000000000000000000000000000000000000000000000000000000000000000140000000000000000000000000000000000000000000000000000000000000000000000000000000000000000000000000000000000000000000000000000000000000000000000000000000000000000000000000000000000000000000000000000000000000000000000000000000000000000000000000000000000000000000000000000000000000000000000000000000000000000000000000000000000000000000000000000000000000000000000000000000000000000000000000000000000000000000000000000000000000000000000000000000000000000000000000000000000000000000054000000000000000000000000000000000000000000000000000000000000000000000000000000000000000000000000000000000000000000000000000000000000000000000000000000000000000000000000000000000000000000000000000000000000000000000000000000000000000000000000000000000000000000000000000000000000000000000000000000000000000000000000000000000000000000000000000000000000000000000000000000000000000000000000000000000000000000000000000000000000000000000000000000000000000000000000000000000000000000000000000000000000000000000000000000000000000000000000000000000000000000000000000000000000000000000000000000000000000000000000000000000000000000000000000000000000000000000000000000000000000000000000000000000000000000000000000000000000000000000000240000000000000000000000000000000000000000000000000000000000000000000000000000000000000000000000000000000000000000000000000000000000000000000000000000000000000000000000000000000000000000000000000000000000000000000000000000000000000000000000
#049393:000000000000000000000000000000000000000000000000000000000000000000000000000000000000000000000000000000000000000000000000000000000000000000000000000000000000000000000000000000000000000000000000000000000000000000000000000000000000000000000000000000000000000000000000000000000000000000000000000000000000000000000000000000000000000000000000000000000000000000000000000000000000000000000000000000000000000000000000000000000000000000000000000000000000000000000000000000000000000000000000000000000000000000000000000000000000000000000000000000000000000000000000000000000000000000000000000000000000000000000000000000000000000000000000000000000000000000000000000000000000000000000000000000000000000000000000000000000000000000000000000000000000000000000000000000000000000000000000000000000000000000000000000000000000000000000000000000000000000000000000000000000000000000000000000000000000000000000000000000000000000000000000000000000000000000000000000000000000000000000000005400000000000000000000000000000000000000000000000000000000000000000000000000000000000000000000000000000000000000000000000000000000000000000000000000000000000000000000000000000000000000000000000000000000000000000000000000000000000000000000000000000000000000000000000000000000000000000000000000000000000000000000000000000000000000000000000000000000000000000000000000000000000000000000000000000000000000000000000000000000000000000000000000000000000000000000000000000000000000000000000000000000000000000000000000000000000000000000000000000000000000000000000000000000000000000000000000000000000000000000000000000000000000000000000000000000000000000000000000000000000000000000000000000000000000000000000000000000000000000000000000000000000000000000000000000000000000000000000000000000000000000000000000000000000000000000000000000000000000000000000000000000000000000000000000000000000000000000000000000000000000000000000000000000000000000000000000000000000000000000
#049322:000000000000000000000000000000000000000000000000000000000000000000000000000000000000000000000000000000000000000000000000000000000000000000000000000000000000000000000000000000000000000000000000000000000000000000000000000000000000000000000000000000000000000000000000000000000000000000000000000000000000000000000000000000000000000000000000000000000000000000000000000000000000000000000000000000000000000000000000000000000000000000000000000000000000000000000000000000000000000000000000140000000000000000000000000000000000000000000000000000000000000000000000000000000000000000000000000000000000000000000000000000000000000000000000000000000000000000000000000000000000000000000000000000000000000000000000000000000000000000000000000000000000000000000000000000000000000000000000000000000000000000000000000000000000000000000000000000000000000000000000000000000000000000000000000000000000000000000000000000000000000000000000000000000000000000000000000000000000000000000054000000000000000000000000000000000000000000000000000000000000000000000000000000000000000000000000000000000000000000000000000000000000000000000000000000000000000000000000000000000000000000000000000000000000000000000000000000000000000000000000000000000000000000000000000000000000000000000000000000000000000000000000000000000000000000000000000000000000000000000000000000000000000000000000000000000000000000000000000000000000000000000000000000000000000000000000000000000000000000000000000000000000000000000000000000000000000000000000000000000000000000000000000000000000000000000000000000000000000000000000000000000000000000000000000000000000000000000000000000000000000000000000000000000000000000000000000000000000000000000000240000000000000000000000000000000000000000000000000000000000000000000000000000000000000000000000000000000000000000000000000000000000000000000000000000000000000000000000000000000000000000000000000000000000000000000000000000000000000000000000
#049352:000000000000000000000000000000000000000000000000000000000000000000000000000000000000000000000000000000000000000000000000000000000000000000000000000000000000000000000000000000000000000000000000000000000000000000000000000000000000000000000000000000000000000000000000000000000000000000000000000000000000000000000000000000000000000000000000000000000000000000000000000000000000000000000000000000000000000000000000000000000000000000000000000000000000000000000000000000000000000000000000000000000000000000000000000000000000000000000000000000000000000000000000000000000000000000000000000000000000000000000000000000000000000000000000000000000000000000000000000000000000000000000000000000000000000000000000000000000000000000000000000000000000000000000000000000000000000000000000000000000000000000000000000000000000000000000000000000000000000000000000000000000000000000000000000000000000000000000000000000000000000000000000000000000000000000000000000000000000000000000000005400000000000000000000000000000000000000000000000000000000000000000000000000000000000000000000000000000000000000000000000000000000000000000000000000000000000000000000000000000000000000000000000000000000000000000000000000000000000000000000000000000000000000000000000000000000000000000000000000000000000000000000000000000000000000000000000000000000000000000000000000000000000000000000000000000000000000000000000000000000000000000000000000000000000000000000000000000000000000000000000000000000000000000000000000000000000000000000000000000000000000000000000000000000000000000000000000000000000000000000000000000000000000000000000000000000000000000000000000000000000000000000000000000000000000000000000000000000000000000000000000000000000000000000000000000000000000000000000000000000000000000000000000000000000000000000000000000000000000000000000000000000000000000000000000000000000000000000000000000000000000000000000000000000000000000000000000000000000000000000
#051382:12
#0513c2:0000002200000000
#051363:12
#051323:0000002200000000
#0523b3:13230000
#052352:00132300
#052383:0013
#0533b3:0053000000000000
#053383:00000023
#054323:0000001300230000
#054382:0000000000132300
#054353:00000013
#055323:0053000000000000
#055353:0023
#064383:0013
#065383:00230000
#064352:0000000000000013
#065352:0000000000230000
#0653b1:00130000
#0663b1:23
#065323:0000000000130000
#066323:0000002300000000
#066382:13000023
#066351:0000001300002300
#068322:0000001200000000
#073322:0000000000220000
#068351:0012
#072351:000000000000000000000022000000000000000000000000000000000000
#068393:0000000000120000
#071393:000000000000000000000000000000000000000000000000000000000000000000000000000000000000000000000000000000000000000000000000000000000000000000000000000000000000000000000000000000000000000000000000000000000000000000000000000000000000000000000000000000000000000000000000000000000000000000000000000000000000000000000000000000000000000000000000000000000000000000000000000000000000000000000000000000000000000000000000000000000000000000000000000000000000000000000000000000000000000000000000000000000000000000000000000000000000000000000000000000000000000000000000000000000000000000000000000000000000000000000000000000000000000000000000000000000000000000000000000000000000000000000000000000000000000000000000000000000000000000000000000000000000000000000000000000000000000000000000000000000000000000000000000000000000000000000000000000000000000000000000000000000000000000000000000000000000000000000000000000000000000000000000000000000000000000000000000000000000000000000000000000000000000000000000000000000000000000000000000000000000000000000000000000000000000000000000000000000000000000000000000000000000000000000000000000000000000000000000000000000000000000000000000000000000000000000000000000000000000000000022000000000000000000000000000000000000000000000000000000000000000000000000000000000000000000000000000000000000000000000000000000000000000000000000000000000000000000000000000000000000000000000000000000000000000000000000000000000000000000000000000000000000000000000000000000000000000000000000000000000000000000000000000000000000000000000000000000000000000000000000000000000000000000000000000000000000000000000000000000000000000000000000000000000000000000000000000000000000000000000000000000000000000000000000000000000000000000000000000000000000000000000000000000000000000000000000000000000000000000000000000000000000000000000000000000000000000000000000000000000000000000000000000000000000000000000000000000000000000000000000
#0683c0:00000012
#0703c0:000000000000000000000000000000000000000000000000000000000000000000000000000000000000000000000000000000000000000000000000000000000000000000000000000000000000000000000000000000000000000000000000000000000000000000000000000000000000000000000000000000000000000000000000000000000000000000000000000000000000000000000000000000000000000000000000000000000000000000000000000000000000000000000000000000000000000000000000000000000000000000000000000000000000000000000000000000000000000000000000000000000000000000000000000000000000000000000000000000000000000000000000000000000000000000000000000000000000000000000000000000000000000000000000000000000000000000000000000000000000000000000000000000000000000000000000000000000000000000000022000000000000000000000000000000000000000000000000000000000000000000000000000000000000000000000000000000000000000000000000000000000000000000000000000000000000000000000000000000000000000000000000000000000000000000000000000000000000000000000000000000000000000000000000000000000000000000000000000000000000000000000000000000000000000000000000000000000000000000000000000000000000000000000000000000000000000000000000000000000000000000000000000000000000000000000000000000000000000000000000000000000000000000000000000000000000000000000000000000000000000000000000000000000000000000000000000000000000000000000000000000000000000000000000000000000000000000000000000000000000000000000000000000000000000000000000000000000000000000000000000000000000000000000000000000000000000000000000000000000000000000000000000000000000000000000000000000000000000000000000000000000000000000000000000000000000000000000000000000000000000000000000000000000000000000000000000000000000000000000000000000000000000000000000000000000000000000000000000000000000000000000000000000000000000000000000000000000000000000000000000000000000000000000000000000000000000000000000000000000000000000000000000000000000000000000000000000000000000000000000
#075322:0013000000000000
#075352:0000002300000000
#075322:00000013
#076352:23
#075381:00000013
#0763b1:23
#0763b1:00130000
#076381:0023
#076352:00130000
#076322:0023
#076322:00000013
#077372:23
#0763b1:00000013
#0773b1:00000023
#077372:00130000
#077322:0023
#078321:13230000
#078361:0053000000000000
#078362:13332300
#0783a2:0053005300000000
#080322:13
#080352:00230000
#080381:00130000
#0803b1:0023
#080352:0013
#080382:00000023
#0803b1:00000013
#081351:0033230000000000
#0833b1:0000000000130000
#0843b1:23
#083382:0000000000130000
#084382:23
#083353:0000000000130000
#084353:23
#083320:0000000000130000
#084320:23
#0863b2:00000013
#086352:0000000000000053
#087352:00230000
#087323:13230000
#088323:00130000
#088353:0023
#088382:0013
#088352:00000023
#088323:00000013
#089383:0033330000003300
#089323:0053
#090323:53330000
#090383:00005333
#091323:53230000
#0893b2:00130033
#089352:0053
#090352:53330000
#0903b2:00005333
#091352:53230000
#007960:0000001300000000
#007980:0023
#007991:0000001300000000
#0079b1:0023
#007971:0000000000130000
#007951:00000023
#007940:0000000000130000
#007920:00000023
#007980:0000000000000013
#008980:23
#007951:0000000000000013
#008951:23
#0129b1:0000000000130000
#012971:00000023
#014921:0000000000130000
#014961:00000023
#0169b1:0000000000130000
#016971:00000023
#0619b1:000000000000000000000000000000000000000000120052
#0619a1:000000000000000000000052
#0629a1:525200000000000000000000
#0629b1:005200220000000000000000000000000000000000000000
#063931:000000000000000000125252
#063941:000000000000000000000000000000000000005200520052
#064931:22
