This file was generated by Ched 2.7.0.0.
#TITLE ""
#ARTIST ""
#DESIGNER ""
#DIFFICULTY 0
#PLAYLEVEL
#SONGID ""
#WAVE ""
#WAVEOFFSET 0
#JACKET ""
#REQUEST "ticks_per_beat 480"
#00002: 4
#BPM01: 171
#00008: 01
#TIL00: ""
#HISPEED 00
#MEASUREHS 00
#0001a:14
#00212:14
#00418:14
#00514:14
#00618:14
#00714:14
#0081a:14
#00912:14
#0101a:14
#01112:14
#01218:0014
#01210:0041
#01314:0014
#0141a:0014
#01512:0014
#01618:0014
#01714:0014
#0181a:0014
#01912:0014
#02818:16
#02912:0016
#03012:16
#03118:0016
#03110:0041
#03218:16
#03212:0016
#03312:16
#03518:0016
#03512:16
#03612:16
#03712:0016
#03818:16
#03918:0016
#04012:16
#04318:0014
#04312:16
#04310:0041
#04514:14
#0461a:0014
#04812:14
#0651a:00140000
#06514:00140000
#06618:14
#06612:14
#0661a:00000014
#06614:00000014
#06719:00000014
#06713:00000014
#0681a:00000014
#06912:00000014
#0701a:00000014
#07112:00000014
#07218:00000014
#07314:00000014
#03412:0016
#04218:0016
#07512:00160000
#07510:00000041
#07612:00000016
#07718:00160000
#07818:00000016
#07912:00160000
#07918:00000016
#08012:00160000
#08218:00000016
#08212:00160000
#08318:00160000
#08412:00000016
#08512:00160000
#08618:00000016
#08712:00160000
#08112:00000016
#08918:00000016
#09012:00160000
#0611f:0011
#02718:0026
#07418:00000026
#0741f:00000021
#05510:0041
#02010:0041
#0203a0:0014
#0213a0:00240000
#022320:14000024
#023380:0014
#024380:00240000
#025340:0014
#026340:0024
#028380:0016
#029380:26
#030320:0016
#031320:26
#033380:0016
#034380:26
#036380:0016
#037380:26
#038320:0016
#039320:26
#040380:0016
#041380:26
#041320:0016
#042320:26
#0493a0:0014
#0503a0:00240000
#051340:14000024
#052380:0014
#053380:00240000
#054320:14000024
#0553a0:0014
#056380:00240000
#057320:14
#057340:00000024
#058380:0014
#0593a0:00240000
#060340:14
#060320:00000024
#0613a0:0014
#0633a0:24
#063320:00000014
#064320:0024
#075380:00000016
#076380:00260000
#077320:00000016
#078320:00260000
#080380:00000016
#081380:00260000
#083380:00000016
#084380:00260000
#085320:00000016
#086320:00260000
#087380:00000016
#088380:00260000
#088320:00000016
#089320:00260000
#090380:00000016
#091380:00260000
#091320:00000014
#092320:0000000000000024
