This file was generated by Ched 2.7.0.0.
#TITLE ""
#ARTIST ""
#DESIGNER ""
#DIFFICULTY 0
#PLAYLEVEL
#SONGID ""
#WAVE ""
#WAVEOFFSET 0
#JACKET ""
#REQUEST "ticks_per_beat 480"
#00002: 4
#BPM01: 171
#00008: 01
#TIL00: ""
#HISPEED 00
#MEASUREHS 00
#00015:1313000000000000
#0001b:0000000000000013
#00018:0000000000130000
#00012:0000000000000013
#00118:0000001300000000
#00112:0000001300001300
#0011b:00000013
#00315:0000001300001300
#0031b:0000001300130000
#00318:0000000000000013
#00312:0000000000130000
#00512:0000000000130000
#00518:00000013
#00515:0000000000000013
#0051b:0000000000130000
#00615:1300000000000013
#0061b:00000013
#00618:13
#00612:0000000000130000
#00718:13
#00712:0013000000000000
#0071b:0013000000000000
#00812:0000000000130000
#00816:0000000000000013
#00817:0000000000130000
#0091b:0000001300000013
#00919:13
#00914:13
#00912:0013000000000000
#00917:0013000000000000
#00915:0000001300000013
#0101b:00130000
#01018:1300001300000000
#01012:0000001300000000
#01318:1300001300001300
#0131b:0013000000000013
#01312:0013001300000000
#01315:0000130000130013
#0151b:0013130000130023
#01515:1300001313000000
#01512:0000000000130013
#0181b:0000000000000013
#0181b:0000000000000013
#01812:0000001300001300
#01815:0000000013000013
#01818:0000001300000000
#01917:0013000000000000
#01915:0000001323000000
#01912:0013000000002300
#0201b:23001313
#02012:00000013
#02018:00230000
#02010:0041
#0211b:13131313
#02115:0000130000001313
#02615:0013
#02618:0013
#0261b:13
#02612:13
#02215:0000001300130000
#0221b:13131313
#0231b:1300001313000000
#02319:0000000000001313
#02312:00131313
#02417:0013000000001300
#02412:13131313
#02518:0013
#02515:0013
#02512:13230000
#02519:13
#0251b:00230000
#0431b:0000130000000013
#04312:1313
#04318:1300001300000000
#04315:00130000
#04310:0041
#04418:13
#04415:0013000000000013
#04412:00230000
#04918:00130000
#04915:0000001300000000
#04912:0000000013001313
#0491b:0013
#05112:13000013
#0511b:1300131300130000
#05118:00000013
#05115:0000000000130000
#05018:0013000000000013
#0501b:00130000
#05015:00130013
#05012:0013000024000000
#0501a:0024
#05415:13130000
#0541b:0000001300001300
#05418:0013000000130000
#05412:00000013
#05515:1300000000130000
#05518:13000013
#05512:0000000013000013
#0551b:0013
#05510:0041
#0561b:1300130000130000
#05615:0013000013000000
#05618:0000001300000013
#05612:00130013
#0571b:1300000013000013
#05712:0013001300001300
#05718:00130013
#05715:1300000000130000
#05815:13000013
#05818:0000001300130000
#05812:00131300
#0581b:0013000013000013
#06417:001400140014000000000000000000000000130000130000
#0641b:0013
#06412:001400140014000000000000000000000000000000240000
#06414:141414000000000000000000
#06419:141414000000000000000000
#06416:0024
#06512:00130000
#06516:0000240013130000
#0651a:0000000000240000
#0661b:13
#06617:0000131300000000
#06616:24
#06612:0000002400002400
#06818:0000001300130000
#06815:0013
#06812:00000013
#0681b:00000013
#06918:1313000000000000
#06912:0013001300000000
#0691b:0000001300131300
#06916:0000000000141400
#07019:0013000000000000
#07015:0000000000130000
#07012:14000013
#07014:0014000000000000
#07016:00140000
#0701b:00130000
#07018:00000013
#07115:0013130000000000
#07118:0000000000131300
#07215:0013000000001300
#07212:0013
#07218:0000000000000013
#0721b:0013
#07312:13
#07316:00130000
#0731b:0013000000220000
#07317:00000022
#07313:0022
#09218:0000001313000000
#09215:1300000000001313
#09212:0023
#0921b:0023000000000023
#00218:1313000000000000
#00212:0000000000000013
#00215:0000000000130000
#0021b:0000000000000013
#01115:0013130000000000
#0111b:0013130000000000
#04215:13000013
#0421b:13000013
#04218:0013
#04718:0013000000001300
#04715:1300230000000013
#0471b:00130000
#04512:0000001300000000
#04515:0013
#04518:0000000000130000
#0451b:13000023
#04818:00001323
#04815:0000130000130000
#0481b:1300001300000000
#04812:1300001300001300
#0901b:13130000
#09017:0013
#09012:0013
#09016:13000013
#09117:00130000
#0911b:13000023
#09112:00131300
#09115:0000000000130000
#0611b:00131300
#0611a:000000000000000000000014
#06118:130000000000000000000000000000000000000000140014
#06115:000000000000000000130000000000000000000000001400
#06112:0013000013000000
#06113:000000000000000000000000000000000000000000140014
#0611f:0011
#06312:000000000000130000130000000000000000001400140014
#0631b:13
#06314:000000000000000000141414
#06319:000000000000000000141414
#06317:000000000000000000000000000000000000001400140014
#06316:24
#0631a:0000002400000000
#0621a:141414141414000000000000
#06218:001400140014001400140014000000000000000000000000
#06217:00000013
#06215:141414141414000000000000
#06213:001400140014001400140014000000000000000000000000
#06212:00000024
#07418:0000001300130000
#07415:00001323
#0741f:00000021
#0751b:1300000000130000
#07512:13000013
#07515:0000000000130013
#07510:00000041
#07615:0000000000130000
#0761b:0000001300001300
#07612:0013000000000000
#07618:0013130000000000
#07712:0013000000000000
#07715:0000000000130000
#07718:1313
#0771b:00130013
#07818:1300001300000000
#07815:00130023
#0781b:0000000013000013
#07812:0013
#07918:0013000000130000
#07912:2323
#07915:00230023
#0791b:00230023
#0801b:13
#08118:0013000000000013
#08115:00130000
#0811b:0000002300130000
#08112:1300002300000000
#08215:0013000000130000
#08212:0000001300000000
#0821b:00001313
#08318:13
#08315:0013000000000000
#08312:0000001300000000
#08313:00000000002a0000
#08412:1313
#08415:0000130000130000
#0841b:13131300
#08418:00000013
#08512:0013000000000000
#0851b:1300000000130000
#08518:0000000013000013
#08515:0000001300130000
#08612:00231313
#08618:0000001300001300
#0861b:0023000013000000
#08615:23
#08715:1313
#0871b:1313
#08718:00130013
#08712:00130000
#0881b:1313
#08815:0013130000001300
#08818:00130013
#08812:0013
#0891b:13
#08918:00130000
#08912:00130013
#01615:13130000
#01612:0013001300000000
#01618:13130000
#0161b:0013001300000000
#01212:0000000013130000
#01215:0023002300000000
#01218:00232300
#0121b:0023000000000000
#01210:0041
#0141b:0000000013130000
#01415:00232300
#01418:0023002300000000
#0171b:0013000000130000
#01717:0000001300000000
#01712:0000000000000013
#01716:0013000000130000
#01714:0013
#01719:0013
#01718:0000000000000013
#04612:0000000013000013
#04618:0000001300001300
#0461b:0000000013000013
#0521a:14240000
#05216:0000000000000014
#05212:2424
#05312:00000013
#05912:1300130000130000
#05918:0013000013000000
#05915:0000001300000013
#0591b:00130013
#06012:1300000013000013
#0601b:0013001300001300
#06015:00130013
#06018:1300000000130000
#02715:0013001300000000
#02718:00132300
#02712:00000013
#0271b:00000013
#02918:0000001300000000
#0291b:0000000000000013
#02915:13000013
#02912:0013000013000000
#03018:0000001300000000
#03012:1313
#03015:00130013
#03115:0013000000000013
#03118:1323
#03112:0000130000130000
#0311b:00130023
#03110:0041
#03215:0000001300000000
#03212:23002313
#03218:2323
#0321b:00230000
#03315:0000000000000013
#0331b:00000013
#03418:1300000000000013
#03412:0023001300000000
#03415:0000000000130000
#0341b:0023000000000000
#0351b:0013000000000000
#03518:0000001300000013
#03515:00000013
#03512:00131300
#0361b:0013000000001300
#03612:00000013
#03613:0000002a00000000
#03718:1300001300000000
#0371b:0000130000000013
#03712:13130013
#03715:0013
#03815:0000130000130000
#03818:0013001300002300
#03812:0000001300000023
#0391b:23131300
#03918:00000013
#03912:00130013
#03915:0013000013000000
#04018:0000130000000013
#04012:00130013
#04015:1313
#0401b:13
#04118:1313
#04112:00130013
#04115:1313
#0411b:00130000
#02812:0000001300000000
#02818:0000001300130000
#0281b:0000000013000013
#02815:0000000000000013
#00412:13
#0041b:2300000000000023
#0671a:00000024
#01358:0000002300000000
#01355:0000000000000063
#01352:0000001300000000
#0135b:0000000000000013
#0185b:0000000000000053
#01957:0023000000000000
#0205b:0013
#02655:0013
#02658:0013
#0265b:53
#02652:63
#02558:0063
#02555:0063
#05152:53
#0495b:0053
#05452:00000053
#0545b:00000063
#06956:00000054
#0695b:00000053
#0095b:0000001300000000
#00955:0000001300000000
#01155:00130000
#0115b:00130000
#04255:63000013
#04358:13
#04355:00130000
#04352:0053
#0455b:63
#0485b:63
#04852:00000063
#04858:00000063
#0905b:00530043
#09057:0023
#09056:23000053
#09052:00330000
#09157:00630000
#09152:00130000
#0915b:0013
#0615b:0013
#0615a:000000000000000000000054
#06158:000000000000000000000000000000000000000000540054
#06153:000000000000000000000000000000000000000000540054
#06155:000000000000000000000054
#0625a:545454545454000000000000
#06258:005400540054005400540054000000000000000000000000
#06255:545454545454000000000000
#06253:005400540054005400540054000000000000000000000000
#07052:24
#07054:0054000000000000
#07056:00240000
#0705b:00230000
#07058:00000053
#00655:53
#00658:53
#0775b:00130013
#0815b:0000000000130000
#08158:0000000000000013
#08255:0013000000000000
#08252:0000001300000000
#08652:00000013
#0875b:13
#08752:0000130000000013
#08855:00630063
#08852:0063
#0765b:0000002300001300
#07658:00530000
#08958:00530000
#08952:00000063
#0895b:00000013
#08555:0000000000630000
#07155:00530000
#07158:00000053
#01655:23231300
#01652:0063006300000000
#01658:23231300
#0165b:0053005300000000
#01552:0000000000000063
#0155b:0000000000000053
#06354:000000000000000000646464
#06352:000000000000000000000000000000000000006400640064
#06359:000000000000000000646464
#06357:000000000000000000000000000000000000006400640064
#06452:006400640064000000000000000000000000000000000000
#06454:646464000000000000000000
#06457:006400640064000000000000000000000000000000000000
#06459:646464000000000000000000
#00857:0000000000530000
#00856:14
#01752:0000000000000013
#01756:0063000000000000
#01758:0000000000000013
#04652:0053
#0475b:00530000
#04755:00530000
#05256:0000000000000024
#05252:6464
#0525a:00640000
#05555:23
#05558:23
#0555b:0013
#03052:1313
#03452:0000001300000000
#03455:0000000000130000
#03458:0000000000000013
#0355b:0013000000000000
#0395b:0013
#03952:00000013
#04158:5353
#0415b:00530000
#0405b:1300000000130000
#02952:0023000013000000
#02955:63
#03858:0000005300000000
#07455:00000013
#02758:0013
#07555:0000001300000023
#07558:0000001300000000
#07552:00000053
#0075a:0044
#00752:00000034
#06756:00000014
#02858:0013000000230000
#02855:0013000000000000
#0285b:0063
#05852:0013
#0575b:13
#06052:13
#00452:63
#0045b:53
#0125b:00000013
#01452:00000013
#000350:00130000
#000320:0000000000230000
#002380:00130000
#0023b0:0000000000230000
#004320:13
#004350:0023
#0043b1:13
#004381:0023
#004321:0000000000000013
#005351:0033000000000000
#005321:0000002300000000
#0043b0:0000000000000013
#005380:0033000000000000
#0053b0:0000002300000000
#006380:13
#0063b0:0023
#006351:13
#006321:0023
#007381:0000001400000000
#0073a1:0024
#007341:0000000000140000
#007321:00000024
#007361:0000000000000014
#008361:24
#008371:0000000000130000
#0083b1:0000000000000023
#010321:13
#010351:00230000
#010351:0000000000132300
#0103b0:0000000000132300
#010320:0000000000000013
#011320:23
#010381:0000000000000013
#011381:23
#012381:0013
#0123b1:00000023
#012320:00000013
#013350:23
#013380:0000001300000000
#0133b0:0000000000230000
#013350:0000000000000013
#014320:0023000000000000
#014350:0013
#014320:00000023
#0143b1:00000013
#015381:23
#015321:0013230000000000
#015381:0000001323000000
#015321:0000000000000013
#016351:33332300
#016321:0033003300000000
#0153b0:0000000000000013
#016380:33332300
#0163b0:0033003300000000
#017360:0013000000000000
#017320:0000002300000000
#0183b0:0013
#018380:00000023
#0183b0:0000000000000013
#019370:0033000000000000
#0193b0:0000002300000000
#0193b0:0000000013230000
#019380:0000000000001323
#020350:1323000000000000
#020320:0000132300000000
#020320:0000000000000013
#021350:0023000000000000
#022350:13
#022320:00230000
#022320:00000013
#023350:23
#024370:00132300
#025350:0013
#025320:0000000000000023
#025381:0013
#0253b1:0000000000000023
#0263b1:13
#026381:0000002300000000
#026320:13
#026350:0000002300000000
#0273b0:0000000000000013
#028380:0023000000000000
#027321:0000000000000013
#028351:0023000000000000
#028321:00001323
#0283b0:00001323
#028380:0000000000530000
#0293b0:13230000
#029351:13230000
#029321:0053000000000000
#029381:0013
#0293b1:00000023
#0303b1:13
#030381:00230000
#030381:0013
#0303b1:00000023
#0323b1:00000013
#033381:23
#033350:13
#033320:00230000
#0333b1:00130000
#033381:0023
#033350:0013
#033320:00000023
#035380:0013
#0353b0:00000023
#035320:0000000000000013
#036350:0023000000000000
#036330:0000001a002a0000
#0373b0:0013
#037380:00000023
#037350:0000000000000013
#038320:0023000000000000
#038380:0000001300000000
#0383b0:0000000000230000
#0403b0:0000001300230000
#041380:1333
#0413b0:0000330000000023
#042350:13
#042320:0023
#043320:0013
#043350:0000000000000023
#0443b0:00130000
#044380:0023
#044321:00130000
#044351:0023
#0453b1:13
#045381:0000002300000000
#045321:00000013
#046351:23
#0453b0:00000013
#046380:23
#046320:0013
#046350:00000023
#0473b0:00130000
#047380:0023
#047351:00130000
#047321:0023
#0483b1:13
#048381:00230000
#048321:00000013
#049351:23
#048380:00000013
#0493b0:23
#0493b0:0013
#049370:0000000000000023
#051320:13
#051360:0000002300000000
#052320:14
#052360:00240000
#0523a1:00140000
#052361:0024
#052320:0014
#052360:0000000000000054
#053320:00240000
#053380:00000013
#0543b0:23
#054350:0000001300000000
#054320:0000000000230000
#054320:00000013
#055350:33
#055320:00230000
#0543b1:00000013
#055381:33
#0553b1:00230000
#061381:000000000000000000000000000000000000000000140034
#0613a1:000000000000000000000034
#0623a1:343434343434240000000000
#062381:003400340034003400340034000000000000000000000000
#061330:000000000000000000000000000000000000000000140034
#061350:000000000000000000000034
#062350:343434343434240000000000
#062330:003400340034003400340034000000000000000000000000
#063340:000000000000000000143434
#063320:000000000000000000000000000000000000003400340034
#064340:343434240000000000000000
#064320:003400340034000000000000000000000000000000000000
#063391:000000000000000000143434
#063371:000000000000000000000000000000000000003400340034
#064391:343434240000000000000000
#064371:003400340034000000000000000000000000000000000000
#0663b1:00000013
#067371:23
#067320:13
#067360:00230000
#0673a1:00140000
#067361:0024
#067320:0014
#067360:00000024
#0693b0:00000013
#070370:23
#069361:00000014
#070321:3424
#070341:0054000000000000
#070361:00340000
#0703b0:00130000
#070370:0023
#070380:00000013
#0713b0:0023000000000000
#071350:00130000
#071320:0000000000230000
#071380:00000013
#0723b0:0023000000000000
#075320:0013000000000000
#075350:0000002300000000
#0753b1:0013000000000000
#075381:0000002300000000
#0753b1:00000013
#0763b1:23
#075320:00000013
#075350:0000000000000053
#076320:23
#076320:00132300
#076381:00132300
#0763b1:0000005300000000
#076351:00000013
#077321:23
#077321:00130000
#077351:0023
#077351:00000013
#078321:23
#080321:13
#080351:00230000
#080380:00130000
#0803b0:0023
#080321:0013
#080351:00000023
#080380:00000013
#0813b0:23
#082350:00000013
#083320:23
#0833b0:0013000000000000
#083380:0000002300000000
#083330:00000000001a002a
#084320:00000013
#085350:23
#085380:0013000000000000
#0853b0:0000002300000000
#085350:0000000000130000
#085320:0000000000000023
#087320:0000000000130023
#088350:00130033
#088320:0033
#089320:0023000000000000
#089380:00130000
#0893b0:00000023
#089321:00000013
#090361:53
#090321:00230000
#0903b0:00130023
#090370:0053
#090361:00000013
#091321:23
#091371:00130000
#0913b1:0023
