This file was generated by Ched 2.7.0.0.
#TITLE ""
#ARTIST ""
#DESIGNER ""
#DIFFICULTY 0
#PLAYLEVEL
#SONGID ""
#WAVE ""
#WAVEOFFSET 0
#JACKET ""
#REQUEST "ticks_per_beat 480"
#00002: 4
#BPM01: 171
#00008: 01
#TIL00: ""
#HISPEED 00
#MEASUREHS 00
#00018:13
#00015:0013000000000000
#0001b:0000000000000013
#00012:0000000000000013
#00115:0000001300000000
#00118:00000013
#00315:0000000000000013
#00318:0000001300001300
#00312:0000000000130000
#00618:0000000000130013
#00615:13000013
#00715:13
#0071b:0013000000000000
#00712:0000001400000000
#00718:00001414
#00714:0000000000140014
#0101b:0000001300000000
#01015:13
#01012:0000000000130013
#01018:0000000000130013
#0131b:1300000000000013
#01315:0013000000001300
#01318:0000130000130000
#01312:0000001300000000
#01512:0013000000130000
#01518:00131300
#01515:0000001300000000
#0151a:0000000000000024
#02118:0000000000000013
#0211b:00000013
#02115:00130000
#02215:1300000000130000
#0231b:0000001300000000
#02315:0013
#02318:00000013
#02312:0000000000000013
#02412:0013000000001300
#02418:13000013
#02515:0013
#02513:13
#02519:13
#0251b:0013
#02514:00230000
#0251a:00230000
#04415:13
#04418:0013000000000013
#04412:00230000
#04918:00130000
#04915:0000001300000000
#0491b:0013
#05412:0000001300000000
#05415:0013000000001300
#0541b:0000000000130000
#05418:00130000
#05518:0000000000130000
#05515:00000013
#0551b:0000000000000013
#05510:0041
#05615:13001313
#05618:0013001300000013
#0561b:0000000000130000
#05612:00130000
#05712:13130013
#05718:0013000000000013
#0571b:0000001300130000
#05715:0013
#06418:0000000000000013
#06415:0013
#06419:151515000000000000000000
#06417:001500150015000000000000000000000000000000000000
#0641a:0024
#06412:0000000000000024
#06518:00130000
#06515:0000000000130000
#06512:00240000
#0651a:0000000000240000
#0661b:13000013
#06612:0000001300002400
#06616:2400002400000000
#06815:0000001300130000
#06818:00001313
#06912:1313000000000000
#0691b:0000001300001300
#06915:000000000000001300000000
#07012:0013130000000000
#07018:0000000000131300
#07212:0013
#07218:00000013
#07215:0000000000000013
#07318:1300130000230000
#07315:0013000023002300
#09218:1300001300000000
#0921b:00000013
#09215:0023
#09212:0023000000000023
#0091b:0013001300000000
#00915:0013001300000000
#00918:0000000000000013
#01115:0013000000000000
#0111b:00130000
#0421b:00000013
#04212:13
#04218:13
#04315:1300001300000000
#0431b:00130000
#04318:0013
#04310:0041
#0911b:0000000000130000
#09118:00130000
#09112:00130000
#09115:00000023
#07115:00130000
#07118:00000013
#00812:0000000000130000
#0081a:14
#00818:0000000000130000
#04715:0013000000000000
#0471b:00000013
#04718:0000230000000013
#0461b:0013
#04615:0000001300000000
#06012:13001313
#0601b:0013001300000000
#06015:00130000
#06018:0000000000130013
#06113:13
#0611a:0000001300000000
#06114:000000130000000000000015
#06119:0013000000000000
#06112:000000000000000000000000130000000000000000150015
#0611b:0013
#0611f:0011
#02714:0014001400000000
#02718:0000140024000013
#02712:00000013
#02915:0000001300001300
#02918:1300000013000013
#0291b:0013000000000000
#03015:0000001300001300
#03012:13
#0301b:0013
#03018:00130000
#03118:13002323
#03115:0000000000130013
#03112:00130000
#0311b:00130000
#03110:0041
#03218:0000001300000000
#0321b:2323
#03215:00230000
#03212:2323
#03315:0000000000000013
#0331b:00000013
#03418:1300000000140000
#03412:0000001400000000
#03414:0000000000000014
#0351a:0014000000000000
#03515:0000001300000000
#0351b:0013
#03512:00000013
#03518:0000000000000013
#0371b:13000013
#03712:1313
#03718:0000001300000000
#03715:0000000000000013
#03812:0000001300000013
#0381b:0013000000001300
#0391b:0013
#03918:13000013
#03912:00000013
#03915:0013
#04018:0000001300000000
#04012:00130000
#04015:1300000013000013
#0401b:1300000000130000
#02815:0000001300000013
#02818:0013
#0281b:0000000000130000
#04118:13
#04112:13
#04115:0013
#0411b:0013
#00215:13
#00218:0013000000000000
#00212:0000000000000013
#0021b:0000000000000013
#00518:0033000000000013
#0051b:0000000000130000
#00515:0033000000001300
#01712:0000000000130013
#0171b:0013000000000000
#01718:0000000000130013
#01715:0013000000000000
#01812:0000000000000013
#01815:0000001300000000
#01818:0013
#01918:0013000000000000
#01915:0000001300000000
#02012:23000013
#02018:23
#0201b:00230000
#02015:00230000
#02010:0041
#03612:0013000000000000
#03619:0000002400000000
#03613:0000002400000000
#04518:0013
#04515:1300000000130000
#0451b:00000023
#04818:0000000000130000
#04812:13
#0481b:0000001300000000
#04815:00001323
#0501b:00130000
#05015:0013000000001300
#05018:0000000000000013
#05012:0024
#05112:13000013
#05118:0000000000130000
#0511b:0000000000000013
#05812:13000013
#0581b:0013001300000000
#05815:00131300
#05818:0000000000130013
#05915:13130013
#0591b:0013000000000013
#05918:0000001300130000
#05912:0013
#06212:001500150015001500150015000000000000000000000000
#06214:151515151515000000000000
#0621a:00000024
#06319:000000000000000000151515
#06317:000000000000000000000000000000000000001500150015
#06312:24
#06316:0000002400000000
#06714:14
#06716:00140000
#07418:0000001400140000
#07414:00001424
#0741f:00000021
#0751b:13
#07518:0000000000130000
#07515:0013000000001300
#07512:0000000000000013
#07510:00000041
#07618:0013000000130000
#07615:00130013
#07612:0000001300000000
#07715:0013000013000000
#07718:1300000000130000
#0771b:00130000
#07712:00000013
#07815:00130023
#07818:1300000000000013
#0781b:0013
#07812:0013
#07918:0013000023000000
#07915:2300000000130000
#07912:00230023
#0791b:00230023
#08118:0013000000000000
#08115:00130000
#0811a:0000000000140000
#08114:0000000000000014
#08112:13
#08218:0014000000130000
#08212:0000001400001300
#08412:00130000
#0841b:00130013
#08415:0000000000130000
#0861b:0013000000000000
#08612:13000013
#08615:00130000
#08618:00000013
#0851b:0000000000130000
#08512:1300001300000000
#08518:0013000000000000
#0831b:1300001300000000
#08315:0013000000000000
#08319:0000000000240000
#08313:0000000000240000
#08715:1300000000130000
#0871b:1313
#08718:00130013
#08712:0000130000000013
#08818:0013000000001300
#08815:00130000
#0881b:00130000
#08812:00000013
#0891b:00130000
#08915:00130000
#08918:00000013
#09012:00130000
#0901b:00000013
#09015:00000013
#02612:13
#02618:13
#01215:00232300
#01218:0000002300000000
#0121b:0023000000000000
#01210:0041
#05212:0024
#05214:24
#05218:00240000
#0041b:2300000000000023
#01418:00232300
#01415:0000002300000000
#01412:0023000000000000
#02555:0063
#0255b:0063
#0495b:0053
#05455:00000053
#0095b:0000001300000000
#00955:0000001300000000
#04358:0053
#0695b:00000053
#00655:53
#07058:00000053
#07052:00530000
#07155:00530000
#07158:00000053
#00852:0000000000530000
#00858:0000000000530000
#0115b:00130000
#0465b:0063
#06152:000000000000000000000000000000000000000000550055
#06154:000000000000000000000055
#03052:13
#0305b:0013
#03452:0000001400000000
#03458:0000000000140000
#03454:0000000000000014
#0355a:0014000000000000
#02958:6313
#0295b:0023000000000000
#03852:0000005300000000
#05252:0064
#04758:00630000
#02758:0000000014000053
#06758:00000014
#0285b:0013000000230000
#02858:0063
#05752:13
#06052:13
#01252:00000013
#0045b:53
#01055:53
#0135b:0000000000000013
#01352:0000001300000000
#0145b:00000013
#01752:0000000000000013
#0175b:0063000000000000
#01758:0000000000000013
#01755:0063000000000000
#01858:0063
#02255:53
#0405b:1300000000130000
#04055:13
#04158:53
#04152:53
#04155:0063
#0415b:0063
#04252:53
#04258:53
#04555:63
#0455b:00000053
#04852:53
#04855:00000053
#05152:63
#05552:0013
#05855:0013
#06252:005500550055005500550055000000000000000000000000
#06254:555555555555000000000000
#06359:000000000000000000656565
#06357:000000000000000000000000000000000000006500650065
#06459:656555000000000000000000
#06457:006500650055000000000000000000000000000000000000
#0775b:00130000
#07752:00000013
#0815a:0000000000140000
#08154:0000000000000014
#08258:0014000000000000
#08252:0000001400000000
#07655:00530013
#07652:0000002300000000
#0855b:0000000000630000
#07555:0063000000005300
#07552:0000001300000023
#07454:00000014
#08758:00130000
#08752:0000130000000013
#08855:00630000
#0885b:00630000
#08858:00000053
#08852:00000053
#0895b:00630000
#08955:00630000
#08958:00000053
#09052:00530000
#0905b:00000053
#09055:00000053
#09158:00530000
#09152:00530000
#02652:53
#02655:0013
#02658:53
#0265b:0013
#04452:00530000
#000380:00130000
#0003b0:0000000000230000
#002350:00130000
#002320:0000000000230000
#0043b0:13
#004380:0023
#004320:0000000000000013
#005350:0033002300000000
#0043b1:0000000000000013
#005381:0033002300000000
#006351:13
#006321:00230000
#008321:0000000000130000
#008351:0000000000000023
#008380:0000000000130000
#0083b0:0000000000000023
#010350:13
#010320:00230000
#012350:0013
#012320:00000023
#014380:0013
#0143b0:00000023
#015320:0000000000000014
#016340:3434000024000000
#016320:0000343400000000
#0153a1:0000000000000014
#016381:3434000024000000
#0163a1:0000343400000000
#0173b1:0013000000000000
#017381:0000002300000000
#017350:0013000000000000
#017320:0000002300000000
#018380:0013
#0183b0:00000023
#0193b0:00001323
#020380:0000000000000013
#0213b0:0023000000000000
#022350:13
#022320:0000002300000000
#022380:00000013
#0233b0:23
#024380:00130000
#0243b0:0023
#025350:0013
#025320:0000000000000033
#026320:33
#026350:0000003323000000
#0253b1:0013
#025381:0000000000000033
#026381:33
#0263b1:0000003323000000
#027381:0000000000000013
#0283b1:0023000000000000
#028381:00001323
#0283b1:0000000000530000
#029381:13230000
#0293b1:0053000000000000
#0323b1:00000013
#033381:23
#032350:00000013
#033320:23
#0333b0:00130000
#033380:0023
#033351:00130000
#033321:0023
#036391:0000001400002400
#036330:0000001400002400
#038320:0000001300000000
#038350:0000000000230000
#041380:13
#0413b0:00230000
#041321:13
#041351:00230000
#041351:0013
#041321:00000023
#0413b0:0013
#041380:00000023
#042320:13
#042350:0023
#042381:13
#0423b1:0023
#043381:0013
#0433b1:0000000000000023
#044321:00130000
#044351:0023
#045351:13
#045321:0000002300000000
#0453b1:00000013
#046381:23
#0463b1:0013
#046381:0000000000000023
#047381:00130000
#0473b1:0023
#048321:13
#048351:00230000
#048351:00000013
#049321:23
#0493b1:0013
#049381:0000000000000023
#051321:13
#051351:0000002300000000
#052321:0014
#053361:00240000
#0533b1:00000013
#0543b1:23
#054351:00000013
#055321:0023
#061321:000000000000000000000000000000000000000000150035
#061341:000000000000000000000035
#062341:353535353535250000000000
#062321:003500350035003500350035000000000000000000000000
#063391:000000000000000000153535
#063371:000000000000000000000000000000000000003500350035
#064391:353535250000000000000000
#064371:003500350035000000000000000000000000000000000000
#067381:00001424
#0693b1:00000013
#070381:23
#070321:00130000
#070351:0023
#070381:00000013
#0713b1:0023000000000000
#071351:00130000
#071321:0000000000230000
#071381:00000013
#0723b1:0023000000000000
#075351:0013000000000000
#075321:0000002300000000
#075351:00000013
#075321:0000000000000053
#076351:23
#076351:00132300
#076321:0000005300000000
#080321:13
#080351:00230000
#080380:13
#0803b0:00230000
#080320:0013
#080350:00000023
#080381:0013
#0803b1:00000023
#083331:0000000000140000
#084331:24
#083390:0000000000140000
#084390:24
#0853b0:0000000000130000
#085380:0000000000000023
#088350:00130000
#088320:0023
#0883b1:00130000
#088381:0023
#088381:00000013
#0893b1:23
#088320:00000013
#089350:23
#0893b0:00130000
#089380:00000033
#0903b0:00330033
#091380:00330000
#0913b0:0023
#089351:00130000
#089321:00000033
#090321:00330000
#090351:00000033
#091321:00330000
#091351:0023
