This file was generated by Ched 2.7.0.0.
#TITLE ""
#ARTIST ""
#DESIGNER ""
#DIFFICULTY 0
#PLAYLEVEL
#SONGID ""
#WAVE ""
#WAVEOFFSET 0
#JACKET ""
#REQUEST "ticks_per_beat 480"
#00002: 4
#BPM01: 171
#00008: 01
#TIL00: ""
#HISPEED 00
#MEASUREHS 00
#00017:12
#0001a:0012000000000012
#00014:0012000000000012
#00012:0000120000120000
#0011c:00000012
#00114:00000012
#00118:0000001200120000
#00312:0000000000001213
#0031b:0000000000000013
#0031a:00000012
#00316:0000001200120000
#00518:00000013
#00512:0033000014000014
#00516:0000000000120000
#0051a:0000000014000014
#00715:0016000000000000
#0071b:13
#00812:0000130000130000
#00816:0000000000000013
#00817:0000000000130000
#00818:0013001300000000
#0081b:0013
#00815:00000013000000001300000000000000
#00918:0000000013000013
#0091b:0000001300001300
#00919:13
#00914:13
#00912:0013000013001300
#00917:0013000000000000
#00915:0000001300000013
#0101b:1300130000000013
#01015:0013001300000000
#01018:00000013000000001300000000000000
#01012:1313
#01016:0000000000130000
#0131b:1300001300000000
#01318:0013000000000000
#01319:00000013
#01315:0013160000000000
#01312:1300001400130000
#0131a:0000000000000014
#01314:00000013
#01917:1313000000000000
#01916:0000001300000000
#01912:0013000000002600
#01918:0026
#02012:00261600
#02018:2600000000130000
#0201b:00001313
#02010:0041
#02118:0000001300130013
#0211b:00130013
#02115:0013000013000013
#02112:13130013
#02616:0012
#02618:0012
#0261b:13
#02612:13
#0221b:13001313
#02212:00130000
#02218:0013001300000013
#02216:0000000000130000
#02315:13131300
#0231b:0013001300000000
#02317:00000013
#02312:0013001300130013
#02318:00130000
#0241b:0013000000001300
#02415:1300130013160016
#02412:0000001300001300
#02418:0013
#02518:0012
#02516:0012
#02512:13230000
#0251b:13230000
#02515:0016000000000000
#04318:0000000000000013
#04312:1300000013000013
#04316:14140000
#0431b:00130000
#04314:0013001300000000
#04317:0013
#04319:0000001300000000
#04310:0041
#0441b:1300000000130000
#04412:0013260000000013
#04415:13
#04418:0013000000000000
#04417:0000000000000013
#04414:00000018
#04416:0000000000130000
#04912:0014130013001300
#04915:0000001300000013
#0491a:0014000014000000
#04919:0000001400000000
#04916:00140000
#04917:00000014
#05015:00000012
#05019:00000012
#0501b:0013000000000000
#05016:0014140000000000
#05012:13132400
#05018:13
#0501a:0024
#05416:14
#05415:0000001300160000
#0541b:0013000000000000
#05418:00130000
#0541a:00000014
#05412:00001313
#05519:0000000000130013
#05517:00000013
#05516:14
#0551b:0013
#05512:13130000
#05518:00000000001300130000000000000000
#05515:0000001300000000
#05510:0041
#0561b:1313
#05619:0013001300130013
#05617:00130013
#05614:0000000000130013
#05612:00000013
#06417:0000001200000012
#0641c:00121212
#06418:16
#06416:0024
#06412:003333333333000000000000000000000000000000240000
#0651c:12120000
#06517:0012000000120012
#06512:00001212
#06516:00240000
#0651a:0000000000240000
#0661c:12121200
#06617:0000001200120000
#0661b:00000013
#06616:24000024
#06612:0000002400000000
#06818:0000000000130000
#06812:0000001300000000
#06815:0013
#06816:00000012
#0681b:00000013
#06814:0000000000000012
#06915:0013000000160000
#0691b:0000001300000000
#06914:00000014
#06912:1200001300000014
#06918:0013000000000000
#06919:00000013
#06917:0000000000000013
#0701c:0012000000000000
#07012:0000001400131300
#0701b:00000000000000000000000000000013
#07014:14140000
#07016:0014000000000000
#07017:0000001300001300
#07019:00130000
#07116:00000000000000130000000000000000
#07112:0013130000001300
#0711b:0000130000130000
#07117:00000013
#07212:13131313
#0721b:0000130013000013
#07215:0016001600000000
#07312:1322
#0731b:0013000000000000
#07316:14140000
#0731c:0000000000220000
#07317:00002222
#0921a:0000001200000000
#09214:0012000000001200
#09216:1200001200000012
#09218:00001212
#09212:0022
#0921c:0022000000000022
#01114:0013000000000000
#01116:00130000
#0111b:00130000
#01119:0013000000000000
#01515:0000000013000013
#0151b:1300130000130000
#01512:1300001300130000
#01518:0013000000000023
#04216:13000014
#0421b:13130013
#04217:0013
#04219:0000001300000013
#04714:00000013
#04712:13180000001c0000
#0471b:00000013
#04719:13
#04716:0000000000000018
#04718:00130000
#04715:00230000
#04816:130000000000000000000000000000240000240014000000
#04812:000000130000000000130000130000000000000000001c00
#0481b:1300001313000000
#04817:0013000000000000
#0901b:13130013
#0901b:00130000
#09016:0018130000001300
#09012:0000000013180000
#09014:0000001300000000
#09017:0000000000000013
#09116:0013130000000000
#0911b:00131300
#0911a:00000012
#09118:0000000000120000
#09117:1300001300000000
#09112:13001322
#0631c:12121212
#06312:000000000000000000000000000000000000133333333333
#06316:2400002400000000
#06212:00000016000000001200000012000000
#06217:0000000000000012
#06216:00000024
#0621b:333333333333333333333333000000000000000000000000
#00615:1300001600000000
#00618:13
#00612:00000033000000001300000000000000
#0061b:00000033000000001300000000000000
#00619:0000000000130000
#00613:0033000000000000
#0061a:0033000000000000
#01212:0023230016001300
#01215:00000000000000000000001300000000
#01218:0016000000132613
#01214:0000001600000000
#01216:00160000
#0121b:0000002323000000
#01210:0041
#01717:0000001300000000
#01712:1300131300000013
#0171b:1313000000130000
#01714:0013
#01719:0013
#01716:0013000000130000
#01718:0000000000000013
#01812:0000000013131300
#0181b:0000001300000013
#01815:0000001300000000
#04617:0013000013000000
#0461b:0000001300130000
#04616:0000001300130000
#04612:001300001300001c
#04614:00180000
#05216:1400000000000014
#0521a:0014240000001400
#05212:2400001424000000
#05312:00001414
#0531a:14141400
#05316:0000000000140000
#05314:0000000000000014
#08912:0013000013181300
#0891b:00130000
#08916:00130000
#08914:0000001300000000
#08917:0013000000001300
#08919:0000000000000013
#0271b:0013000000001300
#02719:00140000
#02717:0000001500000000
#02712:0012121222001300
#02715:0000000026000013
#02718:0000000000000013
#02919:0000001300001300
#02917:0000000000000013
#02912:0013001313001300
#02915:13
#0291b:13130000
#03014:0000001300000000
#03015:13
#03012:000000001300001c
#03016:00130014
#0301b:00130013
#03112:131c000014002800
#03116:1400140028140014
#0311b:00130000
#0311a:00000014
#03110:0041
#03215:00000013
#03212:1400280014000013
#0321a:00140000
#03216:2800001428000000
#0321b:00000013
#03315:1300000013000016
#0331b:0013001300001300
#03312:0013001300000000
#03318:00130000
#03418:1300001600160013
#03412:0023001313000016
#03415:1300000000131300
#0341b:0023000000000000
#0351b:0013130000000000
#03514:0000001300000000
#03512:0016130000001313
#03516:0013
#03518:13
#03714:0000001300000000
#03717:0000130000001313
#03712:1c130000
#0371b:0013
#03612:00001c2600001c00
#03616:0013000000000000
#03618:0000002600000000
#03812:00001c1400130014
#0381a:0000001400000000
#03816:00001414
#0381b:0013000000002300
#03817:0000000000000023
#0391a:00141400
#03916:0014000014001400
#03912:00140000
#0391b:23
#0401a:0000141400000000
#04016:1400001414001300
#04017:0000000000000013
#04012:0000000014000013
#0401b:00000013
#04117:0013
#04112:0013000013000000
#04116:1300000000000013
#0411b:1300130000000013
#02815:0000001313001300
#02818:0000001300130000
#0281b:1300130013000013
#02812:1300130000000013
#00412:1313
#00415:00000033000016000000000013000000
#00418:00000033000000000000130000000000
#0041b:2300000013000023
#00414:0033000000000000
#00419:0033000000000000
#01418:13000000000000001600001300000000
#01415:0000000000130013
#01416:0000001600000000
#01414:00160000
#01412:0016002323002600
#0141b:0023230000001300
#04516:130000000000000000000000000000000000000000000000000000000000000000000000000000000000000000000000000000000000000000000000000000000000000000000000000000000000000000000000000000000000000000000000000000000000000000000000001300000000000000000000000000000000000000000000001300000000000000000000000000000000000000000000001300000000000000000000000000000000000000000000000000000000000000000000
#0451b:1300002300000000
#04515:00001313
#04517:00000000000000000013001300130000
#04519:0000000000130000
#04518:00001313
#04514:0000000000130000
#04512:0000001300000000
#05112:0000001200130013
#0511c:0000001200000000
#05116:0000000000141414
#0511b:00001313
#05115:0013
#05714:0013001300130013
#05716:00130013
#05712:1313
#05814:0013001300000000
#05816:00130000
#05812:13
#05819:0013001300000000
#0581b:00130000
#0581a:0000000000120000
#0581c:00000012
#05818:0000000012000012
#0591a:1200001200120012
#0591c:0012000012000000
#05918:00120012
#05914:0000000000120012
#05912:00000012
#06014:0012000012000012
#06012:0000120000120000
#06016:1200001200001200
#0611c:0012
#06112:00121200
#06116:0000001200000000
#06118:0012000000000000
#0611b:000000000000000000000000000000000000000000133333
#0611f:0011
#0671a:0012140000122400
#06714:0000001200000000
#06712:1314
#01612:001300000000000000000000000000000000130000000000
#01619:0000001300000000
#01615:330000000000330000001300330000000000000000000000000000000000000000130000000000000000000000000000
#01618:330000330013330000000000000000130000130000000000
#0161b:001300000000000000000000000000000000000000130000
#01614:0000001300000000
#07412:0000001300000000
#07413:0014
#07414:0000000000150000
#0741c:0000001212122200
#07415:00000026
#0741f:00000021
#07518:13131313
#0751b:0013000000130000
#07512:0013000000131300
#07515:1300130013000013
#07510:00000041
#07614:0000000000130000
#07612:0013130013000000
#0761b:0013001300131300
#07618:13130000
#07716:0013000000000000
#07719:0000000000130000
#07714:13
#07718:00130000
#0771b:13000013
#07717:0013
#07712:0013
#0781b:00130000
#07816:1400140014000014
#0781a:00000014
#07812:131c001c13002800
#07916:2814000028140000
#07912:14281428
#0791a:00140014
#08018:13130013
#0801b:0013001300130000
#08015:0013
#08012:1300001300130000
#08115:0016130000000000
#0811b:0000002300131300
#08118:0000130000000013
#08112:1300002300160016
#08215:0013130000000000
#08212:0000001313000000
#08219:0000000000130000
#0821b:0013
#08217:00000013
#08218:1316001600000000
#0831b:1313000000000000
#08312:000000001c260000
#08317:0000001300000000
#08318:0000000000260000
#08412:1c1c0013
#08419:0000000000130000
#0841b:0013
#08416:0013
#08516:1313000000001400
#08512:000000131c140000
#0851a:0000000000140000
#0851b:0000000000000013
#08612:23231414
#08616:1423001400001400
#0861a:0014000014000000
#08712:0000000014140000
#08716:1400140000141400
#0871a:00000014
#08817:13130000
#08816:0013000000001300
#0881b:0013001300001300
#08812:13131300
#00217:12
#00214:0012000000000012
#0021a:0012000000000012
#0021c:0000120000120000
#0135b:0000005300000000
#01352:0000001400000000
#0135a:0000000000000014
#01957:0053000000000000
#02052:0016
#02656:0012
#02658:0012
#0265b:53
#02652:63
#02558:0062
#02556:0062
#0495a:0054
#04957:00000024
#06954:00000054
#06952:0000000000000024
#06959:00000053
#06957:0000000000000023
#0705b:00000000000000000000000000000023
#07054:54540000
#07056:0024000000000000
#07052:0000002400000000
#07057:0000002300005300
#07059:00530000
#07156:00000000000000230000000000000000
#07152:00530000
#07157:00000053
#0095b:0000001300000000
#00955:0000001300000000
#01156:00130000
#0115b:00130000
#04256:63000014
#04356:14140000
#04357:0053
#04352:0053
#04856:630000000000000000646400
#04852:000000230000000000000000000000000000000000002c00
#0485b:63
#04857:0023000000000000
#0905b:00530043
#09056:00330053
#09156:00630000
#0915b:00430000
#09157:63
#09152:0033
#0725b:0053
#00655:53
#00658:53
#01252:00001653
#01258:00000016
#00857:0000000000530000
#00854:14
#00858:14
#01757:0000004300000000
#01752:0000004300000013
#0175b:0053000000330000
#01756:0000000000330000
#01758:0000000000000013
#04657:0053
#0465b:0000000000230000
#04652:0053
#04656:0000000000230000
#05256:0000000000000024
#05252:6464
#0525a:00640000
#0545a:00000064
#05556:24
#0555b:0013
#08952:00000063
#0895b:00530000
#08957:00000043
#03055:13
#03052:0013
#03452:0000001300000046
#03455:0000000000130000
#03458:0000003600460013
#0355b:0013000000000000
#03552:0036000000000000
#0395a:0044
#03956:00002424
#03952:00000034
#04056:2400005424440000
#04052:0024
#0405a:4400005400440000
#04157:0053
#04152:0053000053000000
#0415b:63530000
#02952:0023000013000000
#02955:63
#0295b:63
#0385a:0000005400440000
#03856:00002464
#03852:0000003400000024
#00452:63
#0045b:53
#0285b:2363
#02858:0033000000230000
#02852:23
#02855:0043000063000000
#01458:0016
#0145b:00000053
#01452:00000016
#02755:0000000016000053
#02758:0000000000000053
#03355:5363
#03352:0023000000000000
#03358:00530000
#0335b:0000002300000000
#04556:630000000000000000000000000000000000000000000000000000000000000000000000000000000000000000000000000000000000000000000000000000000000000000000000000000000000000000000000000000000000000000000000000000000000000000000000006300000000000000000000000000000000000000000000006300000000000000000000000000000000000000000000006300000000000000000000000000000000000000000000000000000000000000000000
#0455b:6300005300000000
#04555:00002323
#04557:00000000000000000053005300530000
#04559:0000000000230000
#04558:00002323
#04554:0000000000230000
#04552:0000006300000000
#05752:13
#05858:0012
#0615c:0012
#06152:0012
#0615b:0000000000000063
#06056:12
#06752:5354
#0675a:00540000
#06756:00000014
#0665b:00000053
#01652:002300000000000000000000000000000000530000000000
#01659:0000002343000000
#01655:000000000053000000000000000000000000000000000000
#0165b:002300000000000000000000000000000000000000000000
#01654:0000002333000000
#01658:000000000063000000000000000000000000000000000000
#0325b:00000023
#07758:00130000
#0775b:00000013
#0815b:0000000000130000
#08158:0000000000000013
#08152:0000000000460036
#08255:0013000000000000
#08252:0000001300000000
#08258:0036004600000000
#08652:00000034
#08656:54000024
#0865a:0024000000000000
#08856:00000063
#0885b:0000006300006300
#08852:00536300
#08756:2400240000642434
#0875a:44000024
#08752:0000340000640034
#0765b:0000002300001300
#07658:00530000
#07652:00530000
#08552:0000000000640034
#08556:00000024
#0855a:0000000000440000
#07552:0063003300005300
#07555:0000230000000023
#07558:00230053
#0755b:0053004300000000
#08058:00630053
#0805b:0000002300000000
#08055:0063
#08052:2300000000230000
#01056:0000000000230000
#0105b:0000000000000053
#01555:0000000000000063
#01558:0000000000000063
#04758:00230000
#04755:00230000
#06252:00000026000000000000000000000000
#06352:00000063
#06458:26
#07455:00000016
#00757:0044
#00752:00000033
#0075b:0043
#00755:00000034
#0003c0:00120000
#000370:0000000000220000
#001360:0000001200000000
#001320:0000000000220000
#002320:00120000
#002370:0000000000220000
#003380:0000001200000000
#0033c0:0000000000220000
#004320:13
#004340:0033000000000000
#004350:00000033230000000000000000000000
#0043b1:13
#004391:0033000000000000
#004381:00000033230000000000000000000000
#004321:0000000000000013
#005321:0033000000000000
#0053b1:0000002300000000
#0043b0:0000000000000013
#005320:0000002300000000
#006380:13
#0063a0:0033000000000000
#0063b0:00000033230000000000000000000000
#006351:13
#006331:0033000000000000
#006321:00000033230000000000000000000000
#006361:0000000000130000
#006321:00000023
#006370:00000013
#0063b0:0000000000000023
#006361:0000000000000013
#007321:23
#007341:0000001400000000
#007371:0024
#007380:0000001300000000
#0073b0:0023
#007350:0000000000130000
#007320:00000023
#007381:0000000000140000
#007351:00000024
#007341:0000000000000014
#008341:24
#007380:0000000000000014
#008380:24
#008370:0000000000130000
#0083b0:0000000000000023
#010360:0000000000130000
#010320:00000023
#0103b1:0000000000132300
#010321:0000000000000013
#011321:23
#0103b0:0000000000000013
#011370:23
#012320:00000013
#012350:0000000000000023
#0133b0:0000001300000000
#013370:0000000000230000
#013360:0000000000000013
#014320:23
#0143b0:00000013
#014380:0000000000000023
#015350:0013000000000000
#015320:00230000
#0153b0:0000001300000000
#015380:0023
#015350:0000000000000013
#016350:330000330053330000000000000000000000000000000000
#016320:005300000000000000000000000000000000000000000000
#016390:0000003300000000
#016340:0023
#015381:0000000000000013
#016381:330000330053330000000000000000000000000000000000
#0163b1:005300000000000000000000000000000000000000000000
#016341:0000003300000000
#016391:0023
#016321:00000013
#016361:0000000000000023
#0173b1:0013000000000000
#017371:00230000
#0183b1:1353535353535353230000000000000000000000000000000000000000000000
#0183a1:00530053005300530053005300530053000000000000000000000000000000000000000000000000000000000000000000000000000000000000000000000000
#018350:1353535353535353230000000000000000000000000000000000000000000000
#018340:00530053005300530053005300530053000000000000000000000000000000000000000000000000000000000000000000000000000000000000000000000000
#0183b0:0013
#018370:00000023
#018360:0000000000000013
#019320:23
#019370:0013000000000000
#0193b0:0000002300000000
#019320:0014
#019360:0000000000240000
#0193a0:00000014
#019360:0000000000000024
#020320:14
#020360:0024000000000000
#0203a0:00140000
#020360:0000002400000000
#020320:00000013
#020350:0000000000000023
#020381:0000000000000013
#0213b1:23
#022361:13
#022321:0023000000000000
#022321:0000001300000000
#022361:0023
#022361:00000013
#022321:0000000000000023
#0233b1:0013
#023371:0000000000230000
#023371:0000000000000013
#0243b1:23
#0243b1:00130000
#024371:0000002300000000
#025361:0012
#025321:0000000000000023
#025380:0012
#0253b0:0000000000000023
#0263b0:13
#026380:0000002200000000
#026321:13
#026361:0000002200000000
#027381:0000000000000013
#0283b1:53
#028381:0023000000000000
#027350:0000000000000013
#028320:53
#028350:0023000000000000
#028350:0013
#028320:0000000000230000
#0283b1:00001323
#028381:0000000000530000
#0293b1:13
#029381:0023000000000000
#029350:13230000
#029320:0053000000000000
#029370:0013
#0293b0:0000000000230000
#0303b0:13
#030370:0023000000000000
#030370:0013
#0303b0:0000000000230000
#0323b0:00000013
#033380:23
#033351:13230000
#033321:0053000000000000
#033380:00132300
#0333b0:0000005300000000
#033351:0013
#033321:00000023
#0353b1:0013
#035371:00000023
#035371:0000000000000013
#0363b1:0023000000000000
#036321:0000001600260000
#036380:0000001600260000
#037360:0013
#037320:00000023
#037320:0000000000000013
#038360:0023000000000000
#0383a0:0000001400240000
#038360:0054
#038360:00000014
#038320:0000000000000034
#039360:24
#039360:0014
#039320:00000024
#039361:00000014
#0403a1:24
#040360:14
#040320:00240000
#040360:0000001400240000
#040320:0034
#0403a1:0000001400240000
#040361:0034
#0413b1:13
#041371:0023000000000000
#041320:0013000000000000
#041360:00230000
#0413b1:00130023
#041371:0033
#041320:0013
#041360:00000023
#042360:13
#042320:0023
#043370:0013
#0433b0:00000023
#043321:0013
#043361:00000023
#044381:0000165626000000
#044361:00000000005800580000000000000000
#044320:000000000000000000000000000000000000000000000000000000000000000000000000000000000000000000000000160000000000000000000058000000000000000000000000560000000000000000000058000000000000000000000000260000000000000000000000000000000000000000000000000000000000000000000000000000000000000000000000000000000000000000000000000000000000000000000000000000000000000000000000000000000000000000000000
#045360:13
#045320:00230000
#0453b1:13
#045371:00230000
#0453b1:0000001300000000
#045351:00003333
#045371:00000000000000000053005300530000
#045391:0000000000330000
#0463b1:23
#045320:0000001300000000
#045380:00003333
#045360:000000000000000000000000000000000000000000000000000000000000000000000000000000000000000000000000000000000000000000000000000000000000000000000000000000000000000000000000000000000000000000000000000000000000000000000000005300000000000000000000000000000000000000000000005300000000000000000000000000000000000000000000005300000000000000000000000000000000000000000000000000000000000000000000
#045340:0000000000330000
#046320:23
#046370:00001323
#0463b0:0000000000530000
#046321:00001323
#046361:0000000000530000
#047381:00130000
#0473b1:0023
#047350:00130000
#047320:0023
#048360:13230000
#048320:0053000000000000
#0483b1:13230000
#048371:0053000000000000
#048361:000000000000000000145400
#0483a1:0000000000000000000000000000000000000000000000000000000000000000000000000000000000000000000000000000000000000000000000000000000000000000000000000000000000000000000000000000000000000000000000000000000000000000000000000000000000000000000000000000000000000000000000000000000000000000000000000000000000000000000000000000000000000000000000000000000000000000000000000000000000000000000000000000000000000000000000000000000000000000000000000000000000000000000000000000000000000000000000000000000000000000000000000000000000000000000000000000000000000000000000000000000000000000000000000000000000540000000000000000000000000000000000000000000000000000
#048321:00000000000000000000005c
#049361:24
#0493a1:0000000014000024
#049351:000000000000000000000000000000000000000000000000000000000000000000000000000000000000000000000000000000000000000000000000000000000000000000000000000000000000000000000000000000000000000000000000000000000000000000000000000000000000000000000000000000000000000000000000000000000000000000000000000000000000000000000000000000000000000000000000000000000000000000000000000000000000000000000000000000000000000000000000000000000000000000000000000000000000000000000000000000000000000000000000000000000000000000000000000000000000000000000000000000000000000000000000000000000000000000000000000000000000000000000000000000000000000000000000000000000000000000000000000000000000000000000000000000000000000000000000000000000000000000000054000000000000000000000000000000000000000000000000000000000000000000000000000000000000000000000000000000000000000000000000000000000000000000000000000000000000000000000000000000000000000000000000000000000000000000000000000000000000000000000000
#049371:00000054
#050361:0000000000000012
#050341:00000000000000000000000000000032
#051321:32220000
#050380:0000000000000012
#0503a0:00000000000000000000000000000032
#0513c0:32220000
#052320:14
#052360:00240000
#0523a1:00140000
#052361:0024
#052320:0014
#052360:0000000000000054
#053320:00240000
#053360:00000014
#0543a0:24
#054350:0013000000000000
#054320:00230000
#0543b0:0000001300000000
#054380:0023
#0543a0:00000014
#055360:34
#0553a0:00240000
#055320:0014
#056330:0022
#0573a0:14
#0583b0:22
#058330:0012
#059320:0024
#0603b0:12
#0613a0:24
#061321:12
#061361:0022000000000000
#0613c1:00120000
#061381:0000002200000000
#0613b1:000000000000000000000000000000000000000000133333
#0623b1:333333333333333333333333230000000000000000000000
#062321:00000056000000000000000000000000
#063321:000000000000000000000000000000000000133333333333
#064381:36
#064321:003333333333230000000000000000000000000000000000
#0663b1:00000013
#067371:23
#067320:13
#067360:00230000
#0673a1:00140000
#067361:0024
#067320:0014
#067360:00000024
#069390:00000013
#069370:0000000000000053
#070390:23
#069341:00000014
#069321:0000000000000054
#070341:34342400
#070361:0054000000000000
#070321:0000005400000000
#070390:00132300
#070370:0000005300000000
#070370:00000013
#0703b0:00000000000000000000000000000053
#071370:0023000000000000
#071320:0000130000230000
#071360:00000000000000530000000000000000
#071370:00000013
#0723b0:23
#0723b0:0013
#072370:00000023
#075320:0013002300000000
#075350:00530000
#0753b1:0013002300000000
#075381:00530000
#075381:00000013
#0753b1:0000000000000023
#075320:00000013
#075350:0000000000000053
#076320:23
#076320:00130000
#076350:0000002300000000
#076381:00132300
#0763b1:0000005300000000
#076361:00000013
#076321:0000000000000023
#077321:00130000
#077361:0000002300000000
#077361:00000013
#077321:0000000000000023
#080321:13
#080351:00230000
#080380:00132300
#0803b0:0000005300000000
#080351:00001323
#080321:0000000000530000
#080380:00000013
#0813b0:23
#082320:00000013
#083360:23
#083360:0013000000000000
#083320:0000002300000000
#083380:0000000000160026
#083321:0000000000160026
#084371:00000013
#0853b1:23
#0853b1:0013000000000000
#085371:0000002300000000
#085321:0000000000140024
#085361:00000054
#086361:14240000
#0863a1:0034000000000000
#086361:00000014
#0873a1:24
#087360:14
#087320:00240000
#087361:00140000
#0873a1:0024
#087361:0000000000140024
#0873a1:00000034
#087320:0000000000140024
#087360:00000034
#088320:00130000
#088360:0000002300000000
#0883b1:0000001300000000
#088371:0023
#088320:0013
#088360:00000033
#089320:23
#0883b1:00000013
#089371:23
#0893b1:00130000
#089371:0023
#089321:00000013
#090361:23
#0903b1:00130000
#090371:0023
#090361:00000013
#090321:0000000000000023
#091371:13
#0913b1:0023000000000000
#091361:00130000
#091321:0000002300000000
