This file was generated by Ched 2.7.0.0.
#TITLE ""
#ARTIST ""
#DESIGNER ""
#DIFFICULTY 0
#PLAYLEVEL
#SONGID ""
#WAVE ""
#WAVEOFFSET 0
#JACKET ""
#REQUEST "ticks_per_beat 480"
#00002: 4
#BPM01: 171
#00008: 01
#TIL00: ""
#HISPEED 00
#MEASUREHS 00
#0041a:14141400
#00512:14141400
#0081a:14141400
#00912:14141400
#01018:1414
#01014:00140014
#01113:14140000
#01119:14140000
#01218:0014
#01214:00000014
#01210:0041
#01318:14000014
#01314:0014
#01414:14000014
#0141a:0014
#0151a:14
#01512:0014
#01518:00000014
#01612:14
#0161a:0014
#01614:00000014
#01718:14000014
#01712:0014
#01814:14000014
#0181a:0014
#0191a:14
#01918:0014
#01912:00000014
#01914:00140000
#02018:14
#02012:00140000
#02010:0041
#02512:14
#02514:00140000
#0261a:14
#02618:00140000
#02714:00000014
#0271a:0024
#0281a:14
#02814:00140000
#03119:00001414
#03113:0000000000140014
#03110:0041
#03219:14
#03214:00141400
#03218:0000001400000000
#0321a:00000014
#02918:00000014
#02912:0014
#03012:14
#03018:00140000
#03314:1414
#0331a:00140000
#03313:0000000000000034
#0351a:0014
#03514:00000014
#03618:14
#03612:00140000
#0361a:0014
#03712:0014
#03718:00000014
#03814:14
#0381a:00140000
#03812:0014
#0391a:0014
#03914:00000014
#04018:1414
#04012:00140000
#04014:00000014
#0411a:14
#04118:0014
#04214:0014
#05014:00140000
#0501a:1414
#0491a:0014
#04914:00000014
#05118:00140014
#05112:1414
#05212:14
#05218:00140000
#05518:00001414
#05510:0041
#05614:00141400
#0571a:14140000
#05712:00000014
#05812:14
#0581a:0014
#05814:00000014
#05918:00140000
#05912:0014
#0601a:14
#06014:00140000
#06018:00000014
#06112:14
#06116:00140000
#0611a:0014
#0611f:0011
#06718:1414
#06714:00140000
#06712:00000014
#0671a:00000014
#0681a:00000014
#06914:14
#0691a:00140000
#06912:00000014
#07018:14
#07012:00140000
#0701a:00000014
#07112:14000014
#0711a:00140014
#07213:00000014
#07219:0000000000000014
#07313:14140000
#07318:00001414
#07314:0000000000140000
#07319:0014000000000000
#07514:14
#07518:00140000
#07512:0014
#07510:00000041
#07818:00000014
#07812:0000000000000014
#07919:14
#07913:0014000000000000
#0791a:00140000
#07914:0014
#07918:0000000000140000
#07912:00000014
#07718:14
#07714:00140000
#0771a:0014
#07612:00000014
#08018:14
#08014:00140000
#0801a:0014
#08012:00000014
#0821a:00000014
#08312:14
#08318:00140000
#08314:0014
#0831a:00000014
#08618:00000014
#08614:14
#08712:14
#0871a:00140014
#08714:0014
#08812:14
#08818:00140000
#0881a:00000014
#0901a:00000014
#08418:14
#08412:00000014
#0851a:14
#08514:00140000
#08518:0014
#08512:00000014
#08912:00000014
#00714:14141400
#00618:14141400
#0621a:00140000
#06212:0014
#06318:14
#06314:00140000
#0631a:00000014
#06412:14000014
#0641a:0014
#06514:00140014
#06518:0014
#0651a:14
#0661a:1414
#06612:00140000
#06614:00000014
#0741a:00000024
#0741f:00000021
#08113:0034000000000000
#04310:0041
#02552:54
#02554:00240000
#0265a:64
#02658:00240000
#03354:0064
#0365a:0064
#03852:0054
#0415a:64
#04158:0054
#04254:0064
#0425a:14
#0505a:0014
#0615a:0014
#0835a:00000064
#08858:00540000
#0885a:00000064
#0905a:00000064
#08458:24
#08552:00000054
#08654:24
#08952:00000054
#08958:00140000
#08052:00000054
#0003a0:1400000000000024
#002320:1400000000000024
#0203a0:00001434
#0213a0:34240000
#022320:14343424
#023380:00001434
#024380:34240000
#025320:1424
#025340:00540000
#0263a0:1424
#026380:00540000
#028380:00001424
#028321:00001424
#029341:14240000
#0293a0:14240000
#030340:00001424
#0303a1:00001424
#031381:14240000
#031320:14240000
#033340:0014
#033330:0000000000000034
#034320:34
#035320:00240000
#0363a0:0014
#037380:24
#038320:0014
#039340:24
#0413a0:14
#041380:0034
#0423a0:24
#042340:0014
#043320:24
#0433a0:0014
#043390:00000034
#044380:34
#044370:00240000
#045320:14
#045330:00340000
#045340:0034
#045350:00000024
#0463a0:0014
#046390:00000034
#047380:34
#047370:00240000
#048320:14
#048330:00340000
#048340:0034
#048350:00000024
#052320:0014
#053340:00240000
#0543a0:14
#054380:00000024
#075380:00000014
#0763a0:24
#075321:00000014
#076341:24
#076341:00140000
#076321:0024
#0763a0:00140000
#076380:0024
#077340:00000014
#078320:24
#0773a1:00000014
#078381:24
#078381:00140000
#0783a1:0024
#078320:00140000
#078340:0024
#080320:00000014
#081330:0034000000000000
#081340:00340000
#082340:0024
#0833a0:00000014
#084380:54
#0843a0:00240000
#085320:00000014
#086340:54
#086320:00240000
#088380:00140000
#0883a0:00000034
#089380:00240000
#089320:00000014
#090340:00240000
#0903a0:00000014
#091380:00240000
#091320:00000014
#092340:0034000034000000
#092320:0000000000000024
