This file was generated by Ched 2.7.0.0.
#TITLE ""
#ARTIST ""
#DESIGNER ""
#DIFFICULTY 0
#PLAYLEVEL
#SONGID ""
#WAVE ""
#WAVEOFFSET 0
#JACKET ""
#REQUEST "ticks_per_beat 480"
#00002: 4
#BPM01: 192
#00008: 01
#TIL00: ""
#HISPEED 00
#MEASUREHS 00
#0021a:14
#0031a:14
#00412:14
#00512:14
#0101a:14
#01010:41
#0661a:14
#06612:0014
#0671a:14
#06712:0014
#04918:0016
#05012:16
#05018:0016
#05218:16
#05212:0016
#05712:0016
#05818:16
#05812:0016
#06012:16
#06018:0016
#06010:41
#0261a:14
#02714:14
#02818:14
#02912:14
#02910:41
#03018:14
#03112:14
#0321a:14
#03314:14
#01112:14
#0121a:14
#01312:14
#01418:14
#01514:14
#01618:14
#01714:14
#0181a:14
#01914:14
#0201a:14
#02010:41
#02114:14
#02218:14
#02312:14
#02418:14
#02512:14
#00618:14
#00718:14
#00814:14
#00914:14
#04519:14
#04513:14
#0381f:11
#04618:26
#0461f:21
#04812:26
#05412:26
#05618:26
#04710:41
#03710:41
#0343a0:14
#0353a0:24
#036320:14
#037320:24
#038380:14
#039380:24
#040340:14
#041340:24
#0423a0:14
#0443a0:24
#046380:16
#047380:26
#048320:16
#049320:26
#051320:1626
#053380:1626
#054320:16
#055320:26
#056380:16
#057380:26
#059380:1626
#061320:1626
#062380:14
#063380:24
#064340:14
#065340:24
#0683a0:1424
#069320:1424
#070380:1424
#071340:14
#072340:24
