This file was generated by Ched 2.7.0.0.
#TITLE ""
#ARTIST ""
#DESIGNER ""
#DIFFICULTY 0
#PLAYLEVEL
#SONGID ""
#WAVE ""
#WAVEOFFSET 0
#JACKET ""
#REQUEST "ticks_per_beat 480"
#00002: 4
#BPM01: 192
#00008: 01
#TIL00: ""
#HISPEED 00
#MEASUREHS 00
#04912:1300000000130000
#0491b:1300001300000023
#04919:0013
#04917:0000000000130000
#04916:0000001300000023
#0521b:1300001300000000
#05218:0000130013000013
#05215:0000001300001300
#05212:0000000000130000
#05216:13
#0621b:1300001300001300
#06215:1300000000130000
#06218:0013000013000000
#06212:0000130013000013
#04312:0000000000000013
#04317:0000130000001313
#0431b:1313
#04415:0013000013130000
#04412:00130013
#04418:0000131300001313
#0441b:0013
#01012:0000001300000000
#01019:2413
#01016:0000000000130000
#01017:0000001300000013
#0101b:0000000000130000
#01013:24
#01010:41
#01116:0013000000130000
#01117:0000001300000000
#01114:0013
#0111b:0000000000130000
#01112:0000000000000013
#01212:1300000000130000
#0121b:0000131300000000
#01312:1300001300000013
#01314:0013
#01316:0000000000130000
#01317:0000001300000000
#01319:0013
#0141b:13
#01415:00130000
#01416:0000000000130000
#01418:0013000000000013
#01412:0000001300001300
#01417:0000001300000000
#01512:13000013
#01518:00130000
#01516:0000001300000000
#01515:0013000000000000
#01514:0000000000000013
#0151b:1300001300000000
#01517:00000013
#01616:13
#01612:00130000
#0161b:0000000000130000
#01617:0000001300000000
#01615:0000000000000013
#01618:0000000000000013
#02917:0000001300000013
#02912:0000001300000013
#02914:13
#0291b:0013000000000000
#02919:00130000
#02916:0013000000000000
#02910:41
#03018:0000130013000013
#03015:1300001300001300
#0301b:0013000000130000
#03012:0000000000130000
#0021b:13131313
#00216:1313
#00312:12
#00315:00120000
#00319:0012
#0031c:00000012
#00412:13131313
#00417:1313
#0051c:12
#00519:00120000
#00515:0012
#00512:00000012
#00617:1313
#0061b:00130013
#00612:1313
#00718:12
#0071a:00120000
#00714:0012
#00716:00000012
#00816:1313
#00812:00130013
#0081b:1313
#00916:12
#00914:00120000
#0091a:0012
#00918:00000012
#02612:00130013
#0261b:0000001300000013
#02615:0000000013000013
#02618:0013000000130000
#04616:0000001400000000
#04615:24000014
#04613:0000000000000014
#04619:0000000000000014
#0461a:24
#0461f:21
#04712:1400000000000013
#04716:00140000
#04717:1414
#0471b:0000000000000013
#04710:41
#04812:00130000
#04815:13
#0481b:00130000
#04818:13
#04814:0000000000000013
#04819:0000000000000013
#04816:00000014
#05112:0000001300000000
#0511b:0000001300000000
#0531b:13
#05317:0000001300000000
#05315:1300000000001314
#0531a:0000000000000014
#06112:1300000000000013
#06116:0000001300000000
#06118:13000013
#06312:0000130000130000
#0631b:1300001300000013
#06315:13
#06318:0013000000000000
#06316:0000001300000000
#06412:1300001300001300
#06418:1300000000130000
#06415:0013000013000000
#0641b:0000130013000013
#0651b:0000130000130000
#06512:1300001300000000
#06518:13
#06515:0013000000000000
#06517:0000001300000000
#06612:13
#06618:00130000
#0661b:00000013
#06615:0013
#06816:13
#06817:00130000
#0681b:13000013
#06812:0013
#0691b:1300000000130013
#06916:0000000000130013
#06914:0013
#06917:00130000
#06919:0013
#06912:0013001300000000
#07116:0000131300000000
#07118:0000000000160016
#07112:13000016
#07117:13
#0711b:0000001300000000
#07017:1300000000000013
#07016:00130000
#07012:1300000000000013
#0701b:0013
#05615:00130000
#05612:13
#05618:00130000
#0561b:13000013
#05616:00000013
#05619:0000000000000013
#05614:0000000000000013
#04512:0000000000000014
#04517:0000000013000014
#04513:00000000000033330000140000000000
#04519:00003333000000000000140000000000
#04516:13
#04514:00000000003300000000000000000000
#0451a:00330000000000000000000000000000
#05717:1300000000000013
#0571b:00130000
#05712:13
#05716:00130000
#05812:1300000000000013
#0581b:0013001300000000
#05817:0000000000001313
#05816:0000131300000000
#05916:0000130000000013
#05914:0000001300000000
#05917:0013
#0591b:0000000000000013
#05912:0013
#06012:1300001300000000
#06015:0000130013000013
#06018:0000001300001300
#0601b:0000000000130000
#06017:13
#06010:41
#05012:0000001300000023
#05014:00001333
#05016:0000000000130000
#0501b:0000000000130000
#05017:0000001300000023
#05019:00000033
#03412:00131313
#03512:1300130013001325
#03519:0000000000000025
#0361b:00131313
#0371b:13131300
#03719:00000013
#03714:00000013
#03710:41
#04017:13
#0401b:0000130000000013
#04016:0000001300000013
#04012:0000000000130000
#04112:1300000013000013
#0411b:00130013
#04118:0013000000130000
#04115:0000001300000000
#04212:1313
#04216:00130013
#02719:13
#02714:00130000
#0271b:0000001300000000
#02716:0000001300000000
#02717:0013000000000013
#02712:0013000000000013
#02815:0013000000130000
#0281b:00130013
#02812:0000001300000013
#02818:0000000013000013
#02516:1400000000000013
#0251b:0000000000000013
#0251a:00140000
#02512:1414
#03115:13
#0311b:0013000000000000
#03119:00130000
#03117:0000001300000000
#03112:0013000000000013
#03218:00000013
#03212:0000001300000000
#03215:13
#0321b:13
#03318:0013000013000000
#03315:1313
#03312:0000131300000025
#0331b:0000131300000000
#03319:0000000000000025
#05416:0000001400000000
#05417:24000014
#05413:0000000000000014
#05419:0000000000000014
#05412:24
#0551a:14
#05516:00140000
#05515:1414
#0551b:0000000000000013
#05512:0000000000000013
#03918:1313
#0391b:00130013
#03912:0013000000130013
#03914:13131300
#03916:0000001300000000
#0381b:0013000000130013
#03819:13131300
#03815:1313
#03812:00130013
#03817:0000001300000000
#0381f:11
#02412:00140000
#02416:14
#0241a:1414
#0171b:1300000000130000
#01715:0000001300000000
#01712:0013000013000000
#01718:0000001300000000
#0181b:0000001300130000
#01814:0013
#01812:0000000000130013
#01816:0000001300000000
#01819:24
#01813:24
#0191b:0013000000000013
#01912:0000001300130000
#01917:0000000000130000
#02017:13
#02012:00130000
#0201b:0000000000130000
#02016:0000001300000000
#02010:41
#02212:13
#02218:00130000
#02217:0000000000130000
#02215:0013000000000013
#0221b:0000001300001300
#02216:0000001300000000
#02119:0013
#0211b:0000001300000013
#02117:0000000000130000
#02116:0000001300000000
#02114:0013
#02118:13
#0231b:1300000000130000
#02315:00130000
#02317:0000001300000000
#02318:0013000000000000
#02312:1300001300000000
#02316:0000000013000014
#07212:16
#0465a:64
#04656:0000002400000000
#04752:54
#04756:00240000
#04852:00230000
#04855:53
#0485b:00230000
#04858:63
#0495b:4300000000000013
#04952:3300000000530000
#04956:0000000000000013
#04957:0000000000530000
#05152:0000005300000000
#0515b:0000005300000000
#0525b:0000005300000000
#05258:0023
#05252:0000000000630000
#05255:00000023
#05256:53
#0535b:53
#05357:0000002300000000
#0635b:0000005300000000
#06352:0000000000130000
#0655b:0000000000130000
#06552:0000006300000000
#06857:00230000
#0685b:63
#06852:0013
#07056:00230000
#07052:53
#0705b:0013
#07156:0000006300000000
#07157:53
#05655:00230000
#05652:63
#05658:00230000
#0565b:53
#06052:0000006300000000
#06055:0023
#0605b:0000000000530000
#06058:00000023
#06057:63
#06152:63
#06156:0000002300000000
#05857:0000000000000023
#05856:0000002300000000
#05957:0013
#05056:0000000000630000
#0505b:0000000000630000
#05057:0000000000000013
#05052:0000000000000013
#04357:0000000000000063
#04056:0000000000000063
#04158:0063000000630000
#04155:0000006300000000
#04152:2323
#0415b:00230023
#02756:0000006300000000
#0275b:0000006300000000
#02757:0000000000130053
#02752:0000000000130000
#02952:0000005300000053
#02957:0000005300000000
#02956:0000000000130000
#0295b:0000000000130000
#02556:5400000000000063
#0255a:00240000
#05456:0000002400000000
#05452:54
#0555a:64
#05556:00240000
#03355:0023
#03358:0023
#0335b:0000005300000000
#03352:0000005300000000
#03255:53
#03252:0000002300000000
#03055:23
#02456:64
#02452:00240000
#0175b:23
#01755:0000005300000000
#01752:0023
#01658:0000000000000063
#01056:0000000000630000
#01057:0000000000000063
#01156:0063000000000000
#0115b:0000000000130000
#01352:13
#01457:0000005300000000
#01556:0000001300000000
#0195b:0053000000000000
#01952:0000000000130000
#0185b:0000000000530000
#01852:0000000000000053
#02256:0000006300000000
#02357:0000001300000000
#02356:0023
#02352:0000005300000000
#03952:0023000000230000
#03954:63536300
#03956:0000002300000000
#02158:13
#05757:5333
#0575b:00230000
#05752:5333
#05756:00230000
#03859:53635300
#03857:0000002300000000
#0385b:0023000000230000
#07252:16
#03754:00000013
#03759:00000013
#04553:0000000000140000
#04559:0000000000140000
#007320:12220000
#0073c0:00001222
#0093c0:12220000
#009320:00001222
#010360:0000000000130000
#010320:0000000000000023
#010371:0000000000000013
#0113b1:0023000000000000
#011360:0013000000000000
#011320:0000002300000000
#011370:0000000000000013
#012370:23
#012360:0000132300000000
#0123b0:0000000000132300
#012351:0000000000001323
#012380:0000000000000013
#013380:23
#0133b0:0000000000130023
#014370:0000001300000000
#0143b0:0000000000230000
#0163b0:13
#016370:00230000
#016320:0000001300000000
#016360:0000000000230000
#016380:0000000000000013
#0173b0:53
#017380:0023000000000000
#017350:0000001300230000
#017320:0053
#0183b0:0000000000130000
#018370:0000000000000023
#018321:0000000000000013
#019361:0023000000000000
#0193b0:0013000000000000
#019370:0000002300000000
#019360:0000000000000013
#020320:23
#020370:00130000
#0203b0:0000002300000000
#020320:0000000000130000
#020350:00000023
#020381:00000013
#0203b1:0000000000000023
#020350:0000000000000013
#021320:23
#021320:0000000000130023
#022360:0000001300000000
#022320:0000000000230000
#023320:0000001300230000
#023360:0053
#024360:1424
#024320:00540000
#025360:1424
#0253a0:00540000
#025360:0000000000000013
#026320:0023000000000000
#0273b0:0000001300000000
#027370:0000000000230000
#027361:0000001300000000
#027321:0000000000230000
#027371:0000000000000013
#0283b1:0023000000000000
#029321:0000001300000000
#029361:0000000000230000
#029370:0000001300000000
#0293b0:0000000000230000
#029320:0000000000000013
#030350:53
#030320:0023000000000000
#031320:0000001300000000
#031360:0000000000230000
#0313b1:0000000000130000
#031371:0000000000000023
#032351:13000023
#032321:0000005300000000
#0333b1:0000001300230000
#033381:0053
#033320:0000001300230000
#033350:0053
#034370:0013230000000000
#0343b0:0000001323000000
#034370:0000000000132300
#0343b0:0000000000000013
#035370:23
#035370:0013000000000000
#0353b0:00230000
#0353b0:0000001300000000
#035370:0023
#035370:0000000000130000
#0353b0:00000023
#036360:0013230000000000
#036320:0000001323000000
#036360:0000000000132300
#036320:0000000000000013
#037360:23
#037360:0013000000000000
#037320:00230000
#037320:0000001300000000
#037360:0023
#038390:13535323
#0383b0:0053000000530000
#038370:0000005300000000
#039340:13535323
#039320:0053000000530000
#039360:0000005300000000
#040320:13
#040360:00230000
#0403b0:0000001300000000
#040370:0000000000230000
#040360:0000000000000013
#041320:53
#041350:0023000000000000
#041381:0013002300000000
#0413b1:00530000
#041350:0000001300230000
#041320:0053
#041381:0000000000130000
#0413b1:00000053
#041371:0000000000000023
#042371:1333
#0423b1:00330023
#043361:1333
#043321:00330023
#043371:0000000000000013
#0443b1:0023000000000000
#0453b1:13
#0453a1:00330000000000000000000000000000
#045391:00003333000000000000000000000000
#045381:00230000
#045350:00130000
#045340:00000000003300000000000000000000
#045330:00000000000033330000000000000000
#045320:0023
#0463a0:14000024
#046360:0000005400000000
#047320:1424
#047360:00540000
#048350:1323
#048320:00530000
#048381:1323
#0483b1:00530000
#049321:0000000013330000
#049361:0000000000000023
#049370:0000000000130000
#0493b0:0000000000000023
#0503b0:0000000013330000
#050390:00000033
#050370:0000000000000023
#050361:0000000000130000
#050341:00000033
#050321:0000000000000023
#051321:0000001300000000
#051351:00000023
#0513b0:0000001300000000
#051380:00000023
#052360:13
#052320:00230000
#0523b0:0000001300230000
#052380:0053
#052321:0000000000130023
#052351:00000053
#0533b1:13000023
#053371:0000005300000000
#054321:14000024
#054361:0000005400000000
#0553a1:1424
#055361:00540000
#056321:1323
#056351:00530000
#0563b0:1323
#056380:00530000
#057370:1323
#0573b0:00530000
#057321:1323
#057361:00530000
#058361:0000001300000000
#058321:00000023
#058371:0000000000000013
#0593b1:00230000
#060371:13
#0603b1:00230000
#060321:0000001300230000
#060351:0053
#0603b0:0000000000130023
#060380:00000053
#061320:13000023
#061360:0000005300000000
#0633b0:0000001300000000
#063370:0000000000230000
#065320:0000001300000000
#065360:0000000000230000
#0663b0:1323000000000000
#066350:0000132300000000
#066380:0000000013230000
#066320:0000000000001323
#0673b0:1323000000000000
#067361:1323000000000000
#067321:0000132300000000
#067370:0000132300000000
#0673b0:0000000013230000
#067361:0000000013230000
#067321:0000000000001323
#067370:0000000000001323
#0683b0:1323
#068370:00530000
#068360:00000013
#069360:23
#070320:1323
#070360:00530000
#071370:13
#0713b0:00230000
#071360:0000001300000000
#071320:0000000000230000
