This file was generated by Ched 2.7.0.0.
#TITLE ""
#ARTIST ""
#DESIGNER ""
#DIFFICULTY 0
#PLAYLEVEL
#SONGID ""
#WAVE ""
#WAVEOFFSET 0
#JACKET ""
#REQUEST "ticks_per_beat 480"
#00002: 4
#BPM01: 192
#00008: 01
#TIL00: ""
#HISPEED 00
#MEASUREHS 00
#0021b:1313
#00215:00130013
#0031b:13
#00318:00130000
#00312:0013
#00315:00000013
#00418:1313
#00412:00130013
#0061b:13
#00615:00130000
#00618:0013
#00612:00000013
#0081b:13
#00815:00130000
#00818:0013
#00812:00000013
#0071b:13
#00718:00130000
#00712:0013
#00715:00000013
#00918:13
#0091b:00130000
#00915:0013
#00912:00000013
#0101b:0000001300000000
#01015:0013
#01018:0000000000130000
#01019:24
#01013:24
#01010:41
#01118:0000001300000000
#01115:0013
#0111b:0000000000130000
#01112:0000000000000013
#01218:13000013
#01215:0000130000130000
#0121b:0000001300000000
#01212:0000000000000013
#0131b:13
#01315:0000001300000000
#01318:0013
#0141b:1300000000130013
#01415:0013000000001300
#01418:00130000
#01412:0000001300000000
#01515:13000013
#01518:0013001300000000
#01512:00130000
#0151b:0000000000000013
#01812:0000001300000000
#01818:0013
#01815:0000000000130000
#01819:24
#01813:24
#01915:0000001300000000
#01918:0013
#01912:0000000000130000
#0191b:0000000000000013
#02015:13000013
#02018:0000130000130000
#02012:0000001300000000
#0201b:0000000000000013
#02010:41
#02112:13
#02118:0000001300000000
#02115:0013
#02212:1300000000130013
#02218:0013000000001300
#02215:00130000
#0221b:0000001300000000
#02318:1300000000000013
#02315:0013000000000000
#0231b:00130000
#0251b:0000000000000013
#02515:1300000000000013
#02618:0013001300000000
#02612:00131300
#0261b:0000000000130013
#02615:00000013
#02715:13
#02718:0013000000000013
#02712:0000130000000013
#02815:0013001300000000
#0281b:00131300
#02812:0000000000130013
#02818:00000013
#02918:13
#02915:0013000000000013
#0291b:0000130000000013
#02910:41
#03018:0013000000130000
#03012:00130013
#0301b:0000001300000013
#03015:0013
#03115:13
#03118:0013000000000000
#03112:0000130000000013
#03215:00000013000000000000000013000000
#0321b:00000013
#03318:13
#03312:0013000000000024
#0331b:00130000
#0331a:0000000000000024
#0341b:0013000000000000
#03416:00130000
#03417:0000000000130013
#03419:0000001300000000
#03414:0013
#03412:00000013
#03514:13
#03519:0013000000000000
#03516:00130000
#0351b:0000001300000000
#03515:0000000000130000
#03518:00000013
#03512:0000000000000024
#0351a:0000000000000024
#03612:0013000000000000
#03617:00130000
#03616:0000000000130013
#03614:0000001300000000
#03619:0013
#0361b:00000013
#03719:13000013
#03714:0013000000001300
#03717:00130000
#03712:0000001300000000
#03710:41
#03818:00000013
#0381f:11
#03915:0000000000000013
#04315:00000013
#04318:0000000000000013
#04412:0013000000130000
#0441b:00130013
#04418:0013
#04415:0000001300000013
#0451a:1400000014140000
#04512:0014000014140000
#04518:00140000
#04514:0000001400000014
#0471b:0000000000000013
#04715:0000140000000013
#04712:14
#04710:41
#04617:0000001400000000
#04612:0000000000000014
#0461a:24
#0461f:21
#0481b:13
#04818:00130013
#04815:1300000000000013
#04812:00130000
#0491b:1300000000000023
#04912:1313
#04918:0000001300130000
#05015:0000001300130000
#0501b:0013
#05012:0000000000000023
#05013:00000033
#05118:0000001300000000
#05112:0000001300000000
#05318:0000000000000014
#05517:00140000
#0551a:14
#05512:0000000000000013
#05518:0000000000000013
#05415:0000001400000000
#0541a:0000000000000014
#05412:24
#05615:00130013
#05618:1300000000000013
#05612:13
#0561b:00130000
#05915:0000000000000013
#05912:0000001300000000
#05918:0013
#05712:13
#0571b:13
#05717:0000000000000013
#0621b:1313
#06215:0013000000130000
#06218:00130013
#06212:0000001300000013
#06112:0000000000000013
#0631b:1300000000000013
#06315:0013000000000000
#06318:00130000
#06312:0000001300000000
#06412:1313
#06418:0013000000130000
#06415:00130013
#0641b:0000001300000013
#06512:13
#06518:0013000000000000
#06515:00130000
#0651b:0000001300000000
#06818:13000013
#06812:13000013
#0691b:1313
#06915:0013000000130000
#06918:0000130000000013
#06912:0000001300000000
#07018:0000000000000013
#07012:0000130000000013
#07015:13
#07118:1300000000140014
#07112:13000014
#07115:0000131300000000
#0711b:0000131300000000
#07212:14
#04018:1300000000000013
#04015:0000001300000000
#04012:0000000000000013
#0411b:0000001300000000
#04115:0000001300000000
#04118:0000000000000013
#04112:0000000000000013
#05215:1300000000000013
#05218:0000001300000000
#06018:1300000000000013
#06015:0000001300000000
#06010:41
#05812:13
#05818:0000000000000013
#05815:0000001300000000
#0581b:00130000
#06618:13
#06612:13
#06615:0013
#0661b:0013
#06718:13
#06712:13
#06715:0013
#0671b:0013
#00512:00000013
#00515:0013
#0051b:00130000
#00518:13
#04215:00000000000000000000001300000000
#0421b:00000000000000000000001300000000
#0115b:0000000000130000
#0135b:13
#01558:0000001300000000
#01952:0000000000130000
#02152:13
#03152:0000000000000053
#03255:00000023000000000000000000000000
#04657:0000002400000000
#0465a:64
#04755:00240000
#04752:54
#0485b:63
#04855:63
#04852:00230000
#04858:00230000
#04952:13
#0495b:1300000000000013
#04958:0000000000530000
#05052:0000000000000013
#05055:0000000000630000
#05152:0000005300000000
#05158:0000005300000000
#05557:00240000
#0555a:64
#05455:0000002400000000
#05452:54
#05652:53
#05658:53
#05655:00230000
#0565b:00230000
#05758:0013
#05755:0013
#0575b:63
#05752:53
#06355:0000000000130000
#06352:0000005300000000
#0655b:0000006300000000
#06558:0000000000130000
#07252:14
#07052:00230000
#07055:63
#06852:53
#06858:53
#02555:63
#02358:0000000000000053
#04152:0000000000000053
#04158:0000000000000053
#04155:0000006300000000
#0415b:0000006300000000
#04052:0000000000000053
#04058:5300000000000053
#04055:0000006300000000
#05258:0000005300000000
#05255:6300000000000063
#06055:0000006300000000
#06058:5300000000000053
#05958:0013
#05858:0000000000000053
#05855:0000006300000000
#06655:0063
#0665b:0063
#06658:23
#06652:23
#06758:53
#06752:53
#06755:0023
#0675b:0023
#04255:00000000000000000000002300000000
#0425b:00000000000000000000002300000000
#010350:0000000000000013
#011320:0023000000000000
#013320:0000000000130000
#013350:0000000000000023
#016350:13
#016320:00230000
#016380:0000001300000000
#0163b0:0000000000230000
#016320:0000000000000013
#017350:0023000000000000
#0173b0:0000001300000000
#017380:0000000000230000
#018380:0000000000000013
#0193b0:0023000000000000
#0213b0:0000000000130000
#021380:0000000000000023
#023350:0000001300000000
#023320:0000000000230000
#023380:0000000000000013
#0243b0:0023
#025350:13
#025320:0023
#027380:0000001300000000
#0273b0:0000000000230000
#029350:0000001300000000
#029320:0000000000230000
#0313b0:0000001300000000
#031380:0000000000230000
#031320:0000000000000013
#032350:00000053000000000000000000000000
#032320:0023
#033350:0000001300000000
#033320:0000000000230000
#038380:13
#0383b0:0023
#038350:0000000000000013
#039320:0023
#040380:13
#0403b0:00230000
#040350:0000001300000000
#040320:0000000000230000
#040380:0000000000000013
#0413b0:0023000000000000
#040321:0000000000000013
#041351:0023000000000000
#041351:0000001300000000
#041321:0000000000230000
#0413b0:0000001300000000
#041380:0000000000230000
#041380:0000000000000013
#0423b0:00000000000000000000005300000000
#043380:0023
#041321:0000000000000013
#042351:00000000000000000000005300000000
#043321:0023
#0463a1:14000024
#046371:0000005400000000
#047321:1424
#047351:00540000
#0483b1:1323
#048381:00530000
#048350:1323
#048320:00530000
#049380:0000000000130000
#0493b0:0000000000000023
#050350:0000000000130000
#050330:00000033
#050320:0000000000000023
#051380:0000001300000000
#0513b0:00000023
#051321:0000001300000000
#051351:00000023
#052351:13
#052321:00230000
#052381:0000001300000000
#0523b1:0000000000230000
#052351:0000000000000013
#053321:0023
#054321:14000024
#054351:0000005400000000
#0553a1:1424
#055371:00540000
#056321:1323
#056351:00530000
#056380:1323
#0563b0:00530000
#0573b0:13
#057380:0023
#057321:13
#057351:0023
#058351:0000001300000000
#058321:00000023
#058381:0000000000000013
#0593b1:00230000
#060381:13
#0603b1:00230000
#060351:0000001300000000
#060321:0000000000230000
#060381:0000000000000013
#0613b1:0023
#063321:0000001300000000
#063351:0000000000230000
#0653b1:0000001300000000
#065381:0000000000230000
#066321:13
#066351:00230000
#066380:13
#0663b0:00230000
#0663b0:0013
#066380:00000023
#066351:0013
#066321:00000023
#067321:13
#067351:00230000
#067380:13
#0673b0:00230000
#0673b0:0013
#067380:00000023
#067351:0013
#067321:00000023
#068321:13
#068351:0023
#068380:13
#0683b0:0023
#070350:1323
#070320:00530000
