This file was generated by Ched 2.7.0.0.
#TITLE ""
#ARTIST ""
#DESIGNER ""
#DIFFICULTY 0
#PLAYLEVEL
#SONGID ""
#WAVE ""
#WAVEOFFSET 0
#JACKET ""
#REQUEST "ticks_per_beat 480"
#00002: 4
#BPM01: 192
#00008: 01
#TIL00: ""
#HISPEED 00
#MEASUREHS 00
#04912:13000000000000000000001300000000
#0491b:1300001300000023
#04919:0013
#04916:00000000000000130000000000002300
#04914:00000000000000000013000000000000
#04917:0000000000130000
#05212:1300000013000013
#05216:0000131300000000
#0521b:0000001300001300
#05218:0000000013130000
#05217:13
#05214:0013000000000000
#05215:00000013
#0621b:1300131300001300
#06218:00001300000000000013001300000000
#06212:0000130013001313
#06215:00130013000000000000130000000000
#06217:0000000000000013
#06216:0000001300000000
#04416:00141414
#0441b:00130013
#04419:0000000000130000
#04412:0013
#04414:0000001300000013
#01012:2300001300000000
#01019:0013
#01016:0000000000130000
#01018:0000000000000013
#01017:0000001300000000
#0101b:2300000000130000
#01014:0013
#01010:41
#01216:13
#0121b:13000000000000000000130000000013
#01217:0000001300000000
#01212:0000131300000013
#01215:00000013
#01218:00000000000000000000000000130000
#01316:1400001300001300
#01319:0013
#0131b:0000001300001300
#01317:0000000000130000
#01314:0013
#01312:0000000000130000
#01416:0013001300131300
#0141b:0000000000001313
#01412:1300130000000013
#0161b:1300001300130000
#01616:0000131300000000
#01615:0000000000000013
#01617:0013000013000000
#01612:0013000013000000
#03015:00161316
#0301b:1300001313000000
#03012:0013000000130013
#03018:0000000000130000
#01117:0000001300000000
#0111b:1300000000130000
#01112:00000013000000000000000000001300
#01119:0013
#01116:0000000000000013
#01517:1300131300001300
#01519:0000000000000013
#01512:00000000000000000000000000130000
#01514:00000000000000000000000000000013
#0151b:0013000000000000
#0261b:1300130000130000
#02612:0013000013001300
#02616:0000000000130000
#04716:140000001400000000000000000000000000000000140000
#04712:140000001400000000140000
#0471a:00141414
#04714:001400140014000000000000
#04710:41
#04816:000000000000000000000000000000000000000000000000000000000000000000000000000000000000000000000000000000000000000000000000000000000000000000000000000000000000000000000000000000000000000000000000000000000000000000000000000000000000000000000000000000000000000000000000000000000000000000000000000000000000000000000000000000000000000000000000000000000000000000000000000000000000000000000000000000000000000000000000000000000000000000000000000000000000000000000000000000000000000000000000000000000000000000000000000000000000000000000000000000000000000000000000000000000000000000000000000000000000000000000000000000000000000000000000000000000000000000000000000000000000000000000000000000000000000000000000000000000000000000000000000000000000000000000000000000000000000000000000000000000000000000000000000000000000000000000000000000000000000000000000000000000000000000000000000000000000000000000000000000000000000000000000000000000000000000000000000000000000000000000000141400000000000000000000000000000000000000000000000000000000000000000000000000000000000000000000000000000000000000000000000000000000000000000000000000000000000000000000000000000000000000000000000000000000000000000000000000000000000000000000000000000000000000000000000000000000000000000000000000000000000000000000000000000000000000000000000000000000000000000000000000000000000000000000000000000000000000000000000000000000000000000000000000000000000000000000000000000000000000000000000000000000000000000000000000000000000000000000000000000000000000000000000000000000000000000000000000000000000000000000000000000000000000000000000000000000000000000000000000000000000000000000000000000000000000000000000000000000000000000000000000000000000000000000000000000000000000000000000000000000000000000000000000000000000000000000000000000000000000000000000000000000000000000000000000000000000000000000000000000000000000000000000000000000000000000000000000000000000000000000000000000000000000000000000000000000000000000000000000000000000000000000000000000000000000000000000000000000000000000000000000000000000000000000000000000000000000000000000000000000000000000000000000000000000000000000000000000000000000000000000000000000000000000000000000000000000000000000000000000000000000000000000000000000000000000000000000000000000000000000000000000000000000000000000000000000000000000000000000000000000000000000000000000000000000000000000000000000000000000000000000000000000000000000000000000000000000000000000000000000000000000000000000000000000000000000000000000000000000000000000000000000000000000000000000000000000000000000000000000000000000000000000000000000000000000000000000000000000000000000000000000000000000000000000000000000000000000000000000000000000000000000000000000000000000000000000000000000000000000000000000000000000000000000000000000000000000000000000000000000000000000000000000000000000000000000000000000000000000000000000000000000000000000000000000000000000000000000000000000000000000000000000000000000000000000000000000000000000000000000000000000000000000000000000000000000000000000000000000000000000000000000000000000000000000000000000000000000000000000000000000000000000000000000000000000000000000000000000000000000000000000000000000000000000000000000000000000000000000000000000000000000000000000000000000000000000000000000000000000000000000000000000000000000000000000000000000000000000000000000000000000000000000000000000000000000000000000000000000000000000000000000000000000000000000000000000000000000000000000000000000000000000000000000000000000000000000000000000000000000000000000000000000000000000000000000000000000000000000000000000000000000000000000000000000000000000000000000000000000000000000000000000000000000000000000000000000000000000000000000000000000000000000000000000000000000000000000000000000000000000000000000000000000000000000000000000000000000000000000000
#04812:14
#0481a:14
#04815:0000000000001313
#04818:00000000000000000000000000130013
#05112:0000001313000000
#0511b:13
#05117:13
#05116:0013
#05317:1313
#0531b:1300000000000013
#05316:0000130000001313
#06112:1300130000130015
#06119:0000000000000015
#06118:00130000000000130000001300000000
#06115:0013001313001300
#0611b:00000013001300000013000000000000
#06315:00130013000000000000000000000000
#06316:0000001300130000
#0631b:1300131300000000
#06318:0013000000000000
#06312:0000130013000015
#06319:0000000000000015
#06317:0013
#06716:1300000000000013
#0671b:0000130000130000
#06712:0013000000001300
#06717:0000001313000000
#06817:1300001300001300
#06816:0013000000000013
#06812:1300001300001300
#0681b:0013000013000013
#06814:00130000
#06912:0013000012000013
#0691b:00130000
#06916:0000001314000013
#0691c:0000000000120000
#06915:00120000
#06917:0012000000130000
#0691a:0000001200000000
#07119:0000000000141414
#07115:00130000
#07112:1300001300000000
#07118:00000000001300000000000000000000
#07113:0000000000141414
#0711b:1300001300000000
#07217:12
#07015:00000000000000000000000000000013
#07018:0000000000000013
#07016:1300001300000000
#07017:0013000000000000
#0701b:1300001300000000
#07012:0013000013000000
#07019:00130000
#05618:0000000000001313
#05615:00000000000000000000000000130013
#05616:000000000000000000000000000000000000000000000000000000000000000000000000000000000000000000000000000000000000000000000000000000000000000000000000000000000000000000000000000000000000000000000000000000000000000000000000000000000000000000000000000000000000000000000000000000000000000000000000000000000000000000000000000000000000000000000000000000000000000000000000000000000000000000000000000000000000000000000000000000000000000000000000000000000000000000000000000000000000000000000000000000000000000000000000000000000000000000000000000000000000000000000000000000000000000000000000000000000000000000000000000000000000000000000000000000000000000000000000000000000000000000000000000000000000000000000000000000000000000000000000000000000000000000000000000000000000000000000000000000000000000000000000000000000000000000000000000000000000000000000000000000000000000000000000000000000000000000000000000000000000000000000000000000000000000000000000000000000000000000000000141400000000000000000000000000000000000000000000000000000000000000000000000000000000000000000000000000000000000000000000000000000000000000000000000000000000000000000000000000000000000000000000000000000000000000000000000000000000000000000000000000000000000000000000000000000000000000000000000000000000000000000000000000000000000000000000000000000000000000000000000000000000000000000000000000000000000000000000000000000000000000000000000000000000000000000000000000000000000000000000000000000000000000000000000000000000000000000000000000000000000000000000000000000000000000000000000000000000000000000000000000000000000000000000000000000000000000000000000000000000000000000000000000000000000000000000000000000000000000000000000000000000000000000000000000000000000000000000000000000000000000000000000000000000000000000000000000000000000000000000000000000000000000000000000000000000000000000000000000000000000000000000000000000000000000000000000000000000000000000000000000000000000000000000000000000000000000000000000000000000000000000000000000000000000000000000000000000000000000000000000000000000000000000000000000000000000000000000000000000000000000000000000000000000000000000000000000000000000000000000000000000000000000000000000000000000000000000000000000000000000000000000000000000000000000000000000000000000000000000000000000000000000000000000000000000000000000000000000000000000000000000000000000000000000000000000000000000000000000000000000000000000000000000000000000000000000000000000000000000000000000000000000000000000000000000000000000000000000000000000000000000000000000000000000000000000000000000000000000000000000000000000000000000000000000000000000000000000000000000000000000000000000000000000000000000000000000000000000000000000000000000000000000000000000000000000000000000000000000000000000000000000000000000000000000000000000000000000000000000000000000000000000000000000000000000000000000000000000000000000000000000000000000000000000000000000000000000000000000000000000000000000000000000000000000000000000000000000000000000000000000000000000000000000000000000000000000000000000000000000000000000000000000000000000000000000000000000000000000000000000000000000000000000000000000000000000000000000000000000000000000000000000000000000000000000000000000000000000000000000000000000000000000000000000000000000000000000000000000000000000000000000000000000000000000000000000000000000000000000000000000000000000000000000000000000000000000000000000000000000000000000000000000000000000000000000000000000000000000000000000000000000000000000000000000000000000000000000000000000000000000000000000000000000000000000000000000000000000000000000000000000000000000000000000000000000000000000000000000000000000000000000000000000000000000000000000000000000000000000000000000000000000000000000000000000000000000000000000000000000000000000000000000000000000000000000000000000000000000000000
#0561a:14
#05612:14
#04512:00130000001300001300000000001400
#04517:0000000000000014
#0451b:13131300
#04518:0013001300130000
#04515:00000013000000130000130000000000
#05712:0000000000000013
#05814:13
#05815:0013
#05819:00130000
#05818:00000013
#05917:0000000013000013
#05912:0000000013000013
#05914:13
#05919:00130000
#0591b:0000001300000000
#0341b:0000131300001313
#03412:0013000000000000
#03417:0013000013130000
#03512:130000000000132c
#03514:00131300
#03517:0013001300130000
#04318:0000000000000013
#0431b:13131313
#04312:13131313
#04316:0014001400140000
#04315:0000000000000013
#02712:0013130000000000
#0271b:1300131300000013
#02719:0013
#02717:0013000000130000
#02716:0000000000000013
#02517:1300130000000013
#02512:1300000013000013
#0251b:0013001300000000
#02514:00130000
#03115:0013160000000000
#03112:13
#03118:1300000000000013
#03116:0000000000130000
#03117:0000001300000000
#0311b:0013000000000000
#03212:13130013
#03217:0013000000130000
#0321b:1313
#03215:00000000000000000000000000000013
#03218:0000000000000013
#03216:0000001300000000
#0331b:1313131300000000
#03312:131313130000002c
#03315:00001316
#03318:0013
#01715:0013000000000000
#01718:0000001300130000
#01712:13
#0171b:0013
#01713:00130000
#0171a:00130000
#02312:0013001300000013
#02316:13130000
#0231b:0000000000130000
#00212:12120000
#00216:00001212
#0031c:12120000
#00318:00001212
#00412:12120000
#00416:00001212
#00418:1212
#00512:1212
#00516:0012000000120000
#00518:12120012
#0051c:0000001200000000
#00616:1212
#00612:00120012
#0091c:1212
#00918:0012000000120000
#00916:12120012
#00912:0000001200000000
#0081c:1212
#00816:1212
#00812:00120012
#00718:1212
#0071c:00120012
#05016:1300000000130000
#05012:1300001300000023
#05014:0013
#05017:00000000000000130000000000002300
#05019:00000000000000000013000000000000
#0501b:00000000000000000000001300000000
#06616:14141414
#06612:00130013
#06614:0000001300000013
#0661b:1313
#06619:0013000000130000
#06412:1300131300001300
#06415:00001300000000000013001300000000
#0641b:0000130013001313
#06418:00130013000000000000130000000000
#06416:0000000000000013
#06417:0000001300000000
#06518:00130013000000000000000000000000
#06517:0000001300130000
#06512:1300131300000000
#06515:0013000000000000
#0651b:00131300
#06516:0013
#05516:140000001400000000000000000000000000000000140000
#0551a:140000001400000000140000
#05512:00141414
#05518:001400140014000000000000
#0601b:1300000013000013
#06017:0000131300000000
#06012:0000001300001300
#06015:0000000013130000
#06016:13
#06019:0013000000000000
#06018:00000013
#06010:41
#0421b:1313
#04212:00130013
#04215:1300000013130000
#04216:0014000000000000
#04218:0000131300001313
#0381b:1313000000001313
#03814:0014000000000000
#03816:00140014
#03818:0000001400140000
#0381a:0014
#03813:0000000000000014
#03812:1400001313000000
#0381f:11
#04019:1313130013131300
#04014:1300131313001313
#04112:1414140013000013
#0411a:1414140000000000
#0411b:0000000013000013
#04118:00000013
#04115:0000000000130000
#03918:0000000000000013
#0391b:13
#03612:0000131300001313
#0361b:0013000000000000
#03616:0013000013130000
#0371b:1313
#03719:00130000
#03716:0013001300000000
#03712:00000013
#03710:41
#02412:0013001300000000
#02416:13130000
#0241b:1313
#02419:00130000
#02812:1300130000130000
#0281b:0013000013001300
#02817:0000000000130000
#0291b:0013130000000000
#02912:1300131300000013
#02914:0013
#02916:0013000000130000
#02917:0000000000000013
#02910:41
#0181b:0000001300000000
#01814:0013
#01817:0000000000130000
#01815:0000000000000013
#01816:0000001300000000
#01812:0000000000130000
#01819:2413
#01813:24
#02017:13
#02012:13000000000000000000130000000013
#02016:0000001300000000
#0201b:0000131300000013
#02018:00000013
#02015:00000000000000000000000000130000
#02010:41
#02116:1400000000130000
#02114:0013
#02112:0000001300001300
#02117:0000001300001300
#02119:0013
#0211b:0000000000130000
#02217:0013001300131300
#02212:0000000000001313
#0221b:1300130000000013
#01916:0000001300000000
#01912:1300000000130000
#0191b:00000013000000000000000000001300
#01914:0013
#01917:0000000000000013
#04614:0000000000001413
#04612:00141400
#04618:001400140014001400000000
#04616:241400140000
#0461a:241414
#04619:0000000000000013
#0461f:21
#05418:00000014
#05419:0000000000000013
#0541a:00141400
#05414:000014000000140000001400000014000000000000130000
#05416:241400140000
#05412:241414
#04856:000000000000000000000000000000000000000000000000000000000000000000000000000000000000000000000000000000000000000000000000000000000000000000000000000000000000000000000000000000000000000000000000000000000000000000000000000000000000000000000000000000000000000000000000000000000000000000000000000000000000000000000000000000000000000000000000000000000000000000000000000000000000000000000000000000000000000000000000000000000000000000000000000000000000000000000000000000000000000000000000000000000000000000000000000000000000000000000000000000000000000000000000000000000000000000000000000000000000000000000000000000000000000000000000000000000000000000000000000000000000000000000000000000000000000000000000000000000000000000000000000000000000000000000000000000000000000000000000000000000000000000000000000000000000000000000000000000000000000000000000000000000000000000000000000000000000000000000000000000000000000000000000000000000000000000000000000000000000000000000000242400000000000000000000000000000000000000000000000000000000000000000000000000000000000000000000000000000000000000000000000000000000000000000000000000000000000000000000000000000000000000000000000000000000000000000000000000000000000000000000000000000000000000000000000000000000000000000000000000000000000000000000000000000000000000000000000000000000000000000000000000000000000000000000000000000000000000000000000000000000000000000000000000000000000000000000000000000000000000000000000000000000000000000000000000000000000000000000000000000000000000000000000000000000000000000000000000000000000000000000000000000000000000000000000000000000000000000000000000000000000000000000000000000000000000000000000000000000000000000000000000000000000000000000000000000000000000000000000000000000000000000000000000000000000000000000000000000000000000000000000000000000000000000000000000000000000000000000000000000000000000000000000000000000000000000000000000000000000000000000000000000000000000000000000000000000000000000000000000000000000000000000000000000000000000000000000000000000000000000000000000000000000000000000000000000000000000000000000000000000000000000000000000000000000000000000000000000000000000000000000000000000000000000000000000000000000000000000000000000000000000000000000000000000000000000000000000000000000000000000000000000000000000000000000000000000000000000000000000000000000000000000000000000000000000000000000000000000000000000000000000000000000000000000000000000000000000000000000000000000000000000000000000000000000000000000000000000000000000000000000000000000000000000000000000000000000000000000000000000000000000000000000000000000000000000000000000000000000000000000000000000000000000000000000000000000000000000000000000000000000000000000000000000000000000000000000000000000000000000000000000000000000000000000000000000000000000000000000000000000000000000000000000000000000000000000000000000000000000000000000000000000000000000000000000000000000000000000000000000000000000000000000000000000000000000000000000000000000000000000000000000000000000000000000000000000000000000000000000000000000000000000000000000000000000000000000000000000000000000000000000000000000000000000000000000000000000000000000000000000000000000000000000000000000000000000000000000000000000000000000000000000000000000000000000000000000000000000000000000000000000000000000000000000000000000000000000000000000000000000000000000000000000000000000000000000000000000000000000000000000000000000000000000000000000000000000000000000000000000000000000000000000000000000000000000000000000000000000000000000000000000000000000000000000000000000000000000000000000000000000000000000000000000000000000000000000000000000000000000000000000000000000000000000000000000000000000000000000000000000000000000000000000000000000000000000000000000000000000000000000000000000000000000000000000000000000000000000000000000000
#04852:64
#0485a:54
#0495b:4300000000000033
#04952:33
#04956:0000000000000033
#05152:0053
#0515b:53
#05156:0063
#05256:0000005300000000
#05252:0023
#05258:0000000000630000
#0525b:00000023
#05257:63
#0635b:0000005300000000
#06357:0023
#06356:0000000000330000
#06856:0023000000000023
#06852:5300002300005300
#06854:00530000
#0685b:0043000043000023
#06857:00000053
#07257:12
#05957:0013
#05952:0013
#04358:0000000000000063
#0435b:1313
#04352:00130013
#04355:0000000000000053
#02557:5300630000000053
#0255b:0023002300000000
#03355:0023
#03352:0000005300000000
#0335b:0000006300000000
#03358:0023
#0325b:6363
#03257:0023000000230000
#03256:0000002300000000
#03252:00530000
#01056:0000000000630000
#01058:0000000000000063
#0115b:2300000000130000
#01152:00000023000000000000000000000000
#01356:14000023
#0135b:00000023
#01357:0000000000530000
#01352:0000000000530000
#01456:0000005300000000
#02352:0000005300000000
#0235b:0000001300630000
#00556:0022000000220000
#00552:6262
#00558:00620000
#0055c:0000002200000000
#00458:6262
#0095c:5252
#00958:0022000000220000
#00956:00520000
#00952:0000002200000000
#0085c:5252
#04558:0000000000430000
#04555:0000000000330000
#06656:14141414
#06756:33
#0675b:00330000
#06757:0043
#06752:00000043
#07057:0023000000000000
#0705b:6300002300000000
#07052:0033000033000000
#07059:00630000
#0715b:53
#06557:0000000000430000
#06552:0000006300000000
#06556:0023
#05052:0000000000000043
#05057:0000000000000043
#0535b:1313
#05352:00130013
#05656:000000000000000000000000000000000000000000000000000000000000000000000000000000000000000000000000000000000000000000000000000000000000000000000000000000000000000000000000000000000000000000000000000000000000000000000000000000000000000000000000000000000000000000000000000000000000000000000000000000000000000000000000000000000000000000000000000000000000000000000000000000000000000000000000000000000000000000000000000000000000000000000000000000000000000000000000000000000000000000000000000000000000000000000000000000000000000000000000000000000000000000000000000000000000000000000000000000000000000000000000000000000000000000000000000000000000000000000000000000000000000000000000000000000000000000000000000000000000000000000000000000000000000000000000000000000000000000000000000000000000000000000000000000000000000000000000000000000000000000000000000000000000000000000000000000000000000000000000000000000000000000000000000000000000000000000000000000000000000000000000242400000000000000000000000000000000000000000000000000000000000000000000000000000000000000000000000000000000000000000000000000000000000000000000000000000000000000000000000000000000000000000000000000000000000000000000000000000000000000000000000000000000000000000000000000000000000000000000000000000000000000000000000000000000000000000000000000000000000000000000000000000000000000000000000000000000000000000000000000000000000000000000000000000000000000000000000000000000000000000000000000000000000000000000000000000000000000000000000000000000000000000000000000000000000000000000000000000000000000000000000000000000000000000000000000000000000000000000000000000000000000000000000000000000000000000000000000000000000000000000000000000000000000000000000000000000000000000000000000000000000000000000000000000000000000000000000000000000000000000000000000000000000000000000000000000000000000000000000000000000000000000000000000000000000000000000000000000000000000000000000000000000000000000000000000000000000000000000000000000000000000000000000000000000000000000000000000000000000000000000000000000000000000000000000000000000000000000000000000000000000000000000000000000000000000000000000000000000000000000000000000000000000000000000000000000000000000000000000000000000000000000000000000000000000000000000000000000000000000000000000000000000000000000000000000000000000000000000000000000000000000000000000000000000000000000000000000000000000000000000000000000000000000000000000000000000000000000000000000000000000000000000000000000000000000000000000000000000000000000000000000000000000000000000000000000000000000000000000000000000000000000000000000000000000000000000000000000000000000000000000000000000000000000000000000000000000000000000000000000000000000000000000000000000000000000000000000000000000000000000000000000000000000000000000000000000000000000000000000000000000000000000000000000000000000000000000000000000000000000000000000000000000000000000000000000000000000000000000000000000000000000000000000000000000000000000000000000000000000000000000000000000000000000000000000000000000000000000000000000000000000000000000000000000000000000000000000000000000000000000000000000000000000000000000000000000000000000000000000000000000000000000000000000000000000000000000000000000000000000000000000000000000000000000000000000000000000000000000000000000000000000000000000000000000000000000000000000000000000000000000000000000000000000000000000000000000000000000000000000000000000000000000000000000000000000000000000000000000000000000000000000000000000000000000000000000000000000000000000000000000000000000000000000000000000000000000000000000000000000000000000000000000000000000000000000000000000000000000000000000000000000000000000000000000000000000000000000000000000000000000000000000000000000000000000000000000000000000000000000000000000000000000000000000000000000000000000000000000000000000
#0565a:54
#05652:64
#05758:0043
#05755:0033
#06057:0000006300000000
#0605b:0023
#06055:0000000000530000
#06052:00000023
#06056:53
#04252:00130013
#0425b:0013
#04452:0033
#0445b:00430043
#0375b:0053
#03752:00000013
#02452:0023002300000000
#02456:63530000
#02752:0000000000330000
#02756:0000000000000063
#0265b:23
#02852:23
#0295b:0000000000430000
#02957:0000000000000053
#0305b:23
#03156:0000000000530000
#03157:0000005300000000
#0125b:53
#01252:0000006300000000
#01656:0000005300000000
#0165b:53
#01657:0023000000000000
#01652:0023
#01552:0000001300000000
#01557:0000001300000000
#01857:0000000000530000
#01855:0000000000000053
#01952:2300000000130000
#0195b:00000023000000000000000000000000
#02156:1400000000630000
#02152:00000023
#0215b:0000000000630000
#02157:00000023
#02257:0000006300000000
#02052:63
#0205b:0000005300000000
#04658:006400640064006400000000
#04656:002400240000
#0465a:242424
#04752:242400
#04756:002400000000
#04754:005400540054000000000000
#0555a:242400
#05558:006400640064000000000000
#05556:002400000000
#05454:005400540054005400000000
#05456:002400240000
#05452:242424
#002380:12
#0023c0:00220000
#002380:0012
#0023c0:00000022
#003360:12
#003320:00220000
#003360:0012
#003320:00000022
#004380:12
#0043c0:00220000
#004380:0012
#0043c0:00000022
#005320:12220000
#005360:0052000000000000
#005381:00122200
#0053c1:0000005200000000
#005320:00001222
#005360:0000000000520000
#0063c0:12
#006380:00220000
#0063c0:0012
#006380:00000022
#007320:12
#007360:00220000
#007320:0012
#007360:00000022
#0083c0:12
#008380:00220000
#0083c0:0012
#008380:00000022
#0093c0:12220000
#009380:0052000000000000
#009361:00122200
#009321:0000005200000000
#0093c0:00001222
#009380:0000000000520000
#010360:0000000000130000
#011320:00000053000000000000000000000000
#011360:0000000000230000
#010381:0000000000000013
#0113b1:53
#011381:0023000000000000
#0123b0:13
#012370:00230000
#012320:0000001300000000
#012360:0000000000230000
#013370:0000000000130023
#0133b0:00000053
#013321:0000000000130023
#013361:00000053
#014371:13
#0143b1:0023000000000000
#014371:00130000
#0143b1:0000002300000000
#014360:0000001300000000
#014320:0000000000230000
#015320:1300532300000000
#015360:0053000000000000
#0163b0:13230000
#016370:0053000000000000
#016360:0000001300230000
#016320:0053
#016380:0000000000000013
#0163b0:00000000000000000000000000000053
#0173b0:00530000000000000000000000000000
#017380:0023000000000000
#017350:0000001300230000
#017320:00000000000000530053000000000000
#018370:0000000000130000
#0193b0:00000053000000000000000000000000
#019370:0000000000230000
#018351:0000000000000013
#019321:53
#019351:0023000000000000
#020320:13
#020360:00230000
#0203b0:0000001300000000
#020370:0000000000230000
#021360:0000000000130023
#021320:00000053
#0213b1:0000000000130023
#021371:00000053
#022361:13
#022321:0023000000000000
#022361:00130000
#022321:0000002300000000
#022370:0000001300000000
#0223b0:0000000000230000
#0233b0:1300532300000000
#023370:0053000000000000
#023321:0000001300000000
#023361:0000000000230000
#0233b0:0000000000130000
#023370:0000000000000023
#024360:13332300
#024320:0053005300000000
#025370:13332300
#0253b0:0053005300000000
#025370:0000000000000013
#0263b0:53
#026370:0023000000000000
#026320:00130000
#026350:0000002300000000
#026381:0000001300000000
#0263b1:0023
#0263b1:00000013
#026381:0000000000000023
#026350:0000000000000013
#027320:23
#027360:0000001300000000
#027350:00000000000000330000000000000000
#027340:0033
#027330:00000000000000000033000000000000
#027320:0000000000230000
#027360:0000000000000013
#028320:53
#028360:0023000000000000
#0283b0:00130000
#028380:0000002300000000
#028351:0000001300000000
#028321:0023
#028321:00000013
#028351:0000000000000023
#028380:0000000000000013
#0293b0:23
#029370:0000001300000000
#029380:00000000000000330000000000000000
#029390:0033
#0293a0:00000000000000000033000000000000
#0293b0:0000000000230000
#029370:0000000000000013
#0303b0:53
#030370:0023000000000000
#030320:0000132300000000
#0303b0:0000000000001323
#031320:0000132300000000
#031371:0000001300000000
#0313b1:0000000000230000
#031360:0000000000130000
#031320:0000000000000023
#0323b0:13230000
#032370:0053000000000000
#032321:00132300
#032361:0000005300000000
#0323b0:00001323
#032370:0000000000530000
#033320:0000001300230000
#033350:0053
#0333b1:0000001300230000
#033381:0053
#034371:0000132300000000
#034321:0000000013230000
#034371:0000000000001323
#035371:13333323
#0353b1:0033003300330000
#036361:0000132300000000
#0363b1:0000000013230000
#036361:0000000000001323
#037361:13332300
#037321:0033003300000000
#0373b0:0013
#037360:00000023
#039320:1323000000000000
#0393b1:0013230000000000
#039350:0000132300000000
#039381:0000001323000000
#039320:0000000013230000
#0393b1:0000000000132300
#039350:0000000000001323
#043380:0000000000000013
#0443b0:0023000000000000
#043351:0000000000000013
#044321:0023000000000000
#0463a1:145454
#046381:005400540054005400240000
#046361:005400540000
#047321:145400
#047341:005400540054000000000000
#047361:005400240000
#048321:1424
#048361:00540000
#0483a0:1424
#048360:000000000000000000000000000000000000000000000000000000000000000000000000000000000000000000000000000000000000000000000000000000000000000000000000000000000000000000000000000000000000000000000000000000000000000000000000000000000000000000000000000000000000000000000000000000000000000000000000000000000000000000000000000000000000000000000000000000000000000000000000000000000000000000000000000000000000000000000000000000000000000000000000000000000000000000000000000000000000000000000000000000000000000000000000000000000000000000000000000000000000000000000000000000000000000000000000000000000000000000000000000000000000000000000000000000000000000000000000000000000000000000000000000000000000000000000000000000000000000000000000000000000000000000000000000000000000000000000000000000000000000000000000000000000000000000000000000000000000000000000000000000000000000000000000000000000000000000000000000000000000000000000000000000000000000000000000000000000000000000000000005400000000000000000000000000000000000000000000000000000000000000000000000000000000000000000000000000000000000000000000000000000000000000000000000000000000000000000000000000000000000000000000000000000000000000000000000000000000000000000000000000000000000000000000000000000000000000000000000000000000000000000000000000000000000000000000000000000000000000000000000000000000000000000000000000000000000000000000000000000000000000000000000000000000000000000000000000000000000000000000000000000000000000000000000000000000000000000000000000000000000000000000000000000000000000000000000000000000000000000000000000000000000000000000000000000000000000000000000000000000000000000000000000000000000000000000000000000000000000000000000000000000000000000000000000000000000000000000000000000000000000000000000000000000000000000000000000000000000000000000000000000000000000000000000000000000000000000000000000000000000000000000000000000000000000000000000000000000000000000000000000000000000000000000000000000000000000000000000000000000000000000000000000000000000000000000000000000000000000000000000000000000000000000000000000000000000000000000000000000000000000000000000000000000000000000000000000000000000000000000000000000000000000000000000000000000000000000000000000000000000000000000000000000000000000000000000000000000000000000000000000000000000000000000000000000000000000000000000000000000000000000000000000000000000000000000000000000000000000000000000000000000000000000000000000000000000000000000000000000000000000000000000000000000000000000000000000000000000000000000000000000000000000000000000000000000000000000000000000000000000000000000000000000000000000000000000000000000000000000000000000000000000000000000000000000000000000000000000000000000000000000000000000000000000000000000000000000000000000000000000000000000000000000000000000000000000000000000000000000000000000000000000000000000000000000000000000000000000000000000000000000000000000000000000000000000000000000000000000000000000000000000000000000000000000000000000000000000000000000000000000000000000000000000000000000000000000000000000000000000000000000000000000000000000000000000000000000000000000000000000000000000000000000000000000000000000000000000000000000000000000000000000000000000000000000000000000000000000000000000000000000000000000000000000000000000000000000000000000000000000000000000000000000000000000000000000000000000000000000000000000000000000000000000000000000000000000000000000000000000000000000000000000000000000000000000000000000000000000000000000000000000000000000000000000000000000000000000000000000000000000000000000000000000000000000000000000000000000000000000000000000000000000000000000000000000000000000000000000000000000000000000000000000000000000000000000000000000000000000000000000000000000000000000000000000000000000000000000000000000000000000000000000000000000000000000000000000000000000000000
#049370:00000013
#0493b0:0000000000000023
#050360:00000013
#050320:0000000000000023
#0513b0:13000023
#051360:0033
#051321:0013
#051371:00000023
#052371:13
#0523b1:00230000
#052361:0000001300000000
#052321:0053
#052351:0000000000230000
#052380:0000000000130000
#0523b0:00000053
#052370:0000000000000023
#053320:0013230000000000
#0533b0:0000001323000000
#053320:0000000000132300
#054320:145454
#054340:005400540054005400240000
#054360:005400540000
#0553a0:145400
#055380:005400540054000000000000
#055360:005400240000
#0563a0:1424
#056360:00540000
#056321:1424
#056361:000000000000000000000000000000000000000000000000000000000000000000000000000000000000000000000000000000000000000000000000000000000000000000000000000000000000000000000000000000000000000000000000000000000000000000000000000000000000000000000000000000000000000000000000000000000000000000000000000000000000000000000000000000000000000000000000000000000000000000000000000000000000000000000000000000000000000000000000000000000000000000000000000000000000000000000000000000000000000000000000000000000000000000000000000000000000000000000000000000000000000000000000000000000000000000000000000000000000000000000000000000000000000000000000000000000000000000000000000000000000000000000000000000000000000000000000000000000000000000000000000000000000000000000000000000000000000000000000000000000000000000000000000000000000000000000000000000000000000000000000000000000000000000000000000000000000000000000000000000000000000000000000000000000000000000000000000000000000000000000000005400000000000000000000000000000000000000000000000000000000000000000000000000000000000000000000000000000000000000000000000000000000000000000000000000000000000000000000000000000000000000000000000000000000000000000000000000000000000000000000000000000000000000000000000000000000000000000000000000000000000000000000000000000000000000000000000000000000000000000000000000000000000000000000000000000000000000000000000000000000000000000000000000000000000000000000000000000000000000000000000000000000000000000000000000000000000000000000000000000000000000000000000000000000000000000000000000000000000000000000000000000000000000000000000000000000000000000000000000000000000000000000000000000000000000000000000000000000000000000000000000000000000000000000000000000000000000000000000000000000000000000000000000000000000000000000000000000000000000000000000000000000000000000000000000000000000000000000000000000000000000000000000000000000000000000000000000000000000000000000000000000000000000000000000000000000000000000000000000000000000000000000000000000000000000000000000000000000000000000000000000000000000000000000000000000000000000000000000000000000000000000000000000000000000000000000000000000000000000000000000000000000000000000000000000000000000000000000000000000000000000000000000000000000000000000000000000000000000000000000000000000000000000000000000000000000000000000000000000000000000000000000000000000000000000000000000000000000000000000000000000000000000000000000000000000000000000000000000000000000000000000000000000000000000000000000000000000000000000000000000000000000000000000000000000000000000000000000000000000000000000000000000000000000000000000000000000000000000000000000000000000000000000000000000000000000000000000000000000000000000000000000000000000000000000000000000000000000000000000000000000000000000000000000000000000000000000000000000000000000000000000000000000000000000000000000000000000000000000000000000000000000000000000000000000000000000000000000000000000000000000000000000000000000000000000000000000000000000000000000000000000000000000000000000000000000000000000000000000000000000000000000000000000000000000000000000000000000000000000000000000000000000000000000000000000000000000000000000000000000000000000000000000000000000000000000000000000000000000000000000000000000000000000000000000000000000000000000000000000000000000000000000000000000000000000000000000000000000000000000000000000000000000000000000000000000000000000000000000000000000000000000000000000000000000000000000000000000000000000000000000000000000000000000000000000000000000000000000000000000000000000000000000000000000000000000000000000000000000000000000000000000000000000000000000000000000000000000000000000000000000000000000000000000000000000000000000000000000000000000000000000000000000000000000000000000000000000000000000000000000000000000000000000000000000000000000000000000000000000000
#057321:13530000
#057351:0000005323000000
#0573b0:13
#057380:0053000023000000
#057370:0000000000000013
#0583b0:0023000000000000
#058361:0013000000000000
#058321:0000002300000000
#058370:0000001300000000
#0583b0:0000000000230000
#058321:0000000000130000
#058361:0000000000000023
#0583b0:0000000000000013
#059370:0023000000000000
#059321:0013000000000000
#059361:0000002300000000
#060361:13
#060321:00230000
#060371:0000001300000000
#0603b1:0053
#060381:0000000000230000
#060350:0000000000130000
#060320:00000053
#060360:0000000000000023
#0633b0:0000001300230000
#063370:0053
#065320:0000001300230000
#065360:0053
#0673b0:13
#067370:0023000000000000
#067360:00130000
#067320:0000002300000000
#067320:0013
#067360:0000000000230000
#067370:00000013
#0673b0:0000000000000023
#068320:1300005300000000
#068360:0053000023000000
#068340:00530000
#068370:00000013
#0683b0:0000000000000053
#069370:23
#068321:00000013
#068361:0000000000000053
#069321:23
#0703b1:1300005300000000
#070371:0053000023000000
#070391:00530000
#0713b1:13
#071381:00230000
