This file was generated by Ched 2.7.0.0.
#TITLE ""
#ARTIST ""
#DESIGNER ""
#DIFFICULTY 0
#PLAYLEVEL
#SONGID ""
#WAVE ""
#WAVEOFFSET 0
#JACKET ""
#REQUEST "ticks_per_beat 480"
#00002: 4
#BPM01: 192
#00008: 01
#TIL00: ""
#HISPEED 00
#MEASUREHS 00
#0021a:1414
#00314:1414
#04913:14
#0491a:0014
#04914:00000014
#04919:14
#0501a:14
#05012:0014
#05018:00000014
#0521a:14
#05212:0014
#05214:14
#05218:0014
#0621a:14
#06214:00140000
#06218:0014
#06212:00000014
#06318:14
#06314:00140000
#0631a:0014
#06412:14
#06418:00140000
#06414:0014
#0641a:00000014
#06514:14
#06518:00140000
#06512:0014
#0681a:14
#06814:14
#04418:00140014
#04414:1414
#04514:1424
#04518:00140000
#0581a:14
#05818:0014
#05812:00000014
#05814:00140000
#06012:14
#0601a:0014
#06018:14
#06014:0014
#06010:41
#0431a:00001414
#04312:14140000
#0421a:00001414
#04212:14140000
#05713:14
#05719:14
#0341a:14
#03417:00003414
#03418:00340000
#03612:14
#03615:00003414
#03614:00340000
#03818:14
#0381f:11
#04712:16
#04710:41
#04818:16
#05518:16
#05516:00160000
#05414:00160000
#05412:26
#0041a:1414
#00514:1414
#0101a:14
#01014:0014
#01010:41
#0111a:14
#01114:0014
#01218:14
#01212:0014
#01318:14
#01312:0014
#0141a:14
#01414:00140000
#01418:0014
#01512:14
#01518:00140000
#01514:0014
#01618:14
#01614:00140000
#0161a:0014
#01714:14
#01712:0014
#01718:00140000
#0181a:14
#01814:0014
#01918:14
#01912:0014
#02012:14
#02014:0014
#02018:14
#0201a:0014
#02010:41
#02112:14
#02118:14
#02114:0014
#0211a:0014
#0261a:1414
#02614:00140014
#03219:14
#03213:14
#03316:00140000
#03312:0014
#0331a:14
#00618:1414
#00712:1414
#00818:1414
#00912:1414
#05612:16
#05614:00160000
#02212:00000014
#02214:00140000
#02218:14
#0221a:0014
#02314:00140000
#02318:14
#0231a:0014
#02312:00000014
#02812:1414
#02818:00140014
#0301a:14
#03014:00140000
#03018:0014
#03012:00000014
#04618:26
#0461f:21
#03518:00340000
#03517:34
#03714:00340000
#03715:34
#03710:41
#03119:00340000
#02910:41
#0685a:14
#06854:14
#07258:14
#05753:14
#05759:14
#0345a:64
#03457:00000024
#03652:54
#03655:00000024
#03858:54
#04752:56
#04658:66
#04858:66
#05452:56
#05454:00260000
#05556:00260000
#05558:66
#0395a:14
#05652:56
#05654:00260000
#04554:0014
#04959:14
#04953:14
#024380:1424
#025340:1424
#0273a0:14342400
#029320:14342400
#0313a0:14
#031390:00340000
#031380:0024
#0343a0:14
#034380:00340000
#034370:00003434
#035370:34
#035380:00340000
#0353a0:0024
#036320:14
#036340:00340000
#036350:00003434
#037350:34
#037340:00340000
#037320:0024
#038380:14
#0393a0:24
#040320:14
#040340:0024
#0413a0:14
#041380:0024
#046380:16
#046360:0026
#047320:16
#047340:0026
#048380:16
#048360:0026
#051320:14
#051340:0024
#0533a0:14
#053380:0024
#053341:14
#053321:0024
#054321:1626
#054341:00560000
#055381:1626
#055361:00560000
#056321:1626
#056341:00560000
#0593a1:14
#059381:0024
#061321:14
#061341:0024
#061380:14
#0613a0:0024
#0663a0:1424
#066341:1424
#067381:1424
#067320:1424
#069380:14
#0693a0:0024
#070340:14
#070320:0024
#071380:1400000000343434
#072380:24
