This file was generated by Ched 2.7.0.0.
#TITLE "easy"
#ARTIST ""
#DESIGNER ""
#DIFFICULTY 0
#PLAYLEVEL
#SONGID ""
#WAVE ""
#WAVEOFFSET 0
#JACKET ""
#REQUEST "ticks_per_beat 480"
#00002: 4
#BPM01: 150
#00008: 01
#TIL00: ""
#HISPEED 00
#MEASUREHS 00
#00113:14
#00518:14
#02918:14
#02812:14
#02810:41
#03214:14
#0331a:14
#04618:0016
#04612:26
#0461f:21
#05018:16
#05012:0016
#04518:14
#04712:16
#04718:0016
#04710:41
#00019:14
#0431a:14
#04414:14
#05118:16
#05112:0016
#05412:2616
#05518:1616
#05818:1616
#05912:1616
#00412:14
#00410:41
#00612:14
#03012:14
#03118:14
#03414:14
#0351a:14
#06213:00000014
#06319:00000014
#00914:14
#0081a:14
#0101a:14
#01318:14
#01212:14
#01210:41
#01412:14
#01714:14
#0161a:14
#0181a:14
#0401f:11
#02010:41
#03910:41
#002390:14
#003390:24
#020320:14
#021320:24
#022380:14
#023380:24
#024340:14
#025340:24
#0263a0:14
#0273a0:24
#036340:14
#037340:24
#038380:14
#039380:24
#040320:1400003400003400
#041320:0034000034003400
#042320:24
#048320:16
#049320:26
#052380:16
#053380:26
#056320:16
#057320:26
#060380:16
#061380:26
#064330:00000014
#066330:00000024
#067390:00000014
#068390:00000034
#069390:00000034
#072390:0024000000000000
