This file was generated by Ched 2.7.0.0.
#TITLE "ex"
#ARTIST ""
#DESIGNER ""
#DIFFICULTY 0
#PLAYLEVEL
#SONGID ""
#WAVE ""
#WAVEOFFSET 0
#JACKET ""
#REQUEST "ticks_per_beat 480"
#00002: 4
#BPM01: 150
#00008: 01
#TIL00: ""
#HISPEED 00
#MEASUREHS 00
#0001a:0012
#00016:001200
#00018:000000000012000000000000
#0001c:00000012
#00012:00000012
#00014:12120000
#0011a:1212000000000000
#00115:00120000000000000000000000000000
#00116:00120000
#00112:0000001200000000
#0011c:0000000012120000
#00117:00000000000000000012000000000000
#00118:00000012
#00114:0000000000000012
#00218:0000001200000000
#00216:00000000000000120000000000000000
#00418:0013001300001300
#0041b:0000130000000013
#00410:41
#00518:0013000000130013
#00519:00130000
#0051a:0000001300000000
#0051b:00001313
#0061b:13
#00616:1200001212000000
#0061a:00000000000000120000000000000000
#00618:0000000000000012
#00614:00000000000000000000000000000012
#0151a:00120000
#01516:00120000
#01815:00130000
#0181a:0000001212000000
#01816:00000000000000120000000000000000
#01818:1213000000120012
#0181b:00130000
#01914:12
#01917:00130000
#01916:0013
#0191b:0013
#01912:00130013
#0191a:12
#0201b:13
#02018:00000000000000000000000000000013
#02017:00000000000000130000000000000000
#02015:0000000000000013
#02012:00131313
#02010:41
#02112:13000013
#0211b:00131300
#0221b:00131300
#02216:00130013
#02212:1300000000000013
#02217:0000000000130000
#0241b:0013
#02412:1300000000000013
#0251b:1313
#02512:00001313
#02515:0000000000130013
#02517:0000001300001300
#02519:0000000000130013
#02516:13
#0261b:13
#02612:0013
#02617:0013000000000000
#02616:0000000000130000
#02718:00000000001200000000000000130000
#02714:0000001200000000
#0271a:00000000000000120000000000000000
#02719:00000000000000000012000000000000
#02716:0000000000120000
#0271c:00000000000000000000001200000000
#02715:0000000000000013
#0271b:00000000000000000000000000000013
#02712:00220023
#02713:0022
#0301b:1312120000000000
#03016:00000012000000000000000000000000
#0301a:0000001212000000
#03015:00000000000000120000000000000000
#03019:0000000000121200
#03014:00000000000000000000001200000000
#03018:0000000000000012
#03013:00000000000000000000000000000012
#03118:12
#03116:00120000000000000000000000000000
#0311a:0000000012000000000000000000000000000000000000000032323200000000
#03114:00000012000000000000001200000000
#03115:00000000000000120000000000000000
#03113:00000000000000000000000000000012
#0311c:0000000000000000003232320000000000000000000000000000000000000000
#0311b:0000000000000000000000000000000000323232000000000000000000000000
#03418:00120000000000000000000000323232
#03415:0012000000000000
#0341b:00000012000000000000000000000000
#03419:00000000001200000000000000000000
#03416:0000001200000000
#0341c:00000000000000120000000000000000
#03412:22000000000000000032323200000000
#03413:00220000
#03512:1213
#03516:00130000
#03517:0013
#0351b:00130013
#04118:0023000000130000
#04115:00000000001300000000000000001300
#04112:2313000023002300
#0411b:0000002323002300
#0421b:13
#04215:0000001313000000
#04218:0013
#04212:23
#04312:0000001313000000
#04317:00000000000000130000000000000000
#04314:00000000000000000000001300000000
#04316:0000000000000013
#04319:00000000000000000000001300000000
#0431b:0000000000000013
#04416:0000000000000013
#04412:13
#04418:0000001313000000
#0441b:23
#04615:0013000000001300
#04618:00130000
#0461b:0000001300000000
#04616:0000001300000000
#04612:2300000000130013
#04617:0000000000000013
#0461f:21
#06218:0000000000000012
#06212:00000012
#06316:1200001200120000
#06318:0012000012000000
#0631a:0000000000000012
#0031c:00000012
#00718:1200000000000012
#00716:0000001212000000
#0071a:00000000000000120000000000000000
#00714:00000000000000000000000000000012
#00915:0013000000130013
#00914:00130000
#00913:0000001300000000
#00912:00001313
#01012:1300000000000012
#01018:12
#0101a:00120000
#0101c:00000012
#0121b:0013001300130000
#01218:00131300
#01217:0000000000000013
#01215:0000001300000000
#01219:00000013
#01213:0000000000000013
#01210:41
#01318:0013000000130013
#01319:00130000
#0131a:0000001300000000
#0131b:00001313
#01312:0000001300000000
#01314:0000000000000013
#0141b:130000000000000000000000000000000000003232323232
#01612:0013001300130000
#01615:00131300
#01616:0000000000000013
#01618:0000001300000000
#01614:00000013
#0161a:0000000000000013
#01715:0013000000000013
#01714:00130013
#01713:0000001300130000
#01712:0013
#0171b:0000001300000000
#01719:0000000000000013
#02312:00131300
#02317:00130013
#0231b:1300000000000013
#02316:0000000000130000
#0281b:0013001300000013
#02815:0013001300130013
#02818:00131313
#02812:23001313
#02810:41
#02912:0013000000000000
#02914:00130000
#02916:0000001300000000
#0291b:0013
#02919:0000000000130013
#02917:00000013
#03212:0013001300000013
#03218:0013001300130013
#03215:00131313
#0321b:23001313
#0331b:0013000000000000
#03319:00130000
#03317:0000001300000000
#03312:0013
#03314:0000000000130013
#03316:00000013
#03612:13
#03615:00000000000000000000000000000013
#03616:00000000000000130000000000000000
#03618:0000000000000013
#0361b:00131313
#0371b:13000013
#03712:00131300
#03812:00131300
#03817:00130013
#0381b:1300000000000013
#03816:0000000000130000
#03912:1300000000130000
#03916:00130000
#0391b:0000130013130000
#03918:00000013
#03915:0000000000000013
#03910:41
#0401b:13000000000023000000000000000013
#04018:00000013000000000000230013000000
#04015:0000231300002300
#04012:23000000000000000013000000000000
#0401f:11
#04517:0000001313000000
#04516:13
#04515:0000000000000013
#04715:00000013
#04717:0000000000000013
#04712:0000000000130013
#0471b:0013001300000000
#04718:00130000
#04716:0000001300000000
#04710:41
#0481b:00130000
#04817:0000000000000013
#04814:0012
#04813:0000000000120000
#04812:0000000000001212
#04914:00000000120000000000000000220000
#0491c:0000000000220000
#04916:00000000000000000000002200000000
#0491a:00000022
#04918:0000000000000022
#04912:00000000000000000000000000000022
#05018:0013000000001300
#05015:0000130000130000
#05012:0000001300000000
#0501b:2300000000130013
#05017:0000001300000000
#05016:0000000000000013
#05118:0013000000001300
#05116:0000000000000013
#0511b:0000000000000013
#05115:0000130000130000
#05112:0013001300000000
#05117:0000001300000000
#05217:00130000
#0521b:0000000000000013
#05214:0012
#05213:0000000000120000
#05212:0000000000001212
#05314:0000120000220000
#0531a:0000000000220000
#05318:0000000000002222
#05316:00000000000000000000000000220022
#05418:0013000000001300
#05415:00130000
#05412:0000001300000000
#05417:0000001300000000
#0541b:2300000000130013
#05416:0000000000000013
#05518:00000013
#05516:0000000000000013
#0551b:0000000000130013
#05512:0013001300000000
#05515:00130000
#05517:0000001300000000
#05612:00130000
#05616:0000000000000013
#0561a:0012
#0561b:0000000000120000
#0561c:0000000000001212
#0571a:00000000120000000000000000220000
#05712:0000000000220000
#05718:00000000000000000000002200000000
#05714:00000022
#05716:0000000000000022
#0571c:00000000000000000000000000000022
#05815:0013000000001300
#05818:0000130000130000
#0581b:0000001300000000
#05812:2300000000130013
#05816:0000001300000000
#05817:0000000000000013
#05915:0013000000001300
#05917:0000000000000013
#05912:0000000000000013
#05918:0000130000130000
#0591b:0013001300000000
#05916:0000001300000000
#06016:00130000
#06012:0000000000000013
#0601a:0012
#0601b:0000000000120000
#0601c:0000000000001212
#0611a:00000000120000000000000000220000
#06112:0000000000220000
#0611c:00000000000000000000002200000000
#06114:00000022
#06116:0000000000000022
#06118:00000000000000000000000000000022
#06416:12
#0641c:0012000000000000
#06414:0000001200000000
#06418:0012
#06412:0000000000120000
#0641a:0000000000000012
#06812:12
#06814:00120000
#06816:0012
#0691c:12
#06918:00120000
#0691a:00001212
#00815:0000000000130013
#00812:00000013
#00814:0022222222000000
#00458:0000005300000000
#00656:0062
#0065b:13
#00758:52
#00756:0062
#0155a:00420000
#01556:00420000
#01755:0000000000000053
#01957:00530000
#0195b:0053
#01956:0053
#01952:00000053
#0205b:53
#02057:00000000000000230000000000000000
#02152:53
#0215b:0053
#02252:5300000000000023
#02256:00230053
#0225b:0053
#02257:0000000000230000
#02352:0063
#02357:00230063
#0235b:6300000000000023
#02356:0000000000230000
#0245b:0053
#02452:53
#02556:53
#02652:0053
#0265b:53
#02657:0023000000000000
#02656:0000000000230000
#0355c:42
#03552:3263
#03556:00630000
#03557:0063
#0355b:00000063
#03652:63
#03656:00000000000000230000000000000000
#0375b:63
#03752:0063
#03852:0063
#03857:00230063
#0385b:6300000000000023
#03856:0000000000230000
#03952:53
#03956:00230000
#0405b:53000000000043000000000000000023
#04055:0000005300001300
#04058:00000023000000000000000053000000
#04052:13000000000000000023000000000000
#04152:0053000033000000
#04155:00000000002300000000000000000000
#04158:0013000000000000
#0415b:00000043
#0425b:53
#04255:0053
#04258:0053
#04452:63
#04458:0063
#04556:53
#04557:0063
#04656:0000001300000000
#0465b:0000005300000000
#04652:0000000000000063
#04657:0000000000000013
#0475b:0000005300000000
#04756:0000001300000000
#04752:0000000000000053
#04757:0000000000000053
#0485b:00530000
#04857:0000000000000023
#04852:0000000000000052
#04954:00520000
#05052:0000001300000000
#0505b:0000000000000013
#05156:0000000000000063
#0515b:0000000000000063
#05152:0000001300000000
#05157:0000005300000000
#05257:00630000
#0525b:0000000000000023
#05252:0000000000000052
#05354:00520000
#05452:0000006300000000
#05457:0000001300000000
#0545b:0000000000000053
#05456:0000000000000013
#05556:0000000000000063
#0555b:0000000000000063
#05552:0000006300000000
#05557:0000001300000000
#05652:00630000
#05656:0000000000000023
#0565c:0000000000000062
#0575a:00620000
#0585b:0000001300000000
#05852:0000000000000013
#05957:0000000000000053
#05952:0000000000000053
#0595b:0000001300000000
#05956:0000006300000000
#06056:00530000
#06052:0000000000000023
#0605c:0000000000000062
#0615a:00620000
#06358:0052000000000000
#06356:0000000000620000
#0645c:0052000000000000
#06452:0000000000620000
#0275b:13
#02752:13
#01052:13
#0145b:13
#01855:00130000
#000380:12220000
#002320:12220000
#002380:00000000000000001200002200000000
#002341:00000000000000000000001200002200
#0023c0:0000000000000012
#0033c0:22
#003361:12220000
#003380:00122200
#003321:00001222
#004361:12220000
#004381:0000001300000000
#0043b1:0000000000230000
#004340:00001222
#005320:12220000
#005340:00001222
#006360:0012
#006320:0000000000000022
#007380:12
#0073c0:0000002200000000
#007360:0012
#007320:0000000000000022
#008380:12220000
#0083a0:00001222
#0093c0:12220000
#0093a0:00001222
#010360:000000000000000000000000000000000000000000000000000000000000000000000000000000000000000000000000120000000000000000000000000000000000000000000000000000000000000000000000000000000000000000000000000000000000000000000000000000000000000000000052005200000000000000005200005200000000000000000052000000000000000000000000000000000000000000000000000000000000000000000000000000000000000000000000
#010350:00000000000000000000343424000000
#010380:000000000000000000000000000000000000000000000000000000000000000000000000000000000000000000000000000000000000000000000000000000000000000000000000000000000000000000000000000000000000000000000000000000000000000000000000000000000000000000000000000000000000000000000000000000000000000000000000000000000000000000000000000000000000000000000000120000000000000000000052005200000000000000000052
#010370:00000000000000000000000000000034
#011370:34000034000000000000000000000000
#011380:005200000000000000000000000000000000000000000000000000000000000000000052005200000000000000000000340000000000000000000000000000000000000000000000000000000000000000000000000000000000000000000000000000000000000000000000000000000000000000000000000000000000000000000000000000000000000000000000000000000000000000000000000000000000000000000000000000000000000000000000000000000000000000000000
#011390:000000000000000000000000000000000000000000000000000000000000000000000000000000000000000000000052005200000000000000000000340000000000000000000000000000000000000000000000000000000000000000000000000000000000000000000000000000000000000000000000000000000000000000000000000000000000000000000000000000000000000000000000000000000000000000000000000000000000000000000000000000000000000000000000
#0113a0:000000000000000000000000000000000000000000000000000000000000000000000000000000000000000000000000000000000000000000000052005200000000000000000000340000000000000000000000000000000000000000000000340000000000000000000000000000000000000000000000000000000000000000000000000000000000000000000000340000000000000000000000000000003400000000000000000000000000000024000000000000000000000000000000
#0113b0:000000000000000000000000000000000000000000000000000000000000000000000000000000000000000000000000000000000000000000000000000000000000000000000052005200000000000000000000000000000000000000000052005200000000000000000000000000000000000000000000000000000000000000000000000000000000000000000052005200000000000000000000000000520052000000000000000000000000005200000000000000000000000000000000
#011341:000000000000000000000000000000000000000000000000000000000000000000000000000000000000000000000000000000000000000000000000000000000000000000000000000000000000000000000000000000000000000000000000120000000000000000000000000000000000000000000000000000000000000000000000000000000000000000005200005200000000000000000000000000520052000000000000000000000000005200000000000000000000000000000000
#011331:000000000000000000343424
#012361:12220000
#012341:00001222
#013321:12220000
#013341:00001222
#014361:1222
#0143b1:000000000000000000000000000000000000123232323232
#015371:22
#016381:12220000
#0163a1:00001222
#0173c1:12220000
#0173a1:00001222
#017351:0000000000000013
#018321:0023000000000000
#018361:0000000000001222
#019371:00130023
#0193b1:0033
#019360:0013
#019320:00000033
#020360:23
#0203b1:1300000000000023
#020371:00000000000000530000000000000000
#021321:13
#021361:0023
#0213b0:0013
#022370:23
#022321:1323
#022361:00530000
#0223b0:00001323
#022370:0000000000530000
#022361:00000013
#022321:0000000000000053
#023361:23
#0233b0:1323
#023370:00530000
#023321:00001323
#023361:0000000000530000
#023370:00000013
#0233b0:0000000000000053
#024370:23
#024321:13
#024361:0023
#0243b0:0013
#024370:0000000000000023
#025360:13
#025320:0000002300000000
#0263b0:1300530033333300
#026370:0053000000000000
#0273b0:23
#026321:1333330053005300
#026361:0000000000530000
#027321:23
#029371:0013000000000000
#0293b1:0000002300000000
#029361:0013
#029321:00000053
#030321:23
#0313c1:0000000000000000123232320000000000000000000000000000000000000000
#031391:0000002200000000
#0313b1:0000000000000000000000000000000012323232000000000000000000000000
#031381:0000000000220000
#0313a1:0000000000000000000000000000000000000000000000001232323200000000
#031371:0000000000000022
#033361:0013000000000000
#033321:0000002300000000
#033371:0013
#0333b1:00000053
#0343b1:23
#034321:00000000000000001232323200000000
#034361:00000022
#034380:00000000000000000000000012323232
#0353c0:22
#035360:00130023
#035320:0033
#035371:0013
#0353b1:00000033
#036371:23
#036320:1300000000000023
#036360:00000000000000530000000000000000
#0373b0:13
#037370:0023
#037321:0013
#038361:23
#0383b0:1323
#038370:00530000
#038321:00001323
#038361:0000000000530000
#038370:00000013
#0383b0:0000000000000053
#039370:23
#039321:1323
#039361:00530000
#0403b1:1300002300000000
#040381:00000053000000000000000000000000
#040350:0000001300002300
#040320:00000000000000000053000000000000
#040381:00000013
#0403b1:00000000000000000000000000000053
#041381:0023000000000000
#041320:0013000023000000
#041350:00000000005300000000000000000000
#0423b0:13
#042380:0033
#0433b0:23
#042351:0013
#043321:23
#044321:13
#044351:0023
#044380:0013
#0453b0:23
#045361:13
#045321:0023
#045370:0013
#0463b0:23
#0463b0:0000001300000000
#046380:0000000000230000
#046320:0000000000000013
#047350:0023000000000000
#0473b0:0000001300000000
#047380:0000000000230000
#047370:0000000000000013
#0483b0:0023000000000000
#047321:0000000000000013
#048361:0023000000000000
#0483b1:00130000
#048371:0000000000000053
#0493b1:0023
#048320:0000000000000012
#049340:0022000000000000
#049340:00120000
#049320:0022
#051370:0000001300000000
#0513b0:0000000000230000
#051360:0000000000000013
#052320:0023000000000000
#0513b1:0000000000000013
#052371:0023000000000000
#052371:00130000
#0523b1:0000000000000053
#053371:0023
#052320:0000000000000012
#053340:0022000000000000
#053340:00120000
#053320:0022
#054320:0000001300000000
#054350:0000000000230000
#0543b0:0000000000000013
#055380:0023000000000000
#055320:0000001300000000
#055350:0000000000230000
#055360:0000000000000013
#056320:0023000000000000
#0553b1:0000000000000013
#056371:0023000000000000
#056321:00130000
#056361:0000000000000053
#057321:0023
#0563c0:0000000000000012
#0573a0:0022000000000000
#0573a0:00120000
#0573c0:0022
#059360:0000001300000000
#059320:0000000000230000
#059370:0000000000000013
#0603b0:0023000000000000
#059321:0000000000000013
#060361:0023000000000000
#060361:00130000
#060321:0000000000000053
#061361:0023
#0603c0:0000000000000012
#0613a0:0022000000000000
#0613a0:00120000
#0613c0:0022
#062320:00000000000000000000000000000000120000520000000000000000000000000000000000000000000000000000000000000000000000000000000000000000
#062330:00000000000000000000000000000000000000003252005200000000000000000000000000000000000000000000000000000000000000000000000000000000
#062340:00000000000000000000000000000000000000000000000032520052000000000000000000000000000000000000000000000000000000000000000000000000
#062350:00000000000000000000000000000000000000000000000000000000325200520000000000000000000000000000000000000000000000000000000000000000
#062360:0022
#062381:00000000000000000000000000000000000000000000000000000000000000001200005200000000000000000000000000000000000000000000000000000000
#062391:00000000000000000000000000000000000000000000000000000000000000000000000032000052000000000000000000000000000000000000000000000000
#0623a1:00000000000000000000000000000000000000000000000000000000000000000000000000000000320000520000000000000000000000000000000000000000
#0623b1:00000000000000000000000000000000000000000000000000000000000000000000000000000000000000003200005200000000000000000000000000000000
#0623c1:00000022
#063381:0012000000000000
#0633c1:0000002200000000
#063361:0000000000120000
#063321:0000000000000022
#0643c1:0012000000000000
#064381:0000002200000000
#064321:0000000000120000
#064361:0000000000000022
#0653a1:120000000000000000000000000000000000000000000000000000000000000000000000000000000000000000000000000000000000000000000000000000000000000000000000000000000000000000000000000000000000000000000000000000000000000000000000000000000000000000000000000000000000000000000000000000000000000000000000000000000000000000000000000000000000000000000000000000000000000000000000000000000000000000000000000000000000000000000000000000000000000000000000000000000000000000000000000000000000000000000000000000000000000000000000000000000000000000000000000000000000000000000000000000000000000000000000000000000000000000000000000000000000000000000000000000000000000000000000000000000000000000000000000000000000000000000000000000000000000000000000000000000000000000000000000000000000000000000000000000000000000000000000000000000000000000000000000000000000000000000000000000000000000000000000000000000000000000000000000000000000000000000000000000000000000000000000000000000000000000000000000000000000000000000000000000000000000000000000000000000000000000000000000000000000000000000000000000000000000000000000000000000000000000000000000000000000000000000000000000000000000000000000000000000000000000000000000000000000000000000052000000000000000000000000000000000000000000000000000000000000000000000000000000000000000000000000000000000000000000000000000000000000000000000000000000000000000000000000000000000000000000000000000000000000000000000000000000000000000000000000000000000000000000000000000000000000000000000000000000000000000000000000000000000000000000000000000000000000000000000000000000000000000000000000000000000000000000000000000000000000000000000000000000000000000000000000000000000000000000000000000000000000000000000000000000000000000000000000000000000000000000000000000000000000000000000000000000000000000000000000000000000000000000000000000000000000000000000000000000000000000000000000000000000000000000000000000000000000000000000000
#065391:0000000000000000000000000000000000000000345454545454545454545454
#065381:00000000000000000000000000000000000000000000000000000000000000000000000000000000005600560056005600560056005600560056005600560056
#066391:5454545454545454545454545454545454545454545454545454545454545454
#066381:00560056005600560056005600560056005600560056005600560056005600560056005600560056005600560056005600560056005600560056005600560056
#067391:5454545454545454545454545454545454545454545454543400000000000000
#067381:00560056005600560056005600560056005600560056005600560056005600560056005600560056005600560056005600000000000000000000000000000000
#0673a1:000000000000000000000000000000000000000000000000000000000000000000000000000000000000000000000000000000000000000000000000000000000000000000000000000000000000000000000000000000000000000000000000000000000000000000000000000000000000000000000000000000000000000000000000000000000000000000000000000000000000000000000000000000000000000000000000000000000000000000000000000000000000000000000000000000000000000000000000000000000000000000000000000000000000000000000000000000000000000000000000000000000000000000000000000000000000000000000000000000000000000000000000000000000000000000000000000000000000000000000000000000000000000000000000000000000000000000000000000000000000000000000000000000000000000000000000000000000000000000000000000000000000000000000000000000000000000000000000000000000000000000000000000000000000000000000000000000000000000000000000000000000000000000000000000000000000000000000000000000000000000000000000000000000000000000000000000000000000000000000000000000000000000000000000000000000000000000000000000000000000000000000000000000000000000000000000000000000000000000000000000000000000000000000000000000000000000000000000000000000000000000000000000000000000000000000000000000000000000000000000000000000000000000000000000000000000000000000000000000000000000000000000000000000000000000000000000000000000000000000000000000000000000000000000000000000000000000000000000000000000000000000000000000000000000000000000000000000000000000000000005200000000000000000000000000000000000000000000000000000000000000000000000000000000000000000000000000000000000000000000000000000000000000000000000000000000000000000000000000000000000000000000000000000000000000000000000000000000000000000000000000000000000000000000000000000000000000000000000000000000000000000000000000000000000000000000000000000000000000000000000000000000000000000000000000000000000000000000000000000000000000000000000000000000000000000000000000000000005200000000
#068381:35350000
#068391:005200000000000000000000000000000000000000000000000000000000000000000000000000000000000000000052000000000000000000000000000000000000000000000000000000000000000000000000000000000000000000000000350000000000000000000000000000000000000000000000000000000000000000000000000000000000000000000000000000000000000000000000000000000000000000000000000000000000000000000000000000000000000000000000
#0683a1:000000000000000000000000000000000000000000000000000000000000000000000000000000000000000000000000005200000000000000000000000000000000000000000000000000000000000000000000000000000000000000000052000000000000000000000000000000000000000000000000000000000000000000000000000000000000000000000000000000000000000000000000000000000000000000000000000000000000000000000000000000000000000000000000
#0683b1:000000000000000000000000000000000000000000000000000000000000000000000000000000000000000000000000000000000000000000000000000000000000000000000000000000000000000000000000000000000000000000000000005200000000000000000000000000000000000000000000000000000000000000000000000000000000000000000000220000000000000000000000000000000000000000000000000000000000000000000000000000000000000000000000
#068340:000000000000000000000000000000000000000000000000000000000000000000000000000000000000000000000000000000000000000000000000000000000000000000000000000000000000000000000000000000000000000000000000000000000000000000000000000000000000000000000000000000000000000000000000000000000000000000000000120000000000000000000000000000000000000000000000000000000000000000000000000000000000000000000052
#069320:35350000
#069330:005200000000000000000000000000000000000000000000000000000000000000000000000000000000000000000052000000000000000000000000000000000000000000000000000000000000000000000000000000000000000000000000350000000000000000000000000000000000000000000000000000000000000000000000000000000000000000000000350000000000000000000000000000000000000000000000000000000000000000000000000000000000000000000000
#069340:000000000000000000000000000000000000000000000000000000000000000000000000000000000000000000000000005200000000000000000000000000000000000000000000000000000000000000000000000000000000000000000052000000000000000000000000000000000000000000000000000000000000000000000000000000000000000000000000005200000000000000000000000000000000000000000000000000000000000000000000000000000000000000000000
#069350:000000000000000000000000000000000000000000000000000000000000000000000000000000000000000000000000000000000000000000000000000000000000000000000000000000000000000000000000000000000000000000000000005200000000000000000000000000000000000000000000000000000000000000000000000000000000000000000052000000000000000000000000000000000000000000000000000000000000000000000000000000000000000000000000
#072340:0022000000000000
