This file was generated by Ched 2.7.0.0.
#TITLE "h"
#ARTIST ""
#DESIGNER ""
#DIFFICULTY 0
#PLAYLEVEL
#SONGID ""
#WAVE ""
#WAVEOFFSET 0
#JACKET ""
#REQUEST "ticks_per_beat 480"
#00002: 4
#BPM01: 150
#00008: 01
#TIL00: ""
#HISPEED 00
#MEASUREHS 00
#00019:0012
#00015:000000000012000000000000
#0001c:00000012
#00012:00000012
#00119:12001200000000000012000000000000
#00115:00120000000000001200120000000000
#00114:0000120000000012
#0011a:0000001200001200
#00415:0013001300000013
#0041b:00130000
#00418:00000013
#00410:41
#0051b:0013000000000013
#00515:00130013
#00518:0000001300130000
#00512:0013
#00612:13
#00616:0000001200000000
#0061a:00000000000000120000000000000000
#00618:0000000000000012
#00614:00000000000000000000000000000012
#0061b:13
#01912:13130000
#01916:0013
#0191b:1313
#01917:00130000
#0201b:13
#02017:0000001300000000
#02015:0000000000000013
#02018:00000000000000000000000000000013
#02010:41
#0211b:0013
#02112:13
#0221b:0013
#02217:0000000000130000
#02212:13
#02218:13
#02412:0013
#0241b:13
#02512:0013
#02518:1300000000130013
#02515:00000013
#0261b:1333330033333300
#02612:1333330033333300
#04315:0000001300000000
#04318:00000000000000130000000000000000
#04312:0014
#04316:00000000000000000000001400000000
#0431a:0000000000000014
#04618:0013000000001300
#04615:00130000
#0461b:0000001300000000
#04612:2300000000000013
#0461f:21
#06218:0000000000000012
#06212:00000000003333333333333300000000
#06316:1212
#00716:0000001200000000
#0071a:00000000000000120000000000000000
#00718:0000000000000012
#00714:00000000000000000000000000000012
#0081b:0000000000130000
#00815:0023232323000013
#00818:12000013
#0121b:0013001300130000
#01215:0000130013000013
#01218:00000013
#01210:41
#01312:0013000000000000
#01315:00130013
#01318:0000001300130013
#0131b:0013
#0141b:13
#01412:13
#01415:000000000000000000000000000000000000003333333333
#01518:00130000
#02312:0013
#0231b:13
#02316:0000000000130000
#02315:13
#02815:0013001300130000
#02818:00130013
#02812:2313
#0281b:2300000013000013
#02810:41
#02912:0013000013000000
#02915:00130013
#02918:0000001300130013
#0291b:0013
#0301b:13000033000000000000000000000000
#03012:13000000000000000000000000000033
#03015:00000000000000330000000000000000
#03018:00000000000000000000003300000000
#04412:13
#04418:0013
#04516:13
#04517:0013
#04718:00000013
#04712:0000000000000013
#04715:00130000
#0471b:0000001300000000
#04710:41
#04816:00130000
#04812:0000000000000013
#0481b:00130000
#04817:0000000000000013
#05018:0013001300001300
#05015:0000130000130013
#05012:0000001300000000
#0501b:2300000000000013
#05118:0013001300001300
#0511b:0000000000000013
#05115:0000130000130000
#05112:0000001300000000
#05212:00130000
#05216:0000000000000013
#05217:00130000
#0521b:0000000000000013
#00912:0013000000000013
#00918:00130013
#00915:0000001300130000
#0091b:0013
#0101b:13
#01012:13
#01612:0013001300130000
#01618:0000130013000013
#01615:00000013
#0171b:0013000000000013
#01718:00130013
#01715:0000001300130013
#01712:0013
#0181b:00130013
#01815:0000130000131300
#01818:0000001313000013
#01812:0013
#03218:0013001300130000
#03215:00130013
#0321b:2313
#03212:2300000013000013
#0331b:0013000013000013
#03318:00130013
#03315:0000001300130013
#03312:0013
#03415:00130000
#0341b:00000000130000001333333333333333
#03412:00000000000000001333333333333333
#0351b:00130000
#03517:0013
#03516:00130000
#03512:0013
#03612:13
#03616:0000001300000000
#03618:0000000000000013
#03615:00000000000000000000000000000013
#03712:0013
#0371b:13
#03812:0013
#03816:0000000000130000
#0381b:13
#03815:13
#03912:13
#03918:13000013
#0391b:0000000000130000
#03915:0000000000000013
#03910:41
#04115:0000000000130000
#0411b:0000002300000013
#04112:2323
#04118:00000023
#04212:13
#04215:0013
#05412:0013000000001300
#05418:0000130000000013
#05415:0000001300000000
#0541b:23
#05512:00000013
#05518:0000000000000013
#0551b:00130000
#05515:0000001300000000
#05617:00130000
#0561b:0000000000000013
#05612:00130000
#05616:0000000000000013
#05815:0013001300001300
#05818:0000130000130013
#0581b:0000001300000000
#05812:2300000000130000
#0601b:00130000
#06017:0000000000000013
#06016:00130000
#06012:0000000000000013
#05918:0000130000130013
#05915:0013001300001300
#0591b:0013000000000000
#05912:0000000000130000
#0641a:12
#06414:0012
#0401f:11
#04015:00230000
#04018:0000000000230000
#02717:00000000003333333333333300000000
#02712:00000000003333333333333300000000
#03115:0000000000000000003333330000000000000000000000000033333300000000
#0311b:0000000000000000000000000000000000333333000000000000000000000000
#00455:0000006300000000
#01558:00430000
#01952:00530000
#01956:0053
#01957:00530000
#0195b:0053
#0205b:53
#02057:0000002300000000
#0215b:0053
#02152:53
#0225b:0053
#02257:0000000000230000
#02252:53
#02258:53
#02352:0063
#0235b:63
#02356:0000000000230000
#02355:63
#02452:0063
#0245b:63
#02558:63
#0265b:53
#02652:63
#04452:63
#04458:0063
#04556:53
#04557:0063
#0465b:0000005300000000
#04652:0000000000000063
#0475b:0000005300000000
#04752:0000000000000053
#04856:00530000
#04852:0000000000000023
#0485b:00530000
#04857:0000000000000023
#0515b:0000000000000063
#05252:00630000
#05256:0000000000000023
#05257:00630000
#0525b:0000000000000023
#02758:13
#02755:13
#01755:0000000000000053
#0175b:0000000000000053
#0335b:0000000000000053
#03355:0000000000000053
#03452:0053
#0345b:0063
#03555:13
#03558:13
#0355b:00630000
#03557:0063
#03556:00630000
#03552:0063
#03652:63
#03656:0000002300000000
#03752:0063
#0375b:63
#03852:0063
#03856:0000000000230000
#0385b:63
#03855:63
#03952:53
#03958:53
#04252:63
#04255:0063
#05455:0000006300000000
#05458:0000000000000053
#05558:0000000000000063
#05555:0000006300000000
#05657:00630000
#0565b:0000000000000023
#05652:00630000
#05656:0000000000000023
#0605b:00530000
#06057:0000000000000023
#06056:00530000
#06052:0000000000000023
#05958:0000000000000063
#04055:00130000
#04058:0000000000130000
#04152:13
#0415b:0000001300000000
#000390:12220000
#002390:12000000000000320000000000000000
#0023a0:0000003232000000
#0033a0:00000022
#004350:0000001300000000
#004320:0000000000230000
#006360:00001222
#007380:12220000
#007360:00001222
#010350:000000000000000000000000000000000000000000000000000000000000000000000000000000000000000000000000130000000000000000000000000000000000000000000000000000000000000000000000000000000000000000000000000000000000000000000000000000000000000000000053005300000000000000005300005300000000000000000053000000000000000000000000000000000000000000000000000000000000000000000000000000000000000000000000
#010340:00000000000000000000353525000000
#010380:000000000000000000000000000000000000000000000000000000000000000000000000000000000000000000000000000000000000000000000000000000000000000000000000000000000000000000000000000000000000000000000000000000000000000000000000000000000000000000000000000000000000000000000000000000000000000000000000000000000000000000000000000000000000000000000000130000000000000000000053005300000000000000000053
#010370:00000000000000000000000000000035
#011370:35000035353525000000000000000000
#011380:005300000000000000000000000000000000000000000000000000000000000000000053005300000000000000000053005300000000000000000053005300000000000000000053000000000000000000000000000000000000000000000000000000000000000000000000000000000000000000000000000000000000000000000000000000000000000000000000000000000000000000000000000000000000000000000000000000000000000000000000000000000000000000000000
#011340:000000000000000000000000000000000000000000000000000000000000000000000000000000000000000000000000000000000000000000000000000000000000000000000000000000000000000000000000000000000000000000000000130000000000000000000000000000000000000000000000000000000000000000000000000000000000000000005300005300000000000000000000000000530053000000000000000000000000005300000000000000000000000000000000
#011330:000000000000000000353525
#014350:000000000000000000000000000000000000133333333333
#015320:23
#017350:0000000000000013
#018320:0023000000000000
#0173b1:0000000000000013
#018381:0023000000000000
#019321:00130023
#019361:0033
#019370:00130023
#0193b0:0033
#0203b0:13000023
#020370:0000005300000000
#021320:13
#021350:00230000
#0213b0:0013
#021380:00000023
#022320:13
#022350:00230000
#022381:13
#0223b1:00230000
#0223b1:00001323
#022371:0000000000530000
#0233b1:13
#023381:00230000
#023350:13
#023320:00230000
#023320:00001323
#023360:0000000000530000
#0243b0:13
#024380:00230000
#024320:0013
#024350:0000000000000023
#025380:13
#0253b0:0000002300000000
#0263b0:1333330033333300
#027380:23
#026321:1333330033333300
#027351:23
#027371:00000000133333333333333300000000
#0273b1:00000023
#027320:00000000133333333333333300000000
#027360:00000023
#0303b0:00001333000000000000000000000000
#030380:00230000
#030350:00000000000013330000000000000000
#030320:0023
#030380:00000000000000000000133300000000
#0303b0:00000023
#030320:00000000000000000000000000001333
#031350:3300330033003300333333330000000000000000000000000000000000000000
#031320:0000002300000000
#0313b0:0000000000000000000000000000000013333333000000000000000000000000
#031380:0000000000230000
#031350:0000000000000000000000000000000000000000000000001333333300000000
#031320:0000000000000023
#0333b0:0000000000000013
#034380:0023000000000000
#033351:0000000000000013
#034321:0023000000000000
#034321:00000000000000001333333333333333
#035351:23
#0343b0:00000000000000001333333333333333
#035380:23
#0353b0:00130023
#035370:0033
#035361:00130023
#035321:0033
#036321:13000023
#036361:0000005300000000
#0373b1:13
#037381:00230000
#037321:0013
#037351:00000023
#0383b1:13
#038381:00230000
#038350:13
#038320:00230000
#038320:00001323
#038360:0000000000530000
#039320:13
#039350:0023
#039381:13
#0393b1:0023
#040321:13
#040351:00230000
#0403b1:0000001300000000
#040381:0000000000230000
#040351:00000013
#041321:23
#041381:0013000000000000
#0413b1:0000002300000000
#042321:13
#042351:0000003333000000
#043321:23
#044321:13
#044351:0000002300000000
#044381:0013
#0443b1:0000000000000023
#045361:13
#045321:0000002300000000
#045371:0013
#0453b1:0000000000000023
#0463b1:0000001300000000
#046381:0000000000230000
#046321:0000000000000013
#047351:0023000000000000
#0473b1:0000001300000000
#047381:0000000000230000
#047321:0000000000000013
#048351:0023000000000000
#048361:00130000
#048321:0000000000000053
#049361:0023
#0483b0:00130000
#048370:0000000000000053
#0493b0:0023
#0513b0:0000000000000013
#052380:0023000000000000
#052320:00130000
#052360:0000000000000053
#053320:0023
#052371:00130000
#0523b1:0000000000000053
#053371:0023
#054351:0000001300000000
#054321:0000000000230000
#054381:0000000000000013
#0553b1:0023000000000000
#055351:0000001300000000
#055321:0000000000230000
#055381:0000000000000013
#0563b1:0023000000000000
#056371:00130000
#0563b1:0000000000000053
#057371:0023
#056320:00130000
#056360:0000000000000053
#057320:0023
#059380:0000000000000013
#0603b0:0023000000000000
#0603b0:00130000
#060370:0000000000000053
#0613b0:0023
#060361:00130000
#060321:0000000000000053
#061361:0023
#062321:00000000133333333333333300000000
#062361:00000023
#063381:0012002200000000
#063361:0000000000120022
#0643a1:0012002200000000
#064341:0000000000120022
#065381:130000000000000000000000000000000000000000000000000000000000000000000000000000000000000000000000000000000000000000000000000000000000000000000000000000000000000000000000000000000000000000000000000000000000000000000000000000000000000000000000000000000000000000000000000000000000000000000000000000000000000000000000000000000000000000000000000000000000000000000000000000000000000000000000000000000000000000000000000000000000000000000000000000000000000000000000000000000000000000000000000000000000000000000000000000000000000000000000000000000000000000000000000000000000000000000000000000000000000000000000000000000000000000000000000000000000000000000000000000000000000000000000000000000000000000000000000000000000000000000000000000000000000000000000000000000000000000000000000000000000000000000000000000000000000000000000000000000000000000000000000000000000000000000000000000000000000000000000000000000000000000000000000000000000000000000000000000000000000000000000000000000000000000000000000000000000000000000000000000000000000000000000000000000000000000000000000000000000000000000000000000000000000000000000000000000000000000000000000000000000000000000000000000000000000000000000000000000000000000000053000000000000000000000000000000000000000000000000000000000000000000000000000000000000000000000000000000000000000000000000000000000000000000000000000000000000000000000000000000000000000000000000000000000000000000000000000000000000000000000000000000000000000000000000000000000000000000000000000000000000000000000000000000000000000000000000000000000000000000000000000000000000000000000000000000000000000000000000000000000000000000000000000000000000000000000000000000000000000000000000000000000000000000000000000000000000000000000000000000000000000000000000000000000000000000000000000000000000000000000000000000000000000000000000000000000000000000000000000000000000000000000000000000000000000000000000000000000000000000000000
#065371:0000000000000000000000000000000000000000355555555555555555555555
#065361:00000000000000000000000000000000000000000000000000000000000000000000000000000000005700570057005700570057005700570057005700570057
#066371:5555555555555555555555555555555555555555555555555555555555555555
#066361:00570057005700570057005700570057005700570057005700570057005700570057005700570057005700570057005700570057005700570057005700570057
#067371:5555555555555555555555555555555555555555555555553500000000000000
#067361:00570057005700570057005700570057005700570057005700570057005700570057005700570057005700570057005700000000000000000000000000000000
#067381:000000000000000000000000000000000000000000000000000000000000000000000000000000000000000000000000000000000000000000000000000000000000000000000000000000000000000000000000000000000000000000000000000000000000000000000000000000000000000000000000000000000000000000000000000000000000000000000000000000000000000000000000000000000000000000000000000000000000000000000000000000000000000000000000000000000000000000000000000000000000000000000000000000000000000000000000000000000000000000000000000000000000000000000000000000000000000000000000000000000000000000000000000000000000000000000000000000000000000000000000000000000000000000000000000000000000000000000000000000000000000000000000000000000000000000000000000000000000000000000000000000000000000000000000000000000000000000000000000000000000000000000000000000000000000000000000000000000000000000000000000000000000000000000000000000000000000000000000000000000000000000000000000000000000000000000000000000000000000000000000000000000000000000000000000000000000000000000000000000000000000000000000000000000000000000000000000000000000000000000000000000000000000000000000000000000000000000000000000000000000000000000000000000000000000000000000000000000000000000000000000000000000000000000000000000000000000000000000000000000000000000000000000000000000000000000000000000000000000000000000000000000000000000000000000000000000000000000000000000000000000000000000000000000000000000000000000000000000000000000000005300000000000000000000000000000000000000000000000000000000000000000000000000000000000000000000000000000000000000000000000000000000000000000000000000000000000000000000000000000000000000000000000000000000000000000000000000000000000000000000000000000000000000000000000000000000000000000000000000000000000000000000000000000000000000000000000000000000000000000000000000000000000000000000000000000000000000000000000000000000000000000000000000000000000000000000000000000000005300000000
#068371:36
#068391:005300000000000000000000000000000000000000000000000000000000000000000000000000000000000000000053000000000000000000000000000000000000000000000000000000000000000000000000000000000000000000000000000000000000000000000000000000000000000000000000000000000000000000000000000000000000000000000000000000000000000000000000000000000000000000000000000000000000000000000000000000000000000000000000
#068381:00362600
#0683a1:000000000000000000000000000000000000000000000000000000000000000000000000000000000000000000000000005300000000000000000000000000000000000000000000000000000000000000000000000000000000000000000053000000000000000000000000000000000000000000000000000000000000000000000000000000000000000000000000000000000000000000000000000000000000000000000000000000000000000000000000000000000000000000000000
#068351:000000000000000000000000000000000000000000000000000000000000000000000000000000000000000000000000000000000000000000000000000000000000000000000000000000000000000000000000000000000000000000000000000000000000000000000000000000000000000000000000000000000000000000000000000000000000000000000000130000000000000000000000000000000000000000000000000000000000000000000000000000000000000000000053
#069331:36360000
#069341:005300000000000000000000000000000000000000000000000000000000000000000000000000000000000000000053000000000000000000000000000000000000000000000000000000000000000000000000000000000000000000000000360000000000000000000000000000000000000000000000000000000000000000000000000000000000000000000000360000000000000000000000000000000000000000000000000000000000000000000000000000000000000000000000
#069351:000000000000000000000000000000000000000000000000000000000000000000000000000000000000000000000000005300000000000000000000000000000000000000000000000000000000000000000000000000000000000000000053000000000000000000000000000000000000000000000000000000000000000000000000000000000000000000000000005300000000000000000000000000000000000000000000000000000000000000000000000000000000000000000000
#069361:000000000000000000000000000000000000000000000000000000000000000000000000000000000000000000000000000000000000000000000000000000000000000000000000000000000000000000000000000000000000000000000000005300000000000000000000000000000000000000000000000000000000000000000000000000000000000000000053000000000000000000000000000000000000000000000000000000000000000000000000000000000000000000000000
#072351:0023000000000000
