This file was generated by Ched 2.7.0.0.
#TITLE "mas"
#ARTIST ""
#DESIGNER ""
#DIFFICULTY 0
#PLAYLEVEL
#SONGID ""
#WAVE ""
#WAVEOFFSET 0
#JACKET ""
#REQUEST "ticks_per_beat 480"
#00002: 4
#BPM01: 150
#00008: 01
#TIL00: ""
#HISPEED 00
#MEASUREHS 00
#0001c:00001212
#00015:000012000012
#00018:000000000012000000000012
#00016:120012
#00012:00120012
#00019:000000000000001200000000
#0011c:12120000000000000000000000000000
#00118:0012000000000000
#00116:0000120000120000
#00114:0000001200001200
#0011a:00000000000000001212000000000000
#00112:0000000000000012
#0021a:0000001200000000
#00215:00000000000000120000000000000000
#00212:12
#00616:0012001212000000
#0061a:12000000120000120000000000000000
#00618:0000000000120012
#00614:00000000000000000000000000000012
#00612:12
#0061c:00001212
#0141c:12000012
#01416:000000000000000000000000000000000000000000120000000000000000000000000000000012000000000000000000
#0141a:000000000012
#01414:0000000000000012
#01418:000000120000120000120000120000000000000000001200
#01412:120000000000000000000000000000000000000000000012
#01516:12
#0151c:00120000
#01518:00120000
#0181a:00000000000012000000000000000012
#01816:00000000120000120000120000001200
#01818:00000000000000001200000000120000
#01812:0012000000000000
#0181c:00120000
#01814:00000012
#01912:12120012
#01918:00120012
#0191c:1212
#01916:0012
#02715:00000000001200000000000000130000
#02718:0000001200000013
#0271b:00000000000000120000000000000013
#02714:12
#02716:00000000000000000012000000000000
#02719:0000000000120000
#0271c:00000000000000000000001200000000
#02712:00220023
#02713:0022
#0301c:0012000000000000
#03018:00000012000000001200120000000000
#0301a:0000121200000000
#03016:00000000000000120000000012001200
#03014:00000000000000000000001200000000
#03012:00000000000000000000000000000012
#03019:13
#03114:12000012000000000000000000000000
#03116:00120000000012000000000000001200
#03118:0012000000120000
#0311c:00120012
#03119:00000000001200120000000000120012
#03112:0012
#03115:00000000000000000012001200000000
#03416:0000120000000000000000000000000000001200000000000000000000000012
#03418:00001200000012000000000000120000
#0341a:00000012000000000000000000000012
#03415:00000000001200000000000000000000
#0341b:00000000000000120000000000000000
#03419:0000000000120000
#0341c:00000000000000000000001200000000
#03414:2200000000000012
#03412:00220022
#03413:0022
#04116:00000000000000000000141400001414
#0411b:00000000001300002300000023000000
#04112:23002323
#04118:0023002300000000
#0421b:13
#04215:0000001313000000
#04213:0013000000000000
#04214:00130000
#04218:0000000000130000
#04219:00000013
#0421a:0000000000000013
#04212:23
#04312:0000001313000000
#04317:00000000130000130000000000000000
#04314:00000000000000000000001300000000
#04316:00000000000000000000000000131300
#04319:00001300000000000000131300000000
#0431b:1300000000000013
#04616:0013000000000000
#0461b:00000013130000000000000000000000
#04614:0000001300000000
#04619:00000000000000131300000000000000
#04612:23000000000000000000130013000013
#04617:00000000000000000000001300001300
#0461f:21
#06218:0000000000000012
#06212:00000012
#06214:0000000000000012
#06316:1200001200000000
#0631c:0012000000000000
#06318:0012
#06312:0000000000120000
#0631a:1200000000000012
#06314:0012
#00718:1200000000120012
#00716:0012001212000000
#0071a:00000000000000120000000000000000
#00714:00000000000000000000000000000012
#00712:12120000
#0071c:00001212
#0101a:00120000
#0101c:12000012
#01012:0000000000000012
#01014:12
#02015:0012000000000012
#02013:00120012
#02012:0000001212120000
#0201c:12
#02017:0012
#02010:41
#0281b:00001300000000001300000000130000
#02815:0013001300130013
#02818:00000000130000130000000013000013
#02812:23001313
#02810:41
#02912:1313000000130000
#02914:00130013
#0291b:1300001300000013
#02917:00000013000000000000001300000000
#02916:00000000000000130000000000000013
#02919:0013
#04412:13000013
#04419:0013001300000000
#0441b:00131300
#04414:0000000000130013
#04417:23
#04718:0000000000001313
#04712:13000000000000000000000000131300
#04719:0013000000000000
#04714:00000013130000000000000000000000
#0471b:0000001313130000
#04716:00000000000000130000000000000000
#04715:00000000000000000000001300000000
#04710:41
#04818:0000000012000012
#0481a:0000120000120000
#04816:00000000001200000000000012000000
#04812:0000000012000012
#04817:00000012000000000000000000000000
#0481b:0012000000000000
#04819:0000001200000000
#04815:00000000000000120000000000000000
#0481c:00000012
#04814:0000000000120000
#06416:12
#0641c:0012000000000012
#06412:0000001200120000
#06418:0012
#0641a:12
#06414:0012
#00412:1212121200000000
#00416:0000000012121212
#00418:0012000000000000
#0041a:00120000
#0041c:0000001200001212
#00410:41
#00512:1212121200000000
#00516:0000000012121212
#00518:0012000000000000
#0051a:00121212
#0051c:0000001200120012
#0081c:1212121200000000
#00818:0000000012121212
#00814:00000012
#00812:0000000000120012
#00816:0022222222000000
#0091c:1212121200000000
#00918:0000000012121212
#00916:0012000000000000
#00914:00121212
#00912:0000001200120012
#01212:0000121200000012
#0121c:0000000000001212
#01213:0012
#01217:0012000000001200
#01219:00120000
#0121b:0000001200000000
#01215:0000000000120000
#01210:41
#01316:0000121200000000
#01318:0012000000001212
#0131a:00120000
#0131c:0000001200000000
#01314:00001212
#01312:0000000000120012
#0161c:0000121200000012
#01612:0000000000001212
#0161b:0012
#01617:0012000000001200
#01615:00120000
#01613:0000001200000000
#01619:0000000000120000
#01718:0000121200000000
#01716:0012000000001212
#01714:00120000
#01712:0000001200000000
#0171a:00001212
#0171c:0000000000120012
#02117:12000012
#02112:00120012
#0211c:0012
#0211a:0012001200000000
#02118:00120000
#02114:0000000000120012
#02217:12
#02212:00120000
#0221a:0012001200000000
#02218:0000120000121212
#0221c:0012
#02214:0000000000120012
#0231c:12
#02317:0000120012121212
#02314:0012001200000000
#02312:00120012
#0241c:12120000
#02417:1212121212121212
#0241a:0012001200000000
#02412:00001212
#02414:0000000000120012
#02517:1212121200000000
#0251c:1212
#0251a:0012000000120012
#02512:00121212
#02514:0000001200000000
#02518:00000012
#02516:0000000000120012
#0261c:12000000000000000000000000120000
#0261a:00001200000012000000000000000012
#02618:00120000
#02614:00000000000000120000120000000000
#02616:0000000012000012
#02612:00000012
#03212:00001300000000001300000000130000
#03218:0013001300130013
#03215:00000000130000130000000013000013
#0321b:23001313
#0331b:1313000000130000
#03319:00130013
#03312:1300001300000013
#03316:00000013000000000000001300000000
#03317:00000000000000130000000000000013
#03314:0013
#0351c:12
#03515:00000000130000000033333300000000
#0351b:00000000003333330000000000000000
#0351a:000000000000000000000000000000000000003300000000
#03519:000000000033
#03518:0000000000000033
#03517:000000000000000000000033
#03516:000000000000000000000000000000000000000000000033
#03619:0012000000000012
#0361b:00120012
#0361c:0000001212120000
#03612:12
#03617:0012
#03717:12000012
#0371c:00120012
#03712:0012
#03714:0012001200000000
#03716:00120000
#0371a:0000000000120012
#03817:12
#0381c:00120000
#03814:0012001200000000
#03816:0000120000121212
#03812:0012
#0381a:0000000000120012
#03912:12000000000000000000000000000013
#03917:0000120012000013
#0391a:0012001200000000
#0391c:00120000
#0391b:0000000000130000
#03916:00000000000000000000001300000000
#03919:00000013
#03914:00000000000000000000000000130000
#03910:41
#04012:00000013000000000000000000000000
#0401b:00000000000023000013000000000000
#04015:23000000230000000000000023000013
#0401f:11
#04018:0000000000230000
#04512:13000013
#04519:0013001300000000
#0451b:00131300
#04514:0000000000130013
#04918:0000000012000022
#04917:00000012000000000000002200000000
#0491b:0012000000000000
#0491a:0000120000220000
#04916:00000000001200000000000000220000
#04919:0000001200002200
#04915:00000000000000120000000000000022
#04912:0012
#05019:00000000000013130000000000000000
#05012:23130000
#05017:00001313000000000000000000000000
#05014:0013
#0501b:2300000000131300
#05016:00000000000000000000001300001313
#05114:00001313000000000000000000000000
#0511b:13000000000000000000000000130000
#05119:00130000
#05112:0000001313130013
#05117:00000000000000130000000000000000
#05115:00000013
#05118:00000000000000000000001300001300
#05216:0000000012000012
#05214:0000120000120000
#05218:00000012
#0521c:00000012000000001200000000001200
#05213:0012000000000000
#0521b:00000000001200000000000000000000
#05215:0000001200000000
#0521a:00000000000000120000120000000000
#05212:00000012
#05312:0012
#05318:00000012000000000000000000220000
#05316:0012000000000022
#05315:00120022
#05319:00000000001200000000000000000022
#05314:0000001200220000
#0531a:00000000000000120000000000000000
#0531c:0012
#05317:00000000000000000000002200000000
#05417:0013000000000000
#05412:23000013130000000000000000000000
#05419:0000001300000000
#05414:00000000000000131300000000000000
#0541b:23000000000000000000130013000013
#05416:00000000000000000000001300001300
#05515:0000000000001313
#0551b:13000000000000000000000000131300
#05514:0013000000000000
#05519:00000013130000000000000000000000
#05512:0000001313130000
#05517:00000000000000130000000000000000
#05518:00000000000000000000001300000000
#05616:0000000012000012
#05614:0000120000120000
#05618:00000000001200000000000012000000
#0561c:0000000012000012
#05617:00000012000000000000000000000000
#05613:0012000000000000
#05615:0000001200000000
#05619:00000000000000120000000000000000
#05612:00000012
#0561a:0000000000120000
#05716:00001222
#05717:00000012000000000000220000000000
#05713:0012000000000000
#05714:00120000
#05718:00000000001200000000000000000022
#05715:0000001200000022
#05719:00000000000000120000000000220000
#0571c:0012
#0571a:00000000000000000000002200000000
#05814:00000000000013130000000000000000
#0581b:23130000
#05816:00001313000000000000000000000000
#05819:0013
#05812:2300000000131300
#05817:00000000000000000000001300001313
#05919:00001313000000000000000000000000
#05912:13000000000000000000000000130000
#05914:00130000
#0591b:0000001313130013
#05916:00000000000000130000000000000000
#05918:00000013
#05915:00000000000000000000001300001300
#0601a:0000120000120000
#0601a:0000000000120000
#06016:00000012
#06016:00000012
#06012:00000012000000001200000000001200
#0601c:00000012
#0601c:00000012
#06014:00000000000000120000120000000000
#06014:0000000000120000
#06018:0000000012000012
#0601b:0012000000000000
#06013:00000000001200000000000000000000
#06019:0000001200000000
#06119:0012
#06117:00000012000000000000000000000000
#0611c:0012000000000000
#0611b:00120000
#06116:00000000001200000000000000000000
#0611a:0000001200000000
#06115:00000000000000120000000000000000
#06114:00000000000000000012000000000000
#06118:0000000000120000
#06113:00000000000000000000001200000000
#06518:12
#0651c:0012
#00656:0062
#0065a:12
#00758:52
#00756:0062
#0155c:00420000
#01558:00420000
#01958:00520052
#0195c:0052
#01956:0052
#01952:00000052
#0425b:53
#04255:0053
#04452:63
#0445b:0053
#04752:0000000000000053
#04852:0000000000000052
#0635c:0052000000000000
#06352:0000000000620000
#0645c:0052000000000000
#06452:0000000000620000
#00252:52
#0045c:0000005200000000
#0175c:0000000000000052
#0205c:52
#02057:0022
#02157:52000022
#0215c:0052
#02152:00220000
#02257:52
#02252:00220000
#0225c:0052
#02258:0000000000225200
#02254:0000000000000022
#0235c:52
#02357:00220000
#03652:62
#03657:0022
#03757:62000022
#0375c:00220000
#03752:0062
#03857:62
#0385c:00220000
#03852:0062
#03856:0000000000226200
#0385a:0000000000000022
#03952:62
#03957:00220000
#04552:63
#0455b:0053
#05158:0000000000000063
#0525c:0000000000000062
#0555b:0000000000000063
#0565c:0000000000000062
#06052:0000000000000052
#01054:12
#01452:12
#0185c:00120000
#04055:13000013
#0405b:0000001300000000
#0415b:00000013
#04152:0013
#04158:0013000000000000
#05955:0000000000000053
#02754:12
#0355c:12
#0003c0:12
#000380:00220000
#002320:12
#002360:0000002200000000
#0023c1:12220000
#0023a0:000000000000000000000000000000000000000000000000000000000000000000000000000000000000000000000000000000000000000000000000000000000000000000000000000000000000000000000000000000000000000000000000120000000000000000000000000000000000000000000000000000000000000000000052000000000000000000000000000000000000000000000000000000000000000000000000005200000000000000000000000000000000000000000052
#002390:00000000000000000000003500003500
#0023b0:000000000000000000000000000000000000000000000000000000000000000000000000000000000000000000000000000000000000000000000000000000000000000000000000000000000000000000000000000000000000000000000000000000000000000000000000000000000000000000000000000000000000000000000000005200000000000000000000000000000000000000000000000000000000000000000052000000000000000000000000000000000000000000000000
#003380:350000000000000000000000000000000000000000000000000000000000000000000000000000000000000000000000005200000000000000000000000000000000000000000000000000000000000000000000000000000000000000000052000000000000000000000000000000000000000000000000000000000000000000000000000000000000000000000000000000000000000000000000000000000000000000000000000000000000000000000000000000000000000000000000
#003390:005200000000000000000000000000000000000000000000000000000000000000000000000000000000000000000052000000000000000000000000000000000000000000000000000000000000000000000000000000000000000000000000005200000000000000000000000000000000000000000000000000000000000000000000000000000000000000000000220000000000000000000000000000000000000000000000000000000000000000000000000000000000000000000000
#003370:00353500
#002341:0012
#003341:00000022
#0043c1:0000001200000000
#004381:0000000000220000
#006361:0012
#006321:0000000000000022
#007381:12
#0073c1:0000002200000000
#007361:0012
#007321:0000000000000022
#010361:000000000000000000000000000000000000000000000000000000000000000000000000000000000000000000000000120000000000000000000000000000000000000000000000520000000000000000000000520000000000000000000000520000000000000000000000000000000000000000000052005200000000000000000000000000000000000000000052000000000000000000000000000000000000000000000000000000000000000000000000000000000000000000000000
#010351:0000000000000000000000000052000000000000340000002400000000000000
#010371:0000000000000000000000000000005200000000000000000000000000000000
#010341:000000000000000000000000000000000000000000000000000000000000000000000000000000000000000000000000000000000000000000000000000000000000000000000000000000000000000000000000000000000000000000000000000000000000000000000000000000000000000000000000000000000000000000000052005200000000000000000000000000000000000000000000000000000000000000000000000000000000000000000000000000000000000000000000
#010331:00000000000000000000003400000000
#010381:000000000000000000000000000000000000000000000000000000000000000000000000000000000000000000000000000000000000000000000000000000000000000000000000000000000000000000000000000000000000000000000000000000000000000000000000000000000000000000000000000000000000000000000000000000000000000000000000000000000000000000000000000000000000000000000000120000000000000000000000000000000000000000000052
#0103a1:000000000000000000000000000000000000000000000000000000000000000000000000000000000000000000000000000000000000000000000000000000000000000000000000000000000000000000000000000000000000000000000000000000000000000000000000000000000000000000000000000000000000000000000000000000000000000000000000000000000000000000000000000000000000000000000000000000000000000000000052005200000000000000000000
#010391:00000000000000000000000000000034
#011371:34000035000000000000000000000000
#011381:005200000000000000000000000000000000000000000000000000000000000000000052000000000000000000000000350000000000000000000000000000000000000000000000000000000000000000000000000000000000000000000000000000000000000000000000000000000000000000000000000000000000000000000000000000000000000000000000000000000000000000000000000000003400000000000000000000000000000000000000000000000000000000000000
#011391:000000000000000000000000000000000000000000000000000000000000000000000000005200000000000000000052000000000000000000000000350000000000000000000000000000000000000000000000000000000000000000000000000000000000000000000000000000000000000000000000000000000000000000000000000000000000000000000000000000000000000000000000000000520052000000000000000000000000000000000000000000000000000000000000
#0113a1:000000000000000000000000000000000000000000000000000000000000000000000000000000000000000000000000005200000000000000000052000000000000000000000000340000000000000000000000000000000000000000000000340000000000000000000000000000000000000000000000000000000000000000000000000000000000000000000000340000000000000000000000000000000000000000000000000000000000000024000000000000000000000000000000
#0113b1:000000000000000000000000000000000000000000000000000000000000000000000000000000000000000000000000000000000000000000000000005200000000000000000052005200000000000000000000000000000000000000000052005200000000000000000000000000000000000000000000000000000000000000000000000000000000000000000052005200000000000000000000000000000000000000000000000000000000005200000000000000000000000000000000
#011350:000000000000000000000000000000000000000000000000000000000000000000000000000000000000000000000000000000000000000000000000000000000000000000000000000000000000000000000000000000000000000000000000120000000000000000000000000000000000000000000000000000000000000000000000000000000000000000005200005200000000000000000000000000000000000000000000000000000000005200000000000000000000000000000000
#011340:000000000000000000340024
#011330:000000000000000000000000000000000000000000000000000000000000000000000000000000000000000000000000000000000000000000000000000000000000000000000000000000000000000000000000000000000000000000000000000000000000000000000000000000000000000000000000000000000000000000000000000000000000000000000000000000000000000000000000000000520052000000000000000000000000000000000000000000000000000000000000
#011320:000000000034
#012320:1222000000000000
#0123c0:0000000012220000
#013360:1222000000000000
#013380:0000000012220000
#0163c0:1222000000000000
#016320:0000000012220000
#017380:1222000000000000
#017360:0000000012220000
#0173c0:0000000000000012
#018380:0022000000000000
#019380:00120032
#0193c0:0032
#0203c0:32
#020370:0052
#0213c0:22
#019361:0012
#019321:00000032
#020361:22
#021371:1222
#021321:00520000
#0213c0:0012
#021370:00000052
#0223c0:22
#022371:1222
#022321:00520000
#0223c0:00001222
#022380:0000000000520000
#022381:00000012
#022341:0000000000000052
#023381:22
#0233c0:1222
#023370:00520000
#026320:12
#026360:00220000
#026380:0012
#0263c0:00000022
#0353b0:00000000133333330000000000000000
#035380:0023
#035351:00000000000000001333333300000000
#035321:00000023
#0353b0:00000013
#0353a0:000000000000000000000000000000000000003300000000
#035390:000000000033
#035380:0000000000000033
#035370:000000000000000000000033
#035360:000000000000000000000000000000000000000000000033
#036350:23
#036321:12
#036371:0052
#037321:22
#037370:1222
#0373c0:00520000
#037321:0012
#037371:00000052
#038321:22
#038370:1222
#0383c0:00520000
#038321:00001222
#038361:0000000000520000
#038360:00000012
#0383a0:0000000000000052
#039360:22
#039321:1222
#039371:00520000
#0403b1:1300002300000000
#040350:0000001300002300
#040381:00000013
#041381:0023000000000000
#041320:0013000023000000
#0423b0:13
#042380:0023
#042351:0013
#043321:23
#044321:13
#044361:0023
#0443b0:0013
#045370:23
#045321:13
#045361:0023
#0453b0:0013
#046370:23
#047320:0000000000000013
#048360:0023000000000000
#048320:0000000000000012
#049360:0022000000000000
#051380:0000000000000013
#0523b0:0023000000000000
#0523c0:0000000000000012
#053380:0022000000000000
#0553b0:0000000000000013
#056370:0023000000000000
#0563c0:0000000000000012
#057380:0022000000000000
#059350:0000000000000013
#060320:0023000000000000
#060320:0000000000000012
#061360:0022000000000000
#061320:0000000000000000000000000000000000000000000000000000000000000000000000000000000000000000000000000000000000000000000000000000000000000000000000000000000000000000000000000000000000000000000000000000000000000000000000000000000000000000000000000000000000000000000000000000000000000000000000000000000000000000000000000000000000000000000000000000000000000000000000000000000000000000000000000000000000000000000000000000000000000000000000000000000000000000000000000000000000000000000000000000000000000000000000000000000000000000000000000000000000000000000000000000000000000000000000000000000000000000000000000000000000000000000000000000000000000000000000000000000000000000000000000000000000000000000000000000000000000000000000000000000000000000000000000000000000000000000000000000000000000000000000000000000000000000000000000000000000000000000000000000000000000000000000000000000000000000000000000000000000000000000000000000000000000000000000000000000000000000000000000000000000000000000000000000000000000000000000000000000000000000000000000000000000000000000000000000000000000000000000000000000000000000000000000000000000000000000000000000000000000000000000000000000000000000000000000000000000000000000000000000000000000000000000000000000000000000000000000000000000000000000000000000000000000000000000000000000000000000000000000000000000000000000000000000000000000000000000000000000000000000000000000000000000000000000000000000000000000000000000000000000000000000000000000000000000000000000000000000000000000000000000000000000000000000000000000000000000000000000000000000000000000000000000000000000000000000000000000000000000000000000000000000000000000000000000000000000000000000000000000000000000000000000000000000000000000000000000000000000000000000000000000000000000000000000000000000000000000000000000000000000000000000000000000000000000000000000000000000000000000000000000000000000000000000000000000000000000000000000000000000000000000000000000000000000000000000000000000000000000000000000000000000000000000000000000000000000000000000000000000000000000000000000000000000000000000000000000000000000000000000000000000000000000000000000000000000000000000000000000000000000000000000000000000000000000000000000000000000000000000000000000000000000000000000000000000000000000000000000000000000000000000000000000000000000000000000000000000000000000000000000000000000000000000000000000000000000000000000000000000000000000000000000000000000000000000000000000000000000000000000000000000000000000000000000000000000000000000000000000000000000000000000000000000000000000000000000000000000000000000000000000000000000000000000000000000000000000000000000000000000000000000000000000000000000000000000000000000000000000000000000000000000000000000000000000000000000000000000000000000000000000000000000000000000000000000000000000000000000000000000000000000000000000000000000000000000000000000000000000001c00000000000000000000000000000000000000000000000000000000000000000000000000000000000000000000000000000000000000000000003c5a000000000000000000000000000000000000000000000000000000000000000000000000000000000000000000000000000000000000000000003a5800000000000000000000000000000000000000000000000000000000000000000000000000000000000000000000000000000000000000000000385600000000000000000000000000000000000000000000000000000000000000000000000000000000000000000000000000000000000000000000365400000000000000000000000000000000000000000000000000000000000000000000000000000000000000000000000000000000000000000000345200000000000000000000000000000000000000000000000000000000000000000000000000000000000000000000000000000000000000000000220000000000000000000000000000000000000000000000000000000000000000000000000000000000000000000000000000000000000000000000000000000000000000000000000000000000000000000000000000000000000000000000000000000000000000000000000000000000000000000000
#062320:00000000122200000000000000000000
#062371:00000000001222000000000000000000
#062330:00000000000013230000000000000000
#062381:00000000000000132300000000000000
#062340:00000000000000001424000000000000
#062391:00000000000000000014240000000000
#062340:00000000000000000000152500000000
#062391:00000000000000000000001525000000
#0633c1:0012000000000000
#063381:0000002200000000
#063320:0012220000000000
#063321:0000000000120000
#063361:0000000000000022
#0633c0:0000000000122200
#0643c1:0012000000000000
#064381:0000002200000000
#064340:0012220000000000
#064321:0000000000120000
#064361:0000000000000022
#0643a0:0000000000122200
#065341:120000000000000000000000000000000000000000000000000000000000000000000000000000000000000000000000000000000000000000000000000000000000000000000000000000000000000000000000000000000000000000000000000000000000000000000000000000000000000000000000000000000000000000000000000000000000000000000000000000000000000000000000000000000000000000000000000000000000000000000000000000000000000000000000000000000000000000000000000000000000000000000000000000000000000000000000000000000000000000000000000000000000000000000000000000000000000000000000000000000000000000000000000000000000000000000000000000000000000000000000000000000000000000000000000000000000000000000000000000000000000000000000000000000000000000000000000000000000000000000000000000000000000000000000000000000000000000000000000000000000000000000000000000000000000000000000000000000000000000000000000000000000000000000000000000000000000000000000000000000000000000000000000000000000000000000000000000000000000000000000000000000000000000000000000000000000000000000000000000000000000000000000000000000000000000000000000000000000000000000000000000000000000000000000000000000000000000000000000000000000000000000000000000000000000000000000000000000000000000000052000000000000000000000000000000000000000000000000000000000000000000000000000000000000000000000000000000000000000000000000000000000000000000000000000000000000000000000000000000000000000000000000000000000000000000000000000000000000000000000000000000000000000000000000000000000000000000000000000000000000000000000000000000000000000000000000000000000000000000000000000000000000000000000000000000000000000000000000000000000000000000000000000000000000000000000000000000000000000000000000000000000000000000000000000000000000000000000000000000000000000000000000000000000000000000000000000000000000000000000000000000000000000000000000000000000000000000000000000000000000000000000000000000000000000000000000000000000000000000000000
#065331:0000000000000000000000000000000000000000345454545454545454545454
#065321:00000000000000000000000000000000000000000000000000000000000000000000000000000000005600560056005600560056005600560056005600560056
#066331:5454545454545454545454545454545454545454545454545454545454545454
#066321:00560056005600560056005600560056005600560056005600560056005600560056005600560056005600560056005600560056005600560056005600560056
#067331:5454545454545454545454545454545454545454545454543400000000000000
#067321:00560056005600560056005600560056005600560056005600560056005600560056005600560056005600560056005600000000000000000000000000000000
#067341:000000000000000000000000000000000000000000000000000000000000000000000000000000000000000000000000000000000000000000000000000000000000000000000000000000000000000000000000000000000000000000000000000000000000000000000000000000000000000000000000000000000000000000000000000000000000000000000000000000000000000000000000000000000000000000000000000000000000000000000000000000000000000000000000000000000000000000000000000000000000000000000000000000000000000000000000000000000000000000000000000000000000000000000000000000000000000000000000000000000000000000000000000000000000000000000000000000000000000000000000000000000000000000000000000000000000000000000000000000000000000000000000000000000000000000000000000000000000000000000000000000000000000000000000000000000000000000000000000000000000000000000000000000000000000000000000000000000000000000000000000000000000000000000000000000000000000000000000000000000000000000000000000000000000000000000000000000000000000000000000000000000000000000000000000000000000000000000000000000000000000000000000000000000000000000000000000000000000000000000000000000000000000000000000000000000000000000000000000000000000000000000000000000000000000000000000000000000000000000000000000000000000000000000000000000000000000000000000000000000000000000000000000000000000000000000000000000000000000000000000000000000000000000000000000000000000000000000000000000000000000000000000000000000000000000000000000000000000000000000000005200000000000000000000000000000000000000000000000000000000000000000000000000000000000000000000000000000000000000000000000000000000000000000000000000000000000000000000000000000000000000000000000000000000000000000000000000000000000000000000000000000000000000000000000000000000000000000000000000000000000000000000000000000000000000000000000000000000000000000000000000000000000000000000000000000000000000000000000000000000000000000000000000000000000000000000000000000000005200000000
#068321:26
#0653a0:0012002200000000
#065390:0000000000000000000000000000000000000000145454545454545454545454
#065380:00000000000000000000000000000000000000000000000000000000000000000000000000000000005600560056005600560056005600560056005600560056
#066390:5454545454545454545454545454545454545454545454545454545454545454
#066380:00560056005600560056005600560056005600560056005600560056005600560056005600560056005600560056005600560056005600560056005600560056
#067390:5454545454545454545454545454545454545454545454542400000000000000
#067380:00560056005600560056005600560056005600560056005600560056005600560056005600560056005600560056005600000000000000000000000000000000
#068380:16260000
#068390:005200000000000000000000000000000000000000000000000000000000000000000000000000000000000000000052000000000000000000000000000000000000000000000000000000000000000000000000000000000000000000000000000000000000000000000000000000000000000000000000000000000000000000000000000000000000000000000000000000000000000000000000000000000000000000000000000000000000000000000000000000000000000000000000
#068321:00162600
#068351:000000000000000000000000000000000000000000000000005200000000000000000000000000000000000000000052000000000000000000000000000000000000000000000000000000000000000000000000000000000000000000000000
#068380:00001626
#0683b0:000000000000000000000000000000000000000000000000000000000000000000000000000000000000000000000000000000000000000000000000000000000000000000000000000000000000000000000000000000000000000000000000005200000000000000000000000000000000000000000000000000000000000000000000000000000000000000000052000000000000000000000000000000000000000000000000000000000000000000000000000000000000000000000000
#068321:00000016
#068331:000000000000000000000000000000000000000000000000000000000000000000000000000000000000000000000000000000000000000000000000000000000000000000000000005200000000000000000000000000000000000000000052
#069321:26
#069380:16260000
#0693b0:005200000000000000000000000000000000000000000000000000000000000000000000000000000000000000000052000000000000000000000000000000000000000000000000000000000000000000000000000000000000000000000000000000000000000000000000000000000000000000000000000000000000000000000000000000000000000000000000000000000000000000000000000000000000000000000000000000000000000000000000000000000000000000000000
#069321:00162600
#069331:000000000000000000000000000000000000000000000000000000000000000000000000000000000000000000000000005200000000000000000000000000000000000000000000000000000000000000000000000000000000000000005200000000000000000000000000000000000000000000000000000000000000000000000000000000000000000000000000000000000000000000000000000000000000000000000000000000000000000000000000000000000000000000000000
#069380:00001626
#069390:000000000000000000000000000000000000000000000000000000000000000000000000000000000000000000000000005200000000000000000000000000000000000000000052000000000000000000000000000000000000000000000000
#069321:00000016
#069351:000000000000000000000000000000000000000000000000000000000000000000000000000000000000000000000000000000000000000000000000000000000000000000000000000000000000000000000000000000000000000000000000000000000000000000000000000000000000000000000000000000000000000000000000000000000000000000000000005200000000000000000000000000000000000000000000000000000000000000000000000000000000000000000000
#072351:0022000000000000
