This file was generated by Ched 2.7.0.0.
#TITLE "n"
#ARTIST ""
#DESIGNER ""
#DIFFICULTY 0
#PLAYLEVEL
#SONGID ""
#WAVE ""
#WAVEOFFSET 0
#JACKET ""
#REQUEST "ticks_per_beat 480"
#00002: 4
#BPM01: 150
#00008: 01
#TIL00: ""
#HISPEED 00
#MEASUREHS 00
#00512:14
#00518:0014
#00914:0014
#0091a:14
#01212:14
#01218:0014
#01210:41
#01314:14
#01318:0014
#0161a:14
#01614:0014
#01718:14
#01714:0014
#0461a:2414
#04614:00140000
#0461f:21
#04712:1414
#04718:00140000
#04710:41
#0081a:14
#00814:0014
#04414:14
#00412:14
#00418:0014
#00410:41
#00612:14
#0101a:14
#01412:14
#0181a:14
#01918:14
#02018:14
#02010:41
#02214:14
#02418:14
#02412:0014
#0251a:14
#02514:0014
#03614:14
#03818:14
#02912:14
#0291a:0014
#02812:14
#02818:0014
#02810:41
#0321a:14
#03214:0014
#0331a:14
#03312:0014
#04218:14
#04818:14
#0491a:14
#05012:1414
#05018:00140000
#0511a:1414
#05114:00140000
#05418:0014
#05414:00140000
#0541a:24
#05514:14
#05518:00140000
#05512:0014
#05814:0014
#05818:00140000
#05812:14
#05918:14
#05914:00140000
#0591a:0014
#06318:00000014
#06314:00140000
#0621a:00000014
#06412:00140000
#00712:14
#0111a:14
#01514:14
#05214:14
#05312:14
#0561a:14
#05718:14
#06012:14
#0401f:11
#03015:00340000
#03014:0034
#03013:00000034
#03417:00340000
#03418:0034
#03419:00000034
#03910:41
#02058:54
#02254:64
#03654:64
#03858:54
#04858:54
#0495a:24
#05254:64
#05352:24
#0565a:64
#05758:24
#06052:54
#00652:14
#0105a:14
#01452:14
#0185a:14
#000380:1424
#001340:1424
#002380:14
#0023a0:0034
#0033a0:0024
#020380:14
#0213a0:3424
#022340:14
#023320:3424
#026380:14
#027380:24
#030340:1434
#030350:00340000
#030330:00000034
#031320:3424
#034380:1434
#034370:00340000
#034390:00000034
#0353a0:24
#036340:14
#037320:3424
#038380:14
#0393a0:3424
#040340:14000034
#040320:0000003400000000
#041320:0034000000000000
#041340:0024
#042380:0014
#0433a0:0024
#044340:0014
#045330:34
#045320:0024
#048380:14
#0483a0:0034
#0493a0:34
#049380:0024
#052340:14
#052320:0034
#053320:34
#053340:0024
#0563a0:14
#056380:0034
#057380:34
#0573a0:0024
#060320:14
#060340:0034
#061340:34
#062320:24
#064390:00000014
#065390:00000000000000000000345555555555
#065380:0000000000000000000000000000000000000000005500550055005500550055
#066390:55555555555555555555555555555555
#066380:0055005500550055005500550055005500550055005500550055005500550055
#067390:55555555240000000000000000000000
#067380:0055005500550055000000000000000000000000000000000000000000000000
#067320:00000014
#068340:00000034
#069320:00000034
#072360:0024000000000000
