This file was generated by Ched 2.7.0.0.
#TITLE ""
#ARTIST ""
#DESIGNER ""
#DIFFICULTY 0
#PLAYLEVEL
#SONGID ""
#WAVE ""
#WAVEOFFSET 0
#JACKET ""
#REQUEST "ticks_per_beat 480"
#00002: 4
#BPM01: 171
#00008: 01
#TIL00: ""
#HISPEED 00
#MEASUREHS 00
#0031a:14
#05118:2616
#0511f:21
#0041a:14
#00512:14
#00612:14
#0111a:14
#01214:14
#02718:14
#02818:14
#02912:14
#03012:14
#06718:14
#06814:14
#06918:14
#0231a:14
#02310:41
#02414:14
#02518:14
#02612:14
#05318:16
#05312:0016
#00718:14
#00710:41
#00818:14
#00914:14
#01014:14
#05912:0016
#05918:26
#06118:1616
#06018:16
#06012:0016
#0131a:14
#01414:14
#01518:14
#01510:41
#01612:14
#01718:14
#01812:14
#0191a:14
#02014:14
#02118:14
#02212:14
#0311a:14
#03110:41
#0321a:14
#03314:14
#03414:14
#03518:14
#03612:14
#0371a:14
#03814:14
#03918:14
#03910:41
#04012:14
#0411a:14
#04214:14
#05212:1616
#05210:41
#05512:1616
#05712:16
#05718:0016
#05618:1616
#06318:0016
#06312:16
#06512:1616
#06412:16
#06418:0016
#0431f:11
#0433a0:14
#0443a0:24
#045320:14
#046320:24
#047380:14
#048380:24
#049340:14
#050340:24
#054380:1626
#058320:1626
#062380:1626
#066320:1626
#070340:1400000000000024
