This file was generated by Ched 2.7.0.0.
#TITLE ""
#ARTIST ""
#DESIGNER ""
#DIFFICULTY 0
#PLAYLEVEL
#SONGID ""
#WAVE ""
#WAVEOFFSET 0
#JACKET ""
#REQUEST "ticks_per_beat 480"
#00002: 4
#BPM01: 171
#00008: 01
#TIL00: ""
#HISPEED 00
#MEASUREHS 00
#01018:0000000000001313
#01015:00000000000000000000000000130013
#01012:1300000000130000
#01016:00000013000000000000000000000000
#01017:1300001300000000
#0101b:0013
#01117:00000013000000000000000000000000
#0111b:2300001300130000
#01115:0000000000000013
#01112:00000013
#01118:00000013
#01212:1300001300000000
#01216:00000013000000000013000000000000
#01217:0000001300000000
#0121b:00000000000000000013000000000000
#02317:1300000000130013
#02312:0000001300000013
#02316:00001313
#0231b:00000013
#02310:41
#05014:24240018
#05012:0014001424000000
#0501a:14142400
#05018:0024002400000000
#0511b:00130013
#05119:0000001300000000
#05112:2300000013000013
#05116:00130000
#05114:0000001300000000
#05117:2313
#05118:0000000000000013
#05115:00000013
#0511f:21
#0531a:0000000000000014
#05312:0013001300000014
#05315:1313
#05318:1313
#0531b:0013001300000000
#0541c:0000001200000000
#05412:1400001200002600
#0541a:14
#0541b:0023
#05715:0000000000000013
#0571b:0000000013000013
#05712:1300001300000000
#05717:1300001300000000
#05716:0013
#0581b:0013000013000000
#05812:1300130000130000
#05819:0000001300000000
#05816:0013
#05817:0000130000130000
#05814:0000001300000000
#05815:0013000000000000
#05818:13
#06512:00000013000000001300000000001300
#0651b:00000000000013000000001300000000
#06516:13
#06517:0013
#0661b:13131300
#06618:0013000000000000
#06615:13131300
#06612:0013000000000000
#06315:1313
#06312:0013000000130000
#06318:13130013
#0631b:0000001300000013
#05512:00130013
#05514:0000001300000000
#0551b:1300000013000013
#05517:00130000
#05519:0000001300000000
#05516:0013
#05515:0000000000000013
#05518:00000013
#05215:1300001300000000
#05212:0013130000001300
#05218:0013001300000000
#0521b:13001313
#05210:41
#0491a:1414
#04912:1414
#04918:0014000000000014
#04916:00140014
#04914:0000001400140000
#04816:00000014
#0481a:0000000000140000
#04812:13131400
#0481b:00000013000000130000000000000000
#04815:0013001300000000
#04818:00130000001300000000000000000000
#03712:00130000000013000000130000001300
#03717:0000001300000013
#03716:00000013
#0371b:00131313
#03718:13130000000000000000000000000000
#03715:00000013130000000000000000000000
#04515:00000000000000000000000000130013
#04518:0000000000001313
#04512:0000001313130000
#04516:00140014000000140014000000000000
#0451b:1313130000000000
#04716:00000014
#04712:00000013000000130000140000000000
#0471a:0014
#04718:0013001300000000
#04715:00130000001300000000000000000000
#0471b:13130000
#03919:0000000000000013
#03916:0000000000131300
#0391b:13000013
#03918:0000001300000000000000001300000000000000000000000000000000000000
#03912:13000013000000000000000000000000
#03915:0000000000000000001300000000000000000000000000000000000000000000
#03914:0000000000000013
#03910:41
#0381b:13131313
#03815:00000013
#03816:13131300
#03812:0013001300000000
#03814:00130013001300130013000000000000
#03817:0013001300000000
#03819:00130013001300130013000000000000
#0361b:0000001300001300
#03616:14140000
#03618:0013000000000000
#03612:0013000000130000
#03615:0000001300001300
#03617:0013
#0351b:0000001300000013
#03516:00131314
#03518:00130000000000000000130000000000
#03514:0013000000000000
#0351a:00000013000000000000000000000000
#03512:2300001300000000
#03515:0000000000000013
#01516:00000013000000000000000000000000
#01512:1300001300130000
#01518:0000000000000013
#0151b:00000013
#01515:00000013
#01510:41
#0161b:1300001300000000
#01617:00000013000000000013000000000000
#01616:0000001300000000
#01612:00000000000000000013000000000000
#01416:0000001300000000
#0141b:0000001300000000
#01412:13
#01419:00000013000000000000000000000000
#01316:0000000000000013
#01312:00000013
#0131a:14
#01717:0000000000000013
#0171b:1300001300001300
#01715:00000013000000000000000000000000
#01712:13
#04212:0013000000130000
#04215:13231323
#0421b:2300001300001300
#04218:00132300
#01812:00000013
#01917:0000000000000013
#01916:0000001300000000
#01912:0000000013000013
#0191b:2300000000130000
#01919:00000013
#01914:00000013
#02012:1300001300000000
#02017:1300001300000000
#0201b:00000013000000000000000000000000
#02016:00000013000000000000000000000000
#02117:0000001300000000
#0211b:0000000013000013
#02112:1300000000130000
#02116:0000000000000013
#02119:00000013
#02114:00000013
#02516:1300000000130013
#0251b:0000001300000013
#02517:00001313
#02512:00000013
#0241b:1300001300000000
#02416:1300001300000000
#02412:00000013000000000000000000000000
#02417:00000013000000000000000000000000
#02215:00000013
#02212:2323
#02218:00230023
#03112:13
#0311b:00000013000000000000130000000000
#03117:00000013
#03116:00000013000000000000000000000000
#03110:41
#02717:00000013
#02716:1300000000130000
#02712:0000001300001300
#0271b:23000013000000000000130000000000
#03216:13
#03217:00000013000000000000000000001300
#03212:00000013000000000000000000003333
#0321b:1300000000130000
#03219:00000013
#03215:00000000000000000000003300000000
#03214:00000033
#03213:00000000000000000000000000330000
#0331b:13
#03312:00000013000000000000130000000000
#03317:00000013000000000000000000000000
#03316:00000013
#03417:13
#03416:00000013000000000000000000000000
#0341b:00000013000000000000000000000000
#03415:0000000000130013
#03412:13000013
#04012:1300000000000000001300000000000000000000000000000000000000000000
#04018:13
#0401b:0000001300000000000000001300000000000000000000000000000000000000
#04015:00000013000000000000000000000000
#04017:00000000000000000013000000000000
#04114:0000000000000013
#04117:0000000000131300
#04112:13000013
#04115:0000001300000000000000001300000000000000000000000000000000000000
#0411b:13000013000000000000000000000000
#04118:0000000000000000001300000000000000000000000000000000000000000000
#04119:0000000000000013
#02912:00000013000000000000130000000000
#0291b:0000001300001300
#02917:1300000000130000
#02916:00000013
#05617:00000013
#05612:0013001300001300
#05615:13130000
#0561b:0013001300000013
#05618:1313
#05616:0000000000000013
#0591b:0000130013000013
#05917:2300001300000000
#05916:00131300
#05912:2300001300001300
#05918:00000013
#05915:0000000000000013
#06219:0000001300000000
#06212:13
#06214:0000001300000000
#0621b:0013
#06217:1300130000130000
#06216:0013000013001300
#06114:00000013
#0611b:1300000000000013
#06116:0000001300000013
#06112:0000000000130000
#06119:0013
#06117:00000013000000000000130000000000
#06016:00000013
#0601b:0013130013001300
#06018:13
#06012:1300001300000000
#06015:00131300
#00716:0000001300130000
#00715:1300000000000013
#0071b:00000013000013000000000000000000
#00717:0013
#00712:00130013
#00718:23000000000000000000000000130000
#00710:41
#0081b:1300000000130000
#00812:00001313
#00817:00000013000000000000000013000000
#00816:1300001300000000
#0671b:1300131300130000
#06712:00001313
#06716:0000001300000000
#06715:0000000000000013
#06718:00000000000000000000000000130000
#06717:0000001300000000000000000000000000000000000000000000000000000000
#06714:00000013000000000000000000000000
#06817:13
#06812:13000013000000000000130000000000
#0681b:0000001300000000000000001300000000000000000000001300000000000000
#06816:0000000000000000001300000000000000000000000000001300000000000000
#06412:0013001300001300
#06417:00000013
#06415:1313
#0641b:0013001300000000
#06418:00130000
#0061b:00000013000000000000130000000000
#00617:13000013
#00612:1300001300001300
#0051b:1300001300001313
#00515:00000013000000000000000000130000
#00518:00130000
#00516:0000001300000000
#00517:0000000000130000
#00512:13
#00412:00000013000000000000130000000000
#00416:13000013
#0041b:1300001300001300
#00312:1300001300001313
#00318:00000013000000000000000000130000
#00315:00130000
#00317:0000001300000000
#00316:0000000000130000
#0031b:23
#00917:0000001300130000
#00918:1300000000000013
#00912:00000013000013000000000000000000
#00916:0013
#0091b:00130013
#00915:13000000000000000000000000130000
#06912:1300131300130000
#06917:0000001300000000
#06916:0000001300000000000000000000000000000000000000000000000000000000
#06919:00000013000000000000000000000000
#0691b:13001313
#06918:0000000000000013
#06915:00000000000000000000000000130000
#07016:13
#0701b:13000013000000000000130000000000
#07012:0000001300000000000000001300000000000000000000000000000015000000
#07017:0000000000000000001300000000000000000000000000000000000000000000
#0701a:00000014
#07014:00000014
#07019:0000000000000015
#0281b:13000013000000000000130000000000
#02812:13000000000013000000000000003333
#02819:00000013
#02817:0000000000000013
#02815:00000000000000000000003300000000
#02814:00000033
#02813:00000000000000000000000000330000
#03012:13000013000000000000000013000000
#0301b:1300001300000000
#03015:0000000000130013
#0431b:0000131300001300
#04315:00000000001300130000000000130000
#04318:1313000013130013
#04312:00130013000000000013001300000000
#0431f:11
#04412:0000131300001300
#04418:00000000001300130000000000130000
#04415:1313000013130013
#0441b:00130013000000000013001300000000
#0461b:13130013
#04612:1313
#04616:0013000000130000
#04617:0000001300000000
#02618:00000013
#0261b:2323
#02615:00230023
#06355:6363
#06352:0023000000230000
#06358:00530053
#0635b:0000002300000023
#05157:4343
#05152:4343
#0555b:3333
#05556:0033
#05452:64
#0545a:54
#05355:6363
#05358:5353
#05352:0023000000000000
#0535b:0023000000000000
#0525b:63
#05252:00530000
#05255:0000006300000000
#05258:0053000000000000
#0505a:0044
#05052:0034
#04856:00000014
#0485a:0000000000140000
#04852:0014
#04756:00000014
#04752:0000000000140000
#0475a:0014
#04952:14
#0495a:0014
#0125b:00000000000000000023000000000000
#01256:00000000000000000023000000000000
#01257:0000005300003300
#01252:0000005300003300
#01656:0000006300004300
#01657:00000000000000000023000000000000
#0165b:0000006300004300
#01652:00000000000000000023000000000000
#0145b:0000006300000000
#01456:0000006300000000
#01452:53
#01459:00000053000000000000000000000000
#0175b:6300006300000000
#01755:00000063000000000000000000000000
#04252:0023000000230000
#04255:63436343
#0425b:4300002300000000
#04258:00533300
#01856:1313
#01857:00130013
#01952:0023
#01956:0000006300000000
#02052:5300005300000000
#02057:5300005300000000
#0205b:00000063000000000000000013000000
#02056:00000063000000000000000013000000
#02157:0000005300000000
#0215b:0023
#02352:0000005300000000
#02356:0023
#0255b:0000006300000000
#02557:0023
#0245b:6300006300000000
#02456:6300006300000000
#02452:00000053000000000000000013000000
#02457:00000053000000000000000013000000
#02252:1313
#02258:00130013
#03152:5300001300000000
#0315b:00000063000000000000000000000000
#03156:00000063000000000000000000000000
#03157:0000001300000000
#0275b:00000063000000000000000000000000
#02756:63
#02752:00000013000000000000000000000000
#02757:0000001300000000
#03552:0000005300000000
#03556:0023
#0365b:0000006300000000
#03657:0023
#03852:0023002300000000
#03856:23232300
#03854:00630063006300630063000000000000
#03857:0023002300000000
#03859:00630063006300630063000000000000
#0385b:23232300
#03256:6300001300000000
#03257:00000053000000000000000000000000
#03252:00000053000000000000000000000000
#0325b:0000001300000000
#0335b:6300001300000000
#03352:00000053000000000000000000000000
#03357:00000053000000000000000000000000
#03356:0000001300000000
#03457:5300001300000000
#03456:00000063000000000000000000000000
#0345b:00000063000000000000000000000000
#03452:0000001300000000
#03958:0000002300000000000000005300000000000000000000000000000000000000
#0395b:63
#03952:00000053000000000000000000000000
#03955:0000000000000000002300000000000000000000000000000000000000000000
#04152:53
#04155:0000002300000000000000006300000000000000000000000000000000000000
#0415b:00000063000000000000000000000000
#04158:0000000000000000002300000000000000000000000000000000000000000000
#04058:53
#0405b:0000002300000000000000006300000000000000000000004300000000000000
#04055:00000063000000000000000000000000
#04052:0000000000000000002300000000000000000000000000000000000000000000
#04057:00000000000000000023000000000000
#05657:00000053
#05652:0000005300005300
#05655:00630000
#05658:53
#0565b:0063000000000063
#05656:0000000000000063
#0595b:0033
#05956:0033
#05957:43
#05952:43
#05756:0063
#0575b:0063
#05752:5300005300000000
#05757:5300005300000000
#05856:00006343
#05852:0000000000230000
#0585b:00006343
#05857:0000000000230000
#06252:53
#0625b:0063
#06257:0000000000230000
#06256:0023000000000000
#06056:00000063
#06052:53
#0605b:00630000
#0615b:63
#06157:00000023000000000000000000000000
#0655b:00000000000000000000002300000000
#06552:00000023000000000000000000000000
#06556:63
#06557:0053
#0665b:53531300
#06658:0053000000000000
#06655:53531300
#06652:0053000000000000
#00755:63
#0075b:0000006300000000
#00757:0023
#00857:00000053000000000000000000000000
#00856:6300006300000000
#00852:0023
#0675b:63
#06756:0000006300000000
#06757:0000002300000000000000000000000000000000000000000000000000000000
#06752:0023
#06857:53
#0685b:0000002300000000000000006300000000000000000000000000000000000000
#06856:0000000000000000002300000000000000000000000000000000000000000000
#06852:00000053000000000000000000000000
#06457:00000053
#06455:63
#0645b:0000002300000000
#06458:00530000
#06452:0023000000000000
#0065b:00000063000000000000000000000000
#00652:5300005300000000
#00556:0000006300000000
#0055b:63
#00452:00000053000000000000000000000000
#0045b:6300006300000000
#00357:0000005300000000
#00352:53
#00958:53
#00952:0000005300000000
#00956:0023
#01056:00000063000000000000000000000000
#01057:5300005300000000
#0105b:0023
#06952:53
#06957:0000005300000000
#06956:0000002300000000000000000000000000000000000000000000000000000000
#0695b:0023
#07056:63
#07052:0000002300000000000000005300000000000000000000000000000000000000
#07057:0000000000000000002300000000000000000000000000000000000000000000
#0705b:00000063000000000000000000000000
#0285b:00000063000000000000000000000000
#02852:53
#02856:00000013000000000000000000000000
#02857:0000001300000000
#02952:00000053000000000000000000000000
#02957:53
#0295b:00000013000000000000000000000000
#02956:0000001300000000
#03052:00000053000000000000000000000000
#0305b:63
#03057:00000013000000000000000000000000
#03056:0000001300000000
#03757:0000005300000000
#0375b:0023
#04652:53335333
#04656:0023000000230000
#0465b:43634300
#04657:0000002300000000
#0265b:1313
#02655:00130013
#001360:14
#002320:0000002c
#003320:13
#003350:00000023000000000000000000000000
#003370:0000001300000000
#0033b0:0000000000230000
#0043b0:13
#004370:00000023000000000000000000000000
#004321:00000013000000000000000000000000
#004361:0000002300000000
#0043b0:0000001300000000
#004370:0000000000230000
#0053b0:13
#005380:00000023000000000000000000000000
#005360:0000001300000000
#005320:0000000000230000
#006320:13
#006360:00000023000000000000000000000000
#0063b1:00000013000000000000000000000000
#006371:0000002300000000
#006320:0000001300000000
#006360:0000000000230000
#007350:13
#007320:00000023000000000000000000000000
#0073b0:0000001300230000
#007370:0053
#008360:13
#008320:00000023000000000000000000000000
#008371:00000013000000000000000000000000
#0083b1:0000002300000000
#008360:0000001300230000
#008320:0053
#009380:13
#0093b0:00000023000000000000000000000000
#009320:0000001300230000
#009360:0053
#010370:13
#0103b0:00000023000000000000000000000000
#010361:00000013000000000000000000000000
#010321:0000002300000000
#010370:0000001300230000
#0103b0:0053
#011320:13000023000000000000000000000000
#011360:0000001300000000
#011320:0000000053230000
#012370:13
#0123b0:00000023000000000000000000000000
#012320:0000001300002300
#012360:00000000000000000053000000000000
#012371:0000001300002300
#0123b1:00000000000000000053000000000000
#013321:14540000000000000000000000000000
#013331:000000000000000000000000000000000000000000000000000000000000000000000000000000000000000000000000000000000000000000000000005400000000000000000000000000000000000000000000000000000000000000000000000000000000000000000000000000000000000000000054000000000000000000000000000000000000000000000000000000000000000000000000000000000000000000000000000000000000000000000000000000000000000000000000000000000000000000000000000000000000000000000000000000000000000000000000000000000000000000000000000000000000000000000000000000000000000000000000000000000000000000000000000000000000000000000000000000000000000000000000000000000000000000000000000000000000000000000000000000000000000000000000000000000000000000000000000000000000000000000000000000000000000000000000000000000000000000000000000000000000000000000000000000000000000000000000000000000000000000000000000000000000000000000000000000000000000000000000000000000000000000000000000000000000000000000000000000000000000000000000000000000000000000000000000000000000000000000000000000000000000000000000000000000000000000000000000000000000000000000000000000000000000000000000000000000000000000000000000000000000000000000000000000000000000000000000000000000000000000000000000000000000000000000000000000000000000000000000000000000000000000000000000000000000000000000000000000000000000000000000000000000000000000000000000000000000000000000000000000000000000000000000000000000000000000000000000000000000000000000000000000000000000000000000000000000000000000000000000000000000000000000000000000000000000000000000000000000000000000000000000000000000000000000000000000000000000000000000000000000000000000000000000000000000000000000000000000000000000000000000000000000000000000000000000000000000000000000000000000000000000000000000000000000000000000000000000000000000000000000000000000000000000000000000000000000000000000000000000000000000000000000000000000000000000000000000000000000000000000000000
#013341:00005424000000000000000000000000
#013380:00000014540000000000000000000000
#013390:000000000000000000000000000000000000000000000000000000000000000000000000000000000000000000000000000000000000000000000000000000000000000000000000000000000000000000000000000000000000000000000000000000000000000000000000000000000000000000000000000000000000000000000000000000000000000000000000000000000000000000000000000000000000000000000000000000000000000000000000000000000000000000000000000000000000000000000000000000000000000000000000000000000000000000000000000000000000000000000000005400000000000000000000000000000000000000000000000000000000000000000000000000000000000000000000000000000000000000000054000000000000000000000000000000000000000000000000000000000000000000000000000000000000000000000000000000000000000000000000000000000000000000000000000000000000000000000000000000000000000000000000000000000000000000000000000000000000000000000000000000000000000000000000000000000000000000000000000000000000000000000000000000000000000000000000000000000000000000000000000000000000000000000000000000000000000000000000000000000000000000000000000000000000000000000000000000000000000000000000000000000000000000000000000000000000000000000000000000000000000000000000000000000000000000000000000000000000000000000000000000000000000000000000000000000000000000000000000000000000000000000000000000000000000000000000000000000000000000000000000000000000000000000000000000000000000000000000000000000000000000000000000000000000000000000000000000000000000000000000000000000000000000000000000000000000000000000000000000000000000000000000000000000000000000000000000000000000000000000000000000000000000000000000000000000000000000000000000000000000000000000000000000000000000000000000000000000000000000000000000000000000000000000000000000000000000000000000000000000000000000000000000000000000000000000000000000000000000000000000000000000000000000000000000000000000000000000000000000000000000000000000000000000000000000000000000000000000000000000000
#0133a0:00000000005424000000000000000000
#013321:00000000000014540000000000000000
#013331:000000000000000000000000000000000000000000000000000000000000000000000000000000000000000000000000000000000000000000000000000000000000000000000000000000000000000000000000000000000000000000000000000000000000000000000000000000000000000000000000000000000000000000000000000000000000000000000000000000000000000000000000000000000000000000000000000000000000000000000000000000000000000000000000000000000000000000000000000000000000000000000000000000000000000000000000000000000000000000000000000000000000000000000000000000000000000000000000000000000000000000000000000000000000000000000000000000000000000000000000000000000000000000000000000000000000000000000000000000000000000000000000000000000000000000000000000000000000000000000000000000000000000000000000000000000000000000000000000000000000000000000000000000000000000000000000000000000000000000000000005400000000000000000000000000000000000000000000000000000000000000000000000000000000000000000000000000000000000000000054000000000000000000000000000000000000000000000000000000000000000000000000000000000000000000000000000000000000000000000000000000000000000000000000000000000000000000000000000000000000000000000000000000000000000000000000000000000000000000000000000000000000000000000000000000000000000000000000000000000000000000000000000000000000000000000000000000000000000000000000000000000000000000000000000000000000000000000000000000000000000000000000000000000000000000000000000000000000000000000000000000000000000000000000000000000000000000000000000000000000000000000000000000000000000000000000000000000000000000000000000000000000000000000000000000000000000000000000000000000000000000000000000000000000000000000000000000000000000000000000000000000000000000000000000000000000000000000000000000000000000000000000000000000000000000000000000000000000000000000000000000000000000000000000000000000000000000000000000000000000000000000000000000000000000000000000000000000000000000000000
#013341:00000000000000005454000000000000
#013351:000000000000000000000000000000000000000000000000000000000000000000000000000000000000000000000000000000000000000000000000000000000000000000000000000000000000000000000000000000000000000000000000000000000000000000000000000000000000000000000000000000000000000000000000000000000000000000000000000000000000000000000000000000000000000000000000000000000000000000000000000000000000000000000000000000000000000000000000000000000000000000000000000000000000000000000000000000000000000000000000000000000000000000000000000000000000000000000000000000000000000000000000000000000000000000000000000000000000000000000000000000000000000000000000000000000000000000000000000000000000000000000000000000000000000000000000000000000000000000000000000000000000000000000000000000000000000000000000000000000000000000000000000000000000000000000000000000000000000000000000000000000000000000000000000000000000000000000000000000000000000000000000000000000000000000000000000000000000000000000000000000000000000000000000000000000000000000000000000000000000000000000000000000000000000000000000000000000000000000000000005400000000000000000000000000000000000000000000000000000000000000000000000000000000000000000000000000000000000000000000240000000000000000000000000000000000000000000000000000000000000000000000000000000000000000000000000000000000000000000000000000000000000000000000000000000000000000000000000000000000000000000000000000000000000000000000000000000000000000000000000000000000000000000000000000000000000000000000000000000000000000000000000000000000000000000000000000000000000000000000000000000000000000000000000000000000000000000000000000000000000000000000000000000000000000000000000000000000000000000000000000000000000000000000000000000000000000000000000000000000000000000000000000000000000000000000000000000000000000000000000000000000000000000000000000000000000000000000000000000000000000000000000000000000000000000000000000000000000000000000
#0133b0:0000000000130053
#013370:00000053
#014370:23
#014321:13000023
#014361:0000003300000000
#014390:00000013000000000000000000000000
#0143b0:0000003300000000
#014370:00000023
#0153b0:13000023000000000000000000000000
#015370:0000001300000000
#0153b0:0000000053230000
#016360:13
#016320:00000023000000000000000000000000
#0163b0:0000001300002300
#016370:00000000000000000053000000000000
#016361:0000001300002300
#016321:00000000000000000053000000000000
#0173b1:13
#017381:00000023000000000000000000000000
#017350:00000013000000000000000000000000
#017320:0000002300000000
#0173b1:0000001300000000
#017371:0000000000230000
#017320:0000000000130053
#017360:00000053
#018360:23
#0183b1:13
#018371:00230000
#018320:00130000
#018360:0023
#0183b1:0013
#018371:00000023
#019361:13
#019321:0000005300002300000000000000000000000000000000000000000000000000
#019370:00000013000000000000000000000000
#0193b0:0000000000000000005300002300000000000000000000000000000000000000
#019361:0000001300230000
#019321:0053
#020321:1300003300000000
#020361:00000033000000000000000023000000
#020370:1300003300000000
#0203b0:00000033000000000000000023000000
#021370:13
#0213b0:0000005300002300000000000000000000000000000000000000000000000000
#021361:00000013000000000000000000000000
#021321:0000000000000000005300002300000000000000000000000000000000000000
#021370:0000001300230000
#0213b0:0053
#0223b0:13
#022380:0053230000000000
#022351:00130000
#022321:0000005323000000
#0223b0:0013
#022380:0000000000532300
#023320:13
#023360:0000005300002300000000000000000000000000000000000000000000000000
#0233b1:00000013000000000000000000000000
#023371:0000000000000000005300002300000000000000000000000000000000000000
#023320:0000001300230000
#023360:0053
#0243b0:1300003300000000
#024370:00000033000000000000000023000000
#024361:1300003300000000
#024321:00000033000000000000000023000000
#0253b1:13
#025371:0000005300002300000000000000000000000000000000000000000000000000
#025320:00000013000000000000000000000000
#025360:0000000000000000005300002300000000000000000000000000000000000000
#0253b1:0000001300230000
#025371:0053
#026321:13
#026351:0053230000000000
#026380:00130000
#0263b0:0000005323000000
#026321:0013
#026351:0000000000532300
#027361:13
#027321:00000023000000000000000000000000
#0273b0:00000013000000000000000000000000
#027370:0000002300000000
#028320:13
#028360:00000023000000000000000000000000
#0283b1:00000013000000000000000000000000
#028371:0000002300000000
#028361:0000000000130000
#028351:00000000000000000000003300000000
#028341:00000033
#028331:00000000000000000000000000330000
#028321:00000000000000000000000000003333
#029321:23
#029370:13
#0293b0:00000023000000000000000000000000
#029321:00000013000000000000000000000000
#029361:0000002300000000
#0303b1:13
#030371:00000023000000000000000000000000
#030320:00000013000000000000000000000000
#030360:0000002300000000
#0303b0:0000000000133333
#030390:00000000000000000000003300330033
#0313b0:23
#031321:1300002300000000
#031361:00000053000000000000000000000000
#0313b0:00000013000000000000000000000000
#031370:0000002300000000
#031360:0000000000130000
#031320:00000023
#032360:1300002300000000
#032320:00000053000000000000000000000000
#032371:00000013000000000000000000000000
#0323b1:0000002300000000
#032361:0000000000130000
#032351:00000000000000000000003300000000
#032341:00000033
#032331:00000000000000000000000000330000
#032321:00000000000000000000000000003333
#033321:23
#0333b0:1300002300000000
#033370:00000053000000000000000000000000
#033321:00000013000000000000000000000000
#033361:0000002300000000
#033371:0000000000130000
#0333b1:00000023
#034371:1300002300000000
#0343b1:00000053000000000000000000000000
#034360:00000013000000000000000000000000
#034320:0000002300000000
#0343b0:0000000000133333
#034390:00000000000000000000003300330033
#0353b0:23
#035320:0000001300230000
#035360:0053
#0363b0:0000001300230000
#036370:0053
#037370:0000001300230000
#0373b0:0053
#038360:13535300
#038340:00530033005300530053000000000000
#038320:0053003300230000
#0383b1:13535300
#038391:00530033005300530053000000000000
#038371:0053003300230000
#0393b1:13000023000000000000000000000000
#039381:0000005300000000000000000000000000000000000000000000000000000000
#039320:00000013000023000000000000000000
#039350:0000000000000000005300000000000000000000000000000000000000000000
#039381:0000001300000000
#0393b1:0000000000230000
#040381:13000023000000000000000000000000
#0403b1:0000005300000000000000000000000000000000000000000000000000000000
#040350:00000013000023000000000000000000
#040320:0000000000000000005300000000000000000000000000000000000000000000
#0403b1:0000001300002300
#040371:00000000000000000053000000000000
#041321:13000023000000000000000000000000
#041351:0000005300000000000000000000000000000000000000000000000000000000
#0413b0:00000013000023000000000000000000
#041380:0000000000000000005300000000000000000000000000000000000000000000
#041351:0000001300000000
#041321:0000000000230000
#042351:13230000
#042321:0053000000000000
#042380:00132300
#0423b0:0000005300000000
#042351:00001323
#042321:0000000000530000
#046321:13230000
#046361:0053000000000000
#0463b0:00132300
#046370:0000005300000000
#046321:00001323
#046361:0000000000530000
#0523b1:13000053230000000000000000000000
#052381:00535300000000000000000000000000
#052320:00000000130000532300000000000000
#052350:00000000005353000000000000000000
#053350:13230000
#053320:0053000000000000
#053381:13230000
#0533b1:0053000000000000
#053381:0013
#0533b1:00000023
#053350:0013
#053320:00000023
#054320:14220000
#0543a1:14
#0543c1:00220000
#0543b1:000000000000000000000000000000000000000000000000000000000000000000000000000000000000000000000000000000000000000000000000000000000000000000000000000000000000000000000000000000000000000000000000000000000000000000000000000000000000000000000000000000000000000000000000000000000000000000000000000000000000000000000000000000000000000000000000000000000000000000000000000000000000000000000000000000000000000000000000000000000000000000000000000000000000000000000000000000000000000000000000000000000000000000000000000000000000000000000000000000000000000000000000000000000000000000000000000000000000000000000000000000000000000000000000000000000000000000000000000000000000000000000000000000000000000000000000000000000000000000000000000000000000000000000000000000000000000000000000000000000000000000000000000000000000000000000000000000000000000000000000000000000000000000000000000000000000000000000000000000000000000000000000000000000000000000000000000000000000000000000000130000000000000000000000000000000000000000000000000000000000000000000000000000000000000000000000000000000000000000000000000000000000000000000000000000000000000000000000000000000000000000000000000000000000000000000000000000000000000000000000000000000000000000000000000000000000000000000000000000000000000000000000000000000000000000000000000000000000000000000000000000000000005300000000000000000000000000000000000000000000000000000000000000000000000000000000000000000000000000000000230000000000000000000000000000000000000000000000000000000000000000000000000000000000000000000000000000000000000000000000000000000000000000000000000000000000000000000000000000000000000000000000000000000000000000000000000000000000000000000000000000000000000000000000000000000000000000000000000000000000000000000000000000000000000000000000000000000000000000000000000000000000000000000000000000000000000000000000000000000000000000000000000000000000000000000000000000000000000000000000
#054381:000000000000000000000000000000000000000000000000000000000000000000000000000000000000000000000000000000000000000000000000000000000000000000000000000000000000000000000000000000000000000000000000000000000000000000000000000000000000000000000000000000000000000000000000000000000000000000000000000000000000000000000000000000000000000000000056000000000000000000000000000000000000000000000000000000000000000000000000000000000000000000000000000000000000000000000000000000000000000000000000
#054320:000000000000000000000000000000000000000000000000000000000000000000000000000000000000000000000000000000000000000000000000000000000000000000000000000000000000000000000000000000000000000000000000000000000000000000000000000000000000000000000000000000000000000000000000000000000000000000000000000000000000000000000000000000000000000000000000000000000000000000000000000000000000000000000000000000000000000000000000000000000000000000000000000000000000000000000000000000000000000000000000000000000000000000000000000000000000000000000000000000000000000000000000000000000000000000000000000000000000000000000000000000000000000000000000000000000000000000000000000000000000000000000000000000000000000000000000000000000000000000000000000000000000000000000000000000000000000000000000000000000000000000000000000000000000000000000000000000000000000000000000000000000000000000000000000000000000000000000000000000000000000000000000000000000000000000000000000000000000000000000000000000000000000000000000000000000000000000000000000000000000000000000000000000000000000000000000000000000000000000000000000000000000000000000000000000000000000000000000000000000000000000000000000000000000000000000000000000000000000000000000000000000000000000000000000000000000000000000000000000000000000000000000000000000000000000000000000000000000000000000000000000000000000000000000000000000000000000000000000000000000000000000000000000000000000000000000000000000000000000000000160000000000000000000000000000000000000000000000000000000000000000000000000000000000000000000056530000000000000000000000000000000000000000000000000000000000000000000000000000000000000000000000535600000000000000000000000000000000000000000000560000000000000000000000000000000000000000000000560000000000000000000000000000000000000000000000000000000000000000000000000000000000000000000000005600000000000000000000000000000000000000000000000000000000000000000000000000000000000000000000
#054350:000000000000000000000000000000000000000000000000000000000000000000000000000000000000000000000000000000000000000000000000000000000000000000000000000000000000000000000000000000000000000000000000000000000000000000000000000000000000000000000000000000000000000000000000000000000000000000000000000000000000000000000000000000000000000000000000000000000000000000000000000000000000000000000000000000000000000000000000000000000000000000000000000000000000000000000000000000000000000000000000000000000000000000000000000000000000000000000000000000000000000000000000000000000000000000000000000000000000000000000000000000000000000000000000000000000000000000000000000000000000000000000000000000000000000000000000000000000000000000000000000000000000000000000000000000000000000000000000000000000000000000000000000000000000000000000000000000000000000000000000000000000000000000000000000000000000000000000000000000000000000000000000000000000000000000000000000000000000000000000000000000000000000000000000000000000000000000000000000000000000000000000000000000000000000000000000000000000000000000000000000000000000000000000000000000000000000000000000000000000000000000000000000000000000000000000000000000000000000000000000000000000000000000000000000000000000000000000000000000000000000000000000000000000000000000000000000000000000000000000000000000000000000000000000000000000000000000000000000000000000000000000000000000000000000000000000000000000000000000000000000000000000000000000000000000000000000000000000000000000000000000000000000000000000000000000000000000000000000000000000000000000000000000000000000000000000000000000000000000000000000000000000000000000000000000000000000000000000000000000000000000000000000000000000000000000000000000000000005300000000000000000000000000000000000000000000000000000000000000000000000000000000000000000000530000000000000000000000000000000000000000000000000000000000000000000000000000000000000000000000
#055320:26
#056380:13000053230000000000000000000000
#0563b0:00535300000000000000000000000000
#056351:00000000130000532300000000000000
#056321:00000000005353000000000000000000
#056371:00000013
#0563b1:0000000000000053
#057371:33
#0573b1:00230000
#056320:00000013
#056360:0000000000000053
#057320:33
#057360:00230000
#057320:0000001300002300
#057360:0033
#057371:0000001300002300
#0573b1:0033
#058361:00001323
#058321:0000000000530000
#0583b0:00001323
#058370:0000000000530000
#060320:13
#060350:00532300000000000000000000000000
#0603b0:00130000
#060380:00000000005323000000000000000000
#060360:00000013
#061320:23
#0613b1:1300002300000000
#061371:00000053000000000000000000000000
#062321:13230000
#062361:0053000000000000
#0623b1:00001323
#062371:0000000000530000
#063351:13230000
#063321:0053000000000000
#063380:00132300
#0633b0:0000005300000000
#063351:00001323
#063321:0000000000530000
#063380:00000013
#0633b0:0000000000000053
#064380:23
#064351:13230000
#064321:0033000000000000
#064380:00132300
#0643b0:0000003300000000
#064370:00000013
#0653b0:23
#065361:1300002300000000
#065321:00000053000000000000000000000000
#065371:0000000013000023
#0653b1:00000000000000000000005300000000
#0663b1:13330000
#066381:0033002300000000
#066350:13330000
#066320:0033002300000000
#066320:000000000000000000000000000000000000135353535353
#066330:000000000000000000000000000000000000000000000000000000000000000000000000005300530053005300530053
#067320:23
#0673b1:13000023000000000000000000000000
#067371:0000005300000000000000000000000000000000000000000000000000000000
#067361:0000001300230000
#067321:0053
#068371:13000023000000000000000000000000
#0683b1:0000005300000000000000000000000000000000000000000000000000000000
#068320:00000013000023000000000000000000
#068360:0000000000000000005300000000000000000000000000000000000000000000
#0683b1:0000001300000000
#068371:0000000000230000
#069321:13000023000000000000000000000000
#069361:0000005300000000000000000000000000000000000000000000000000000000
#069371:0000001300230000
#0693b1:0053
#070361:13000023000000000000000000000000
#070321:0000005300000000000000000000000000000000000000000000000000000000
#0703b0:00000013000023000000000000000000
#070370:0000000000000000005300000000000000000000000000000000000000000000
#070321:0000001300000000
#070361:0000000000230000
