This file was generated by Ched 2.7.0.0.
#TITLE ""
#ARTIST ""
#DESIGNER ""
#DIFFICULTY 0
#PLAYLEVEL
#SONGID ""
#WAVE ""
#WAVEOFFSET 0
#JACKET ""
#REQUEST "ticks_per_beat 480"
#00002: 4
#BPM01: 171
#00008: 01
#TIL00: ""
#HISPEED 00
#MEASUREHS 00
#00718:00000013000000000000130000000000
#00712:00000013000000000000000013000000
#0071b:2300001300000000
#00715:2300001300000000
#00710:41
#00818:00000013
#00812:0000000000130000
#00915:00000013000000000000130000000000
#0091b:00000013000000000000000013000000
#00912:1300001300000000
#00918:1300001300000000
#01015:00000013
#0101b:0000000000130000
#01118:0000001300000013
#01112:0000001300000000
#0111b:2300000000130000
#01115:23000013
#0121b:0000001300000000
#01218:00000000000000000013000000000000
#01312:14000013
#01316:00000014000000000000000000000000
#0131a:0000001400000000
#01318:0000000000130013
#01412:13
#0141b:00000013000013000000000000000000
#01415:00000013000013000000000000000000
#01515:0000001300000013
#0151b:0000001300000000
#01512:0000000000130000
#01518:00000013
#01510:41
#01612:0000001300000000
#01615:00000000000000000013000000000000
#0171a:14
#01716:00000014000000000000000000000000
#01712:0000001400000000
#01715:0000000000130013
#0171b:00000013
#0181b:13
#01815:00130000
#01818:0013
#01812:00000013
#0191b:2300001300000013
#01915:2300001300000000
#01918:0000000000130000
#01912:00000013
#02015:13
#02012:00000013000000000000000000000000
#02112:0000001300000013
#02118:0000001300000000
#02115:0000000000130000
#0211b:00000013
#0231b:1300001300000000
#02315:1300001300000013
#02312:0000000000130000
#02318:00000013
#02310:41
#0241b:13
#02418:00000013000000000000000000000000
#02512:1300001300000000
#02518:1300001300000013
#0251b:0000000000130000
#02515:00000013
#02715:00000013
#02718:0000000000130000
#02815:0000000000130000
#02818:00000013
#02812:0000000000000013
#02918:00000013
#02915:0000000000130000
#03018:0000000000130000
#03015:00000013
#0301b:0000000000000013
#03112:0000001300000000
#03118:0000000000130000
#03115:00000013
#03110:41
#03212:0000000000130000
#03218:0000001300001300
#03215:0000000000000013
#0331b:0000001300000000
#03315:0000000000130000
#03318:00000013
#03415:0000001300001300
#0341b:0000000000130000
#03418:0000000000000013
#03515:0013000000000013
#03518:00130013
#03512:0000001300000000
#0351b:23
#0361b:13000013
#03612:0013000000000000
#03618:00130000
#03615:0000001300001300
#03718:1300000000000013
#03712:13
#03715:00000013000000000000000013000000
#0371b:00000013000000000000000000000000
#03819:1414141414140000
#03818:00140000001400000014000000000000
#0381a:00000014000000140000001400000000
#03813:1414141414140000
#03812:00140000001400000014000000000000
#03814:00000014000000140000001400000000
#03918:0000001300001300
#03915:1300000000000013
#0391b:1300000000130000
#03912:0000001300000000
#03910:41
#04012:13
#04018:13
#0401b:00000013000000000000000000000000
#04015:00000013000000000000000000000000
#04115:0000001300001300
#04118:1300000000000013
#04112:1300000000130000
#0411b:0000001300000000
#0431a:1400000000140000
#04312:0014000014000000
#04318:00000000130013000000000000130000
#04315:00000000001300000000000013001300
#0431f:11
#04412:0014000014001313
#0441a:1400000000140000
#0441b:0000131300000000
#04415:00000000001300000000000000000000
#04418:00000000000000000000000000130000
#0451b:00000013
#04512:0000000000000013
#0451a:00330000000000000000000000000000
#04519:0033000000000000
#04518:00000033000000000000000000000000
#04513:00000000000000330000000000000000
#04514:0033
#04515:00000000000000000033000000000000
#0471b:1300130000130000
#04715:0013001300130000
#04718:00001313
#04712:00001313
#04812:1300130000130000
#04818:0013001300130000
#04815:00001313
#0481b:00001313
#0491b:1313
#04912:0013000000130000
#04918:00130013
#04915:0000001300000013
#0501a:1424142414000000
#05012:2414241424000000
#05112:24000013
#05118:00141413
#05115:0000000000000013
#0511b:0000000000000013
#05114:0000001400000000
#0511a:24
#0511f:21
#05218:13
#0521b:00130013
#05212:13
#05215:00130013
#0521a:0033003300000000
#05214:0033003300000000
#05210:41
#05319:0000001313000000
#05314:0000001313000000
#0531b:0000000000000013
#05312:0000000000000013
#05412:1300131300002400
#0541b:1300131300000000
#05416:0024
#0541a:00000024
#05514:00141400
#05518:0000001400000013
#0551b:00000013
#05515:00000013
#05512:2400000000000013
#0551a:24
#05615:13
#05612:00130013
#0561b:13
#05618:00130013
#05613:0033003300000000
#05619:0033003300000000
#05714:0000001313000000
#05719:0000001313000000
#05715:0000000000000013
#05815:0013001300000000
#0581b:0000001300000000
#05818:13131300
#05812:00131300
#05912:2400140000000013
#05916:0000001400000000
#0591a:2414
#0591b:00000013
#05915:00000013
#05918:0000000000000013
#06015:13000013
#06012:00130000
#0601b:13000013
#06018:00130000
#06013:0033000000000000
#06014:0000003300000000
#06019:0033000000000000
#0601a:0000003300000000
#06115:0000000000130013
#06118:00001313
#06112:0000001300000000
#0611b:0000001300000000
#06218:13
#06215:0000001313000000
#06318:13
#0631b:0013000000000000
#06315:0013
#06312:0000000000130000
#0641b:1300001300001300
#06416:1300001300000000
#06415:00000013
#06417:0013000000000000
#06419:00130000
#06412:0013000000000000
#06414:00130000
#06515:00000013000000001300000000000000
#06512:1300000000000013
#0651b:00000013000000001300000000000000
#06518:13
#0661b:1300001300000000
#06615:0013000000000000
#06618:00130000
#06612:0000001300000000
#06818:00000013000000000000130000000000
#06815:13000013
#0681b:13000013
#06812:00000013000000000000130000000000
#07012:1300000000131415
#0701a:00000014
#07018:13
#0701b:00000013000000000000130000000000
#07015:00000013000000000000000000000000
#07019:0000000000000015
#00319:00000013000000000000000000000000
#00314:00000013000000000000000000000000
#0031b:0000001300130000
#00316:0000001300000000
#00315:00000013
#00317:23
#00312:23
#0041b:00000013
#00415:0000000000130000
#00514:00000013000000000000000000000000
#00519:00000013000000000000000000000000
#00512:0000001300130000
#00517:0000001300000000
#00518:00000013
#00516:13
#0051b:13
#00612:00000013
#00618:0000000000130000
#0671b:1300001300000000
#06717:00000013000000000000000000000000
#06716:1300001300000000
#06712:00000013000000000000130013000000
#06718:0000000000131300
#06912:1300001300000000
#06916:00000013000000000000000000000000
#06917:1300001300000000
#0691b:00000013000000000000130013000000
#06915:0000000000131300
#02218:23
#02212:00230000
#0221b:0023
#02215:00000023
#02612:23
#02618:00230000
#02615:0023
#0261b:00000023
#0421b:2323
#04212:00230023
#0125b:0000006300004300
#01258:00000000000000000023000000000000
#01455:0000006300000000
#0145b:0000006300000000
#01652:0000005300003300
#01655:00000000000000000023000000000000
#0185b:13
#01855:00130000
#01858:0013
#01852:00000013
#02055:63000013
#02052:00000053000000000000000000000000
#02258:13
#02252:00130000
#0225b:0013
#02255:00000013
#0245b:63000013
#02458:00000053000000000000000000000000
#02355:63
#0235b:63
#02552:53
#02558:53
#02652:13
#02658:00130000
#02655:0013
#0265b:00000013
#03552:0000005300000000
#03655:0000006300000000
#03859:5454545454540000
#0385a:00000024000000240000002400000000
#03858:00240000002400000024000000000000
#03853:5454545454540000
#03852:00240000002400000024000000000000
#03854:00000024000000240000002400000000
#04052:00000013
#04058:00000013
#0395b:63
#03955:63
#04152:53
#04158:53
#0425b:1313
#04252:00130013
#04655:00130000
#0465b:00130000
#04658:00000013
#04652:00000013
#0515a:14
#05152:14
#05158:0014
#05258:53
#0525b:00230063
#05252:53
#05255:00230063
#05554:0014
#05552:14
#0555a:14
#05655:63
#05652:00230053
#0565b:63
#05658:00230053
#05858:0053
#0585b:00000013
#05852:0053
#05855:00000013
#0595a:1414
#05952:14
#06055:63000063
#0605b:63000063
#06052:00530000
#06058:00530000
#06258:53
#06255:0063
#06358:53
#0635b:0023000000000000
#06355:0063
#06352:0000000000230000
#0645b:6300002300000000
#06456:6300002300000000
#06457:0023000000000000
#06459:00530000
#06452:0023000000000000
#06454:00530000
#06552:53
#06555:00000023000000000000000000000000
#0655b:00000023000000000000000000000000
#06558:53
#0685b:63
#06855:63
#06852:00000053000000000000000000000000
#06858:00000053000000000000000000000000
#07058:53
#07052:53
#0705b:00000063000000000000000000000000
#07055:00000063000000000000000000000000
#001320:13
#002320:00000026
#0013b1:13
#002381:00000026
#004371:13
#004391:00000033000000000000000000000000
#0043b1:0000002300000000
#004320:13
#004340:00000033000000000000000000000000
#004360:0000002300000000
#006360:13
#006340:00000033000000000000000000000000
#006320:0000002300000000
#0063b1:13
#006391:00000033000000000000000000000000
#006371:0000002300000000
#0083b1:1300002300000000
#008381:00000033000000000000000000000000
#008350:1300002300000000
#008320:00000033000000000000000000000000
#010320:1300002300000000
#010350:00000033000000000000000000000000
#010381:1300002300000000
#0103b1:00000033000000000000000000000000
#0113b1:13000023000000000000000000000000
#011350:13000023000000000000000000000000
#012320:13000023000000000000000000000000
#0123b0:0000001300002300
#012380:00000000000000000053000000000000
#0143b0:0000001300000000
#014380:00000023
#014351:0000001300000000
#014321:00000023
#015321:13000023000000000000000000000000
#015380:13000023000000000000000000000000
#0163b0:13000023000000000000000000000000
#016320:0000001300002300
#016350:00000000000000000053000000000000
#0193b0:13
#019380:00000023000000000000000000000000
#019351:13
#019321:00000023000000000000000000000000
#020351:1300003300002300
#020321:00000033000000000000000000000000
#021321:13
#021351:00000023000000000000000000000000
#021380:13
#0213b0:00000023000000000000000000000000
#0233b0:13
#023380:00000023000000000000000000000000
#023351:13
#023321:00000023000000000000000000000000
#0243b1:1300003300002300
#024381:00000033000000000000000000000000
#025321:13
#025351:00000023000000000000000000000000
#025380:13
#0253b0:00000023000000000000000000000000
#027320:1300002300000000
#027350:00000033000000000000000000000000
#028380:1300002300000000
#0283b0:00000033000000000000000000000000
#0293b0:1300002300000000
#029380:00000033000000000000000000000000
#030350:1300002300000000
#030320:00000033000000000000000000000000
#031350:13
#031320:00000023000000000000000000000000
#0323b0:13
#032380:00000023000000000000000000000000
#033380:13
#0333b0:00000023000000000000000000000000
#034320:13
#034350:00000023000000000000000000000000
#035320:0000001300000000
#035350:0000000000230000
#036350:0000001300000000
#036320:0000000000230000
#037380:0000001300000000
#0373b0:0000000000230000
#038390:1454543454342400
#038380:00540000005400000054000000000000
#0383a0:00000034000000540000005400000000
#038331:1454543454342400
#038321:00540000005400000054000000000000
#038341:00000034000000540000005400000000
#0393b1:13
#039381:00000023000000000000000000000000
#039350:13
#039320:00000023000000000000000000000000
#040320:0000001300002300
#040381:0000001300002300
#041321:13
#041351:00000023000000000000000000000000
#041380:13
#0413b0:00000023000000000000000000000000
#0453b0:13
#0453a0:00330000000000000000000000000000
#045390:0033000000000000
#045380:00000033230000000000000000000000
#045320:0000001300000000
#045330:00000000000000330000000000000000
#045340:0033
#045350:00000000000000000033230000000000
#046350:13230000
#0463b1:13230000
#046381:00001323
#046320:00001323
#052380:1323
#0523a0:0033003300000000
#0523b0:00330000
#052321:1323
#052341:0033003300000000
#052351:00330000
#052351:00000013
#053321:23
#0523b0:00000013
#053380:23
#056350:1323
#056330:0033003300000000
#056320:00330000
#0563b1:1323
#056391:0033003300000000
#056381:00330000
#056381:00000013
#0573b1:23
#056320:00000013
#057350:23
#058380:0013
#0583b0:00000023
#058321:0013
#058351:00000023
#060351:1323
#060331:0033000000000000
#060321:00330000
#060341:0000003300000000
#0603b0:1323
#060390:0033000000000000
#060380:00330000
#0603a0:0000003300000000
#060350:00000013
#061320:23
#0603b1:00000013
#061381:23
#062381:13
#0623b1:00230000
#062351:0013
#062321:00000023
#063381:13230000
#0633b1:0053000000000000
#063351:00001323
#063321:0000000000530000
#0643b1:1300003300000000
#064371:0033000023000000
#064391:00330000
#064360:1300003300000000
#064320:0033000023000000
#064340:00330000
#065320:1300002300000000
#065350:00000053000000000000000000000000
#065381:1300002300000000
#0653b1:00000053000000000000000000000000
#0683b1:1300002300000000
#068381:00000033000000000000000000000000
#068350:1300002300000000
#068320:00000033000000000000000000000000
#070320:1300002300000000
#070350:00000033000000000000000000000000
#070381:1300002300000000
#0703b1:00000033000000000000000000000000
