This file was generated by Ched 2.7.0.0.
#TITLE ""
#ARTIST ""
#DESIGNER ""
#DIFFICULTY 0
#PLAYLEVEL
#SONGID ""
#WAVE ""
#WAVEOFFSET 0
#JACKET ""
#REQUEST "ticks_per_beat 480"
#00002: 4
#BPM01: 171
#00008: 01
#TIL00: ""
#HISPEED 00
#MEASUREHS 00
#01016:00000000000000000000000014000014
#01013:0000000000000013
#0101b:1300000000130000
#0101a:00000000000000000000000000130000
#01017:0000001300000000
#01012:0013
#05013:00000014
#05019:00000014
#05012:1626162626000000
#05018:2616261626000000
#05117:23130000
#05119:0000001300000013
#0511b:00001300000000001300001300000000
#05116:00001313
#05114:0000001300000013
#05112:23000013000000000000130000000000
#0511f:21
#04916:0018000018000000
#0491a:1400000000140000
#04912:0000141800001814
#0371b:13130000000000000000000013000000
#03712:00000013130000000000130000001300
#03716:0000000000141414
#04515:00000000000000000000000000000013
#04512:13001500170000180016000000130000
#0451b:0000001300000013
#04518:00000016000000000000000013000000
#04516:00180000000000000000000000000000
#04519:0015
#04517:0000000000170000
#0361b:1300001300001300
#03617:00000000130000000013000000000000
#03616:1300001300000000
#03615:00000013
#03612:0000000013130000
#03619:0013000000000000
#03618:00000000000000000000001300000000
#03517:0013001313000013
#0351b:23131300
#03512:00000013000013000000000000000000
#03516:00130000130000000000000000000000
#0171b:1300001300000013
#01717:0000001300000000000000000000000000000000000000001300000000000000
#01712:1300000000000000001300000000000013000000000000001300000000000000
#01716:00000013000000001300130000001300
#0221b:13231323
#02217:0013000000130000
#02216:0000001300000000
#02212:23132313
#02214:0013000000130000
#02219:0000001300000000
#02717:00000013
#02716:0000000000130000
#02712:00000013000013000000000013000000
#0271b:2300130000130000
#02715:00130000130000000000000000000000
#02718:0013001300000000
#03116:00141400140014000000130000000000
#03112:00000013000013000000000013000000
#0311b:13130000
#03110:41
#06616:1313
#0661b:0013
#06614:0013001300000000
#06619:0013001300000000
#06612:00130000
#06617:00130000
#00314:0000000000000013
#00312:00000013000013000000000013000000
#00319:00000000000000000000000000000013
#00317:00000000000000000000130000130000
#00315:00130000130000000000000000000000
#00318:0013000000000000
#0031b:23130013
#0041b:0000001300000000
#00416:1300000013130000
#00417:00000013
#00412:00000013
#0281c:0000000000120000
#0281a:00000012
#02818:00130000130000000000000000001200
#02816:00000000000000000000001200000000
#02814:00000000000000000000000000120000
#02812:13000000130000000000000000000012
#0281b:00000013000013000000000000000000
#02815:0013001300000000
#0541c:0012120000000000
#05412:0012120000000000
#05416:0000002400000000
#05419:0000000000240000
#05413:0000000000240000
#00516:00000000000000000000130000130000
#00519:0000000000000013
#0051b:00000013000013000000000013000000
#00514:00000000000000000000000000000013
#00518:00130000130000000000000000000000
#00515:0013000000000000
#00512:13130013
#00617:1300000013130000
#00612:0000001300000000
#00616:00000013
#0061b:00000013
#00816:0000001300001300
#0081b:00001313
#00812:1300000000130000
#00912:13000000130000000000130000130000
#00919:0000000000000013
#00916:00000013
#00915:00001300000000000000000000000013
#0091b:00130000130013000000000013000000
#00918:00000013000000000000000000000000
#0471b:0000000000000013
#04712:00000014000000140000000000001300
#04717:0014001400000000
#04715:00140000001400000000000000000000
#0471a:14140000
#04716:00001616
#04714:0000000000160000
#0301c:0000000000120012
#0301a:00000012
#03015:13000000130000000000001200000012
#03017:00000000000000000000000000120000
#03018:00000013000013000000000000000000
#0301b:00130000130000000000000000000000
#03012:0013001300000000
#05212:16000000000000000000000000130000
#05216:0016000016000000
#05214:00160000
#05218:0000001600001300
#0521b:0000000000000013
#05215:00000000000000000000000000000013
#05210:41
#05318:13000000130000130000130000000000
#0531b:0013000013000000
#05312:1300001300130014
#05315:0013000013001300
#0531a:0000000000000014
#0321c:0000000000120000
#0321a:00000012
#03218:0000000000000012
#03216:00141400140014000000001200000000
#03214:00000000000000000000000000120000
#03212:13000000130000000000000000000012
#0321b:00000013000013000000000000000000
#04318:13000013000000130000130000130000
#04315:00001300001300001300000013000000
#0431b:00130000000000000013001300001300
#04312:0000131300000016
#0431f:11
#04415:13000013000000130000130000130000
#04418:00001300001300001300000013001600
#04412:00130000000000000013001300001300
#0441b:0000131300000000
#01317:0000000000130013
#01316:00000013
#0131b:00001313
#01312:0000000000000013
#05617:1313131313000000
#05617:0000001300000000
#05612:13000000130000000000000000000013
#0561b:0013001300001300
#05615:00000000000000000000000000130000
#05618:0000000000000013
#03812:00000013000000000000130000000000
#0381b:1300001300130000
#03817:1300001313000000
#03816:000000000000000000000000000000000000000000000000000000000000000000000000000000000000000000000000000000000000000000000000000000000000000000000000000000000000000000000000000000000000000000000000000000000000000000000000000000000000000000000000000000000000000000000000000000000000000000000000000000000000000000000000000000000000000000000000000000000000000000000000130000000000000000000000000000000000000000000000000000000000000000000000000000000000000000000000000000000000000000000000000000000000000000000000000000000000000000000000000000000000000000000000000000000000000000000000000000000000000000000000000000000000000000000000000000000000000000000000000000000000000000000000000000000000000000000000000000000000000000000000000000000000000000000000000000000000000000000000000000000000000000000000000000000000000000000000000000000000000000000000000000000000000000000000000000000000000000000000000000000000000000000000000000000000000000000000000000000000000000000000001300000000000000000000000000000000000000000000000000000000000000000000000000000000000000000000000000000000000000000000000000000000000000000000000000000000000000000000000000000000000000000000000000000000000000000000000000000000000000000000000000000000000000000000000000000000000000000000000000000000000000000000000000000000000000000000000000000000000000000000000000000000000000000000000000000000000000000000000000000000000000000000000000000000000000000000000000000000000000000000000000000000000000000000000000000000000000000000000000000000000000000000000000000000000000000000000000000000000000000000000000000000000000000000000000000000000000000000000000000000000000000000000000000000000000000000000000000000000000000000000000000000000000000000000000000000000000000000000000000000000000000000000000000000000000000000000000000000000000000000000000000000000000000000000000000000000000000000000000000000000000000000000000000000000000000000000000000000000000000000
#03815:00000000000000130000000000000000
#05815:00000000000000000000000000000013
#05818:0000000000000013
#05814:00000000000000000000000000130000
#05819:00000013
#05813:00000000000000000000001300000000
#0581a:0000000000130000
#05812:00000000000000000013000000000000
#0581b:0013
#0571b:13000000130000130000130000001300
#05712:0013000013001300
#05715:1300001300130000
#05718:0013000013000000
#0341c:0000000000120012
#0341a:00000012
#03415:00000000000000000000001200000012
#03417:00000000000000000000000000120000
#03416:14000014140014000000000000000000
#0341b:00130000130000000000000000000000
#03412:0013001300000000
#02916:00000013
#02917:0000000000130000
#0291b:0013001300001300
#02912:00130000130000000000130000000000
#02915:00000013000013000000000000000000
#02918:13130000
#03317:0000000000130000
#0331b:0013001300001300
#03316:14000014140014000000000000000000
#03312:00130000130000000000000000000000
#01412:0000001300000000
#0141b:1300001300000000
#01417:00000013000000000013000000000000
#01416:130000000000000000000000000000000000000000000000000000000000000000000000000000000000000000000000000000000000000000000000000000000000000000000000000000000000000000000000000000000000000000000000000000000000000000000000000000000000000000000000000000000000000000000000000000000000000000000000000000000000000000000000000000000000000000000000000000000000000000000000000000000000000000000000000000000000000000000000000000000000000000000000000000000000000000000000000000000000000000000000000000000000000000000000000000000000000000000000000000000000000000000000000000000000000000000000000000000000000000000000000000000000000000000000000000000000000000000000000000000000000000000000000000000000000000000000000000000000000000000000000000000000000000000000000000000000000000000000000000000000000000000000000000000000000000000000000000000000000000000000000000000000000000000000000000000000000000000000000000000000000000000000000000000000000000000000000000000000000000000000000000000000000000000000000000000000000000000000000000000000000000000000000000000000000000000000000000000000000000000000001300000000000000000000000000000000000000000000000000000000000000000000000000000000000000000000000000000000000000000000000000000000000000000000000000000000000000000000000000000000000000000000000000000000000000000000000000000000000000000000000000000000000000000000000000000000000000000000000000000000000000000000000000000000000000000000000000000000000000000000000000000000000000000000000000000000000000000000000000000000000000000000000000000000000000000000000000000000000000000000000000000000000000000000000000000000000000000000000000000000000000000000000000000000000000000000000000000000000000000000000000000000000000000000000000000000000000000000000000000000000000000000000000000000000000000000000000000000000000000000000000000000000000000000000000000000000000000000000000000000000000000000000000000000000000000000000000000000000000000000
#0121b:0013000013001300
#01216:00000013000000001300000013000000
#01212:1300001300000000
#01213:00130000
#01217:1300001300000000
#01219:00130000
#0181b:0013001300130000
#01818:1313
#01812:0013001300130000
#01815:13130013
#0201b:13131313
#02017:0000001300000000
#02016:1313
#02012:00000013000013000000000000000000
#02015:00130000
#02018:0013000000000000
#02112:13000013000000000000000013000000
#02116:0000000000000000001300000000000000000000000000000000000013000000
#0211b:1300000000130013
#02117:0000001300000000000000000000000000000000000000001300000000000000
#04012:1300001300001300
#04016:00000000130000000013000000000000
#04017:1300001300000000
#04018:00000013
#0401b:0000000013130000
#04014:0013000000000000
#04015:00000000000000000000001300000000
#03916:0013001313000013
#03912:13131300
#0391b:00000013000013000000000000000000
#03917:00130000130000000000000000000000
#03910:41
#04112:13130000000000000000000013000000
#0411b:00000013130000000000130000001300
#04116:0000000000141414
#05516:13130000
#05514:0000001300000013
#05512:00001300000000001300001300000000
#05517:00001313
#05519:0000001300000013
#0551b:13000013000000000000130000000000
#05917:23130000
#05919:0000001300000013
#0591b:0013
#05916:00001313
#05914:0000001300000013
#05912:23
#06018:16000013
#06014:0016000016000000
#06016:00160000
#06012:00000000000016000000000000130000
#0601b:0000000000000013
#06015:00000000000000000000000000000013
#06118:13000000000000130000000000000000
#06112:1300131300000000
#0611b:0013000000000000
#06115:0013
#0621b:1300000013000013
#06212:0000000013000013
#06219:0000000000130000
#06214:0013001300000000
#06216:0000130000130000
#06217:0013000000001300
#06415:00000013
#0641b:00000000000000000000000000130000
#06412:0000000000000013
#06418:00000000000000000000000000000013
#06419:00140014001400140000000000000000
#06416:140000000000000000000000000000000000000000000000000000000000000000000000000000000000000000000000000000000000000000000000000000000000000000000000000000000000000000000000000000000000000000000000000000000000000000000000000000000000000000000014140000000000000000000000000000000000000000000000000000000000000000000000000000000000000000000000000000000000000000000000000000000000000000000000000000000000000000000000000000000000000000000000000000000000000000000000000000000000000000000014140000000000000000000000000000000000000000000000000000000000000000000000000000000000000000000000000000000000000000000000000000000000000000000000000000000000000000000000000000000000000000000000000000000000000000000000000000000000000000000014140000000000000000000000000000000000000000000000000000000000000000000000000000000000000000000000000000000000000000000000000000000000000000000000000000000000000000000000000000000000000000000000000000000000000000000000000000000000000000000000000000000000000000000000000000000000000000000000000000000000000000000000000000000000000000000000000000000000000000000000000000000000000000000000000000000000000000000000000000000000000000000000000000000000000000000000000000000000000000000000000000000000000000000000000000000000000000000000000000000000000000000000000000000000000000000000000000000000000000000000000000000000000000000000000000000000000000000000000000000000000000000000000000000000000000000000000000000000000000000000000000000000000000000000000000000000000000000000000000000000000000000000000000000000000000000000000000000000000000000000000000000000000000000000000000000000000000000000000000000000000000000000000000000000000000000000000000000000000000000000000000000000000000000000000000000000000000000000000000000000000000000000000000000000000000000000000000000000000000000000000000000000000000000000000000000000000000000000000000000000000000000000000000000000000000000000000000000000000000000000
#06413:00140014001400140000000000000000
#06515:13000000000000130000000000000000
#0651b:1300131300000000
#06512:0013000000000000
#06518:0013
#02612:13231323
#02616:0013000000130000
#02617:0000001300000000
#0261b:23132313
#02619:0013000000130000
#02614:0000001300000000
#0461b:1300001300001300
#04618:0013130000130000
#04615:0013001300130000
#04612:1313
#04212:2300001300001300
#04215:0013130023130000
#04218:0013001300130000
#0421b:13231323
#04812:1400140000000013
#0481b:0000000000000013
#04815:0014001400000000
#0481a:00000014000000140000000000000000
#04817:00140000001400000000000000000000
#04814:00001616
#04816:0000000000160000
#06717:0000001300000000
#06718:00000013000000000000000000130013
#06712:0013000000130013
#0671b:23130013
#06715:00130000130000000000000013000000
#06816:0000001300000000000000001300000000000000000000000000000000000000
#0681b:13000013000000000000130000000000
#06812:13001313
#06818:00000013
#06817:0000000000000000001300000000000000000000000000000000000000000000
#06916:0000001300000000
#0691b:0013000000130013
#06918:00130000130000000000000013000000
#06915:00000013000000000000000000130013
#06912:13130013
#07017:0000001300000000000000001300000000000000000000001500000000000000
#0701b:1313
#07012:13000013000000000000140015001600
#07016:0000000000000000001300000000000000000000000000000000000000000000
#07018:0000000000000016
#0071b:23000000130000000000130000130000
#00712:00130000130013000000000013000000
#00718:00001300000000000000000000000013
#00715:00000013000000000000000000000000
#00714:0000000000000013
#00717:00000013
#00710:41
#06318:14
#0631a:0014001400140014
#06316:000000000000000000000000000000000000000000000000000000000000000000000000000000000000000000000000000000000000000000000000000000000000000000000000000000000000000000000000000000000000000000000000000000000000000000000000000000000000000000000000000000000000000000000000000000000000000000000000000000000000000000000000000000000000000000000000000000000000000000000000000000000000000000000000000000000000000000000000000000000000000000000000000000000000000000000000000000000000000000000014140000000000000000000000000000000000000000000000000000000000000000000000000000000000000000000000000000000000000000000000000000000000000000000000000000000000000000000000000000000000000000000000000000000000000000000000000000000000000000000000000000000000000000000000000000000000000000000000000000000000000000000000000000000000000000000000000000000000000000000000000000000000000000000000000000000000000000000000000000000000000000000000000000000000000000000000000000000000000000000014140000000000000000000000000000000000000000000000000000000000000000000000000000000000000000000000000000000000000000000000000000000000000000000000000000000000000000000000000000000000000000000000000000000000000000000000000000000000000000000000000000000000000000000000000000000000000000000000000000000000000000000000000000000000000000000000000000000000000000000000000000000000000000000000000000000000000000000000000000000000000000000000000000000000000000000000000000000000000000000014140000000000000000000000000000000000000000000000000000000000000000000000000000000000000000000000000000000000000000000000000000000000000000000000000000000000000000000000000000000000000000000000000000000000000000000000000000000000000000000000000000000000000000000000000000000000000000000000000000000000000000000000000000000000000000000000000000000000000000000000000000000000000000000000000000000000000000000000000000000000000000000000000000000000000000000000000000000000000000000014
#06312:0014001400140014
#06314:14
#01112:23130000
#01116:00000000000000000000001300001300
#01117:00000013000000001300000000000000
#0111b:2300001300000000
#0111a:00130000
#01114:0013000000000000
#01119:0000000000130000
#01113:00000013
#01612:0013000013001300
#01617:00000013000000001300000013000000
#0161b:1300001300000000
#01616:1300001300000000
#0161a:00130000
#01614:00130000
#0151b:13130000
#01517:00000000000000000000001300001300
#01516:00000013000000001300000000000000
#01512:1300001300000000
#01513:00130000
#01519:0013000000000000
#01514:0000000000130000
#0151a:00000013
#01510:41
#01917:00131300
#01912:2300130000000013
#0191b:2300001300000000
#01914:0013000000000000
#0191a:00000013000000000000000000000000
#01916:00000013
#01919:0000000000130000
#01913:00000000000000000000001300000000
#02412:13131313
#02416:0000001300000000
#02417:1313
#0241b:00000013000013000000000000000000
#02418:00130000
#02415:0013000000000000
#02316:00131300
#0231b:1300130000000013
#02312:1300001300000000
#02319:0013000000000000
#02313:00000013000000000000000000000000
#02317:00000013
#02314:0000000000130000
#0231a:00000000000000000000001300000000
#02310:41
#0251b:13000013000000000000000013000000
#02517:0000000000000000001300000000000000000000000000000000000013000000
#02512:1300000000130013
#02516:0000001300000000000000000000000000000000000000001300000000000000
#05157:43
#05152:43
#05156:0033
#0515b:0033
#0495a:14
#04956:0018
#04952:00140018
#0175b:6300006300000000
#01757:0000002300000000000000000000000000000000000000000000000000000000
#01756:00000063000000002300000000000000
#01752:0000000000000000002300000000000000000000000000000000000000000000
#02252:33533300
#0225b:63436343
#02256:0000002300000000
#02257:0023000000230000
#03552:0000005300000000
#03557:0023
#0365b:0000006300001300
#03656:63
#03655:00000013
#06656:0013
#0665b:0013
#0045b:0000006300430000
#00456:0023
#00452:00000033
#00856:0000005300000000
#0085b:00002343
#00852:0000000000330000
#05252:36
#05256:0046000036000000
#05254:00360000
#05258:0000004600000000
#05456:0014
#05459:00000014
#05453:00000014
#04552:00370000
#04557:0000000000470000
#04352:0000000000000036
#04458:0000000000000046
#03852:00000023000000000000230000000000
#0385b:0000002300230000
#03857:6300006363000000
#03856:000000000000000000000000000000000000000000000000000000000000000000000000000000000000000000000000000000000000000000000000000000000000000000000000000000000000000000000000000000000000000000000000000000000000000000000000000000000000000000000000000000000000000000000000000000000000000000000000000000000000000000000000000000000000000000000000000000000000000000000000530000000000000000000000000000000000000000000000000000000000000000000000000000000000000000000000000000000000000000000000000000000000000000000000000000000000000000000000000000000000000000000000000000000000000000000000000000000000000000000000000000000000000000000000000000000000000000000000000000000000000000000000000000000000000000000000000000000000000000000000000000000000000000000000000000000000000000000000000000000000000000000000000000000000000000000000000000000000000000000000000000000000000000000000000000000000000000000000000000000000000000000000000000000000000000000000000000000000000000000000005300000000000000000000000000000000000000000000000000000000000000000000000000000000000000000000000000000000000000000000000000000000000000000000000000000000000000000000000000000000000000000000000000000000000000000000000000000000000000000000000000000000000000000000000000000000000000000000000000000000000000000000000000000000000000000000000000000000000000000000000000000000000000000000000000000000000000000000000000000000000000000000000000000000000000000000000000000000000000000000000000000000000000000000000000000000000000000000000000000000000000000000000000000000000000000000000000000000000000000000000000000000000000000000000000000000000000000000000000000000000000000000000000000000000000000000000000000000000000000000000000000000000000000000000000000000000000000000000000000000000000000000000000000000000000000000000000000000000000000000000000000000000000000000000000000000000000000000000000000000000000000000000000000000000000000000000000000000000000000000
#03855:00000000000000230000000000000000
#02756:0000000000330000
#02757:00000043
#02752:0000001300000000
#0275b:00130000
#02956:00000033
#02957:0000000000430000
#02955:0000001300000000
#02958:00130000
#03156:0000000000330000
#03152:0000001300003300
#0315b:00130000
#03357:0000000000430000
#0335b:00000043
#03356:0000141400000000
#01452:0000006300000000
#0145b:0000006300000000
#01457:00000063000000000023000000000000
#01456:630000000000000000000000000000000000000000000000000000000000000000000000000000000000000000000000000000000000000000000000000000000000000000000000000000000000000000000000000000000000000000000000000000000000000000000000000000000000000000000000000000000000000000000000000000000000000000000000000000000000000000000000000000000000000000000000000000000000000000000000000000000000000000000000000000000000000000000000000000000000000000000000000000000000000000000000000000000000000000000000000000000000000000000000000000000000000000000000000000000000000000000000000000000000000000000000000000000000000000000000000000000000000000000000000000000000000000000000000000000000000000000000000000000000000000000000000000000000000000000000000000000000000000000000000000000000000000000000000000000000000000000000000000000000000000000000000000000000000000000000000000000000000000000000000000000000000000000000000000000000000000000000000000000000000000000000000000000000000000000000000000000000000000000000000000000000000000000000000000000000000000000000000000000000000000000000000000000000000000000000002300000000000000000000000000000000000000000000000000000000000000000000000000000000000000000000000000000000000000000000000000000000000000000000000000000000000000000000000000000000000000000000000000000000000000000000000000000000000000000000000000000000000000000000000000000000000000000000000000000000000000000000000000000000000000000000000000000000000000000000000000000000000000000000000000000000000000000000000000000000000000000000000000000000000000000000000000000000000000000000000000000000000000000000000000000000000000000000000000000000000000000000000000000000000000000000000000000000000000000000000000000000000000000000000000000000000000000000000000000000000000000000000000000000000000000000000000000000000000000000000000000000000000000000000000000000000000000000000000000000000000000000000000000000000000000000000000000000000000000000
#0125b:00002343
#01256:00002333
#01252:0000005300000000
#01257:0000005300000000
#0185b:0023000000230000
#01858:53335333
#01852:0000002300000000
#01855:43634300
#0205b:00002343
#02057:0000005300000000
#02056:0023
#02052:0000005300003300
#02156:0000000000000000002300000000000000000000000000000000000000000000
#02152:00000053000000000000000000000000
#02157:0000002300000000000000000000000000000000000000000000000000000000
#0215b:63
#04052:0000005300001300
#04057:53
#04058:00000013
#0395b:0000006300000000
#03956:0023
#05352:5300000000000064
#05355:0023000013000000
#05358:1300000000230000
#0535b:0063
#0535a:0000000000000054
#05552:0043
#05557:0043
#0555b:33
#05556:33
#05657:0063006313000000
#05652:53530000
#05752:0023000013000000
#05758:0053
#0575b:1300000000230000
#05755:63
#0595b:0033
#05956:0033
#05957:43
#05952:43
#06058:46
#06054:0036000046000000
#06056:00460000
#06052:0000003600000000
#06158:13
#06152:53
#0615b:0063000000000000
#06256:0000000000230000
#06257:0023000000000000
#06252:0053
#0625b:63
#06555:13
#0655b:63
#06552:0053000000000000
#02652:53335333
#02656:0023000000230000
#02657:0000002300000000
#0265b:43634300
#04655:0023000000230000
#0465b:3300002300000000
#04658:00533300
#04652:53335333
#04258:0023000000230000
#04252:4300002300000000
#04255:00634300
#0425b:63436343
#04756:00004646
#04754:0000000000360000
#04854:00003636
#04856:0000000000460000
#06856:0000002300000000000000006300000000000000000000000000000000000000
#06852:53002333
#0685b:00000063000000000000430000000000
#06857:0000000000000000002300000000000000000000000000000000000000000000
#01057:0000006300000000
#0105b:0000000000430000
#01052:0023
#00652:0000005300330000
#0065b:00000043
#00657:0023
#07057:0000002300000000000000005300000000000000000000000000000000000000
#0705b:6323
#07052:00000053000000000000000000000000
#07056:0000000000000000002300000000000000000000000000000000000000000000
#06358:54
#0635a:0024002400240024
#06356:000000000000000000000000000000000000000000000000000000000000000000000000000000000000000000000000000000000000000000000000000000000000000000000000000000000000000000000000000000000000000000000000000000000000000000000000000000000000000000000000000000000000000000000000000000000000000000000000000000000000000000000000000000000000000000000000000000000000000000000000000000000000000000000000000000000000000000000000000000000000000000000000000000000000000000000000000000000000000000000064540000000000000000000000000000000000000000000000000000000000000000000000000000000000000000000000000000000000000000000000000000000000000000000000000000000000000000000000000000000000000000000000000000000000000000000000000000000000000000000000000000000000000000000000000000000000000000000000000000000000000000000000000000000000000000000000000000000000000000000000000000000000000000000000000000000000000000000000000000000000000000000000000000000000000000000000000000000000000000000054640000000000000000000000000000000000000000000000000000000000000000000000000000000000000000000000000000000000000000000000000000000000000000000000000000000000000000000000000000000000000000000000000000000000000000000000000000000000000000000000000000000000000000000000000000000000000000000000000000000000000000000000000000000000000000000000000000000000000000000000000000000000000000000000000000000000000000000000000000000000000000000000000000000000000000000000000000000000000000000064540000000000000000000000000000000000000000000000000000000000000000000000000000000000000000000000000000000000000000000000000000000000000000000000000000000000000000000000000000000000000000000000000000000000000000000000000000000000000000000000000000000000000000000000000000000000000000000000000000000000000000000000000000000000000000000000000000000000000000000000000000000000000000000000000000000000000000000000000000000000000000000000000000000000000000000000000000000000000000000054
#06352:0024002400240024
#06354:64
#06459:00240024002400240000000000000000
#06456:640000000000000000000000000000000000000000000000000000000000000000000000000000000000000000000000000000000000000000000000000000000000000000000000000000000000000000000000000000000000000000000000000000000000000000000000000000000000000000000064540000000000000000000000000000000000000000000000000000000000000000000000000000000000000000000000000000000000000000000000000000000000000000000000000000000000000000000000000000000000000000000000000000000000000000000000000000000000000000000054640000000000000000000000000000000000000000000000000000000000000000000000000000000000000000000000000000000000000000000000000000000000000000000000000000000000000000000000000000000000000000000000000000000000000000000000000000000000000000000064540000000000000000000000000000000000000000000000000000000000000000000000000000000000000000000000000000000000000000000000000000000000000000000000000000000000000000000000000000000000000000000000000000000000000000000000000000000000000000000000000000000000000000000000000000000000000000000000000000000000000000000000000000000000000000000000000000000000000000000000000000000000000000000000000000000000000000000000000000000000000000000000000000000000000000000000000000000000000000000000000000000000000000000000000000000000000000000000000000000000000000000000000000000000000000000000000000000000000000000000000000000000000000000000000000000000000000000000000000000000000000000000000000000000000000000000000000000000000000000000000000000000000000000000000000000000000000000000000000000000000000000000000000000000000000000000000000000000000000000000000000000000000000000000000000000000000000000000000000000000000000000000000000000000000000000000000000000000000000000000000000000000000000000000000000000000000000000000000000000000000000000000000000000000000000000000000000000000000000000000000000000000000000000000000000000000000000000000000000000000000000000000000000000000000000000000000000000000000000000000
#06453:00240024002400240000000000000000
#0325b:0000001300000000
#03252:00130000
#03456:0000141400000000
#01652:00002333
#01657:00002343
#0165b:0000006300000000
#01656:0000006300000000
#02452:00002333
#02456:0000006300000000
#02457:0023
#0245b:0000006300004300
#02557:0000000000000000002300000000000000000000000000000000000000000000
#0255b:00000063000000000000000000000000
#02556:0000002300000000000000000000000000000000000000000000000000000000
#02552:53
#05052:0016001636000000
#05058:16164600
#0285b:0000001300000000
#02852:00130000
#03058:0000001300000000
#03055:00130000
#001380:12
#002320:00000026
#001361:12
#002381:00000026
#003371:0000001300000000
#0033b1:0023
#003360:0013
#003320:0000000000230000
#0043b0:13
#004370:0000005300002300000000000000000000000000000000000000000000000000
#004321:00000013000000000000000000000000
#004361:0000000000000000005300002300000000000000000000000000000000000000
#0043b0:0000001300230000
#004360:0053
#005360:0000001300000000
#005320:0023
#005371:0013
#0053b1:0000000000230000
#006321:13
#006361:0000005300002300000000000000000000000000000000000000000000000000
#0063b0:00000013000000000000000000000000
#006370:0000000000000000005300002300000000000000000000000000000000000000
#006321:0000001300230000
#006371:0053
#007371:0000001300000000
#0073b1:0023
#007320:0013
#007360:0000000000230000
#008370:13
#0083b0:0000005300002300000000000000000000000000000000000000000000000000
#008361:00000013000000000000000000000000
#008321:0000000000000000005300002300000000000000000000000000000000000000
#008360:0000001300230000
#0083b0:0053
#009360:0000001300000000
#009320:0023
#0093b1:0013
#009371:0000000000230000
#010361:13
#010321:0000005300002300000000000000000000000000000000000000000000000000
#010370:00000013000000000000000000000000
#0103b0:0000000000000000005300002300000000000000000000000000000000000000
#010371:0000001300230000
#010321:0053
#011361:0000001300000000
#011321:0000000053230000
#0113b1:0000000000001323
#012321:0000001300230000
#012361:0053
#012370:0000001300230000
#0123b0:0053
#013320:1353000000000000000000000000000000000000000000000000000000000000
#013330:000000000000000000000000000000000000000000000000000000000000005300000000000000000000000000000000000000000000000000000000530000000000000000000000000000000000000000000000000000000000000000000000000000000000000000000000000000000000000000000000000000000000000000000000000000000000000000000000000000000000000000000000000000000000000000000000000000000000000000000000000000000000000000000000000000000000000000000000000000000000000000000000000000000000000000000000000000000000000000000000000000000000000000000000000000000000000000000000000000000000000000000000000000000000000000000000000000000000000000000000000000000000000000000000000000000000000000000000000000000000000000000000000000000000000000000000000000000000000000000000000000000000000000000000000000000000000000000000000000000000000000000000000000000000000000000000000000000000000000000000000000000000000000000000000000000000000000000000000000000000000000000000000000000000000000000000000000000000000000000000000000000000000000000000000000000000000000000000000000000000000000000000000000000000000000000000000000000000000000000000000000000000000000000000000000000000000000000000000000000000000000000000000000000000000000000000000000000000000000000000000000000000000000000000000000000000000000000000000000000000000000000000000000000000000000000000000000000000000000000000000000000000000000000000000000000000000000000000000000000000000000000000000000000000000000000000000000000000000000000000000000000000000000000000000000000000000000000000000000000000000000000000000000000000000000000000000000000000000000000000000000000000000000000000000000000000000000000000000000000000000000000000000000000000000000000000000000000000000000000000000000000000000000000000000000000000000000000000000000000000000000000000000000000000000000000000000000000000000000000000000000000000000000000000000000000000000000000000000000000000000000000000000000000000000000000000000000000000000000000000
#013340:000000000000000000000000000000000000000000000000000000000000000000000000000000000000000000000000000000000000000000000000005300000000000000000000000000000000000000000000000000000000530000000000000000000000000000000000000000000000000000000000000000000000000000000000000000000000000000000000000000000000000000000000000000000000000000000000000000000000000000000000000000000000000000000000000000000000000000000000000000000000000000000000000000000000000000000000000000000000000000000000000000000000000000000000000000000000000000000000000000000000000000000000000000000000000000000000000000000000000000000000000000000000000000000000000000000000000000000000000000000000000000000000000000000000000000000000000000000000000000000000000000000000000000000000000000000000000000000000000000000000000000000000000000000000000000000000000000000000000000000000000000000000000000000000000000000000000000000000000000000000000000000000000000000000000000000000000000000000000000000000000000000000000000000000000000000000000000000000000000000000000000000000000000000000000000000000000000000000000000000000000000000000000000000000000000000000000000000000000000000000000000000000000000000000000000000000000000000000000000000000000000000000000000000000000000000000000000000000000000000000000000000000000000000000000000000000000000000000000000000000000000000000000000000000000000000000000000000000000000000000000000000000000000000000000000000000000000000000000000000000000000000000000000000000000000000000000000000000000000000000000000000000000000000000000000000000000000000000000000000000000000000000000000000000000000000000000000000000000000000000000000000000000000000000000000000000000000000000000000000000000000000000000000000000000000000000000000000000000000000000000000000000000000000000000000000000000000000000000000000000000000000000000000000000000000000000000000000000000000000000000000000000000000000000000000000000000000000000000000000000
#013350:000000000000000000000000000000000000000000000000000000000000000000000000000000000000000000000000000000000000000000000000000000000000000000000000000000000000000000000000000000000000005300000000000000000000000000000000000000000000000000000000530000000000000000000000000000000000000000000000000000000000000000000000000000000000000000000000000000000000000000000000000000000000000000000000000000000000000000000000000000000000000000000000000000000000000000000000000000000000000000000000000000000000000000000000000000000000000000000000000000000000000000000000000000000000000000000000000000000000000000000000000000000000000000000000000000000000000000000000000000000000000000000000000000000000000000000000000000000000000000000000000000000000000000000000000000000000000000000000000000000000000000000000000000000000000000000000000000000000000000000000000000000000000000000000000000000000000000000000000000000000000000000000000000000000000000000000000000000000000000000000000000000000000000000000000000000000000000000000000000000000000000000000000000000000000000000000000000000000000000000000000000000000000000000000000000000000000000000000000000000000000000000000000000000000000000000000000000000000000000000000000000000000000000000000000000000000000000000000000000000000000000000000000000000000000000000000000000000000000000000000000000000000000000000000000000000000000000000000000000000000000000000000000000000000000000000000000000000000000000000000000000000000000000000000000000000000000000000000000000000000000000000000000000000000000000000000000000000000000000000000000000000000000000000000000000000000000000000000000000000000000000000000000000000000000000000000000000000000000000000000000000000000000000000000000000000000000000000000000000000000000000000000000000000000000000000000000000000000000000000000000000000000000000000000000000000000000000000000000000000000000000000000000000000000000000000000000000000000000000000000
#013360:000000000000000000000000000000000000000000000000000000000000000000000000000000000000000000000000000000000000000000000000000000000000000000000000000000000000000000000000000000000000000000000000000000000000000000000000000000000000000000000000005300000000000000000000000000000000000000000000000000000000530000000000000000000000000000000000000000000000000000000000000000000000000000000000000000000000000000000000000000000000000000000000000000000000000000000000000000000000000000000000000000000000000000000000000000000000000000000000000000000000000000000000000000000000000000000000000000000000000000000000000000000000000000000000000000000000000000000000000000000000000000000000000000000000000000000000000000000000000000000000000000000000000000000000000000000000000000000000000000000000000000000000000000000000000000000000000000000000000000000000000000000000000000000000000000000000000000000000000000000000000000000000000000000000000000000000000000000000000000000000000000000000000000000000000000000000000000000000000000000000000000000000000000000000000000000000000000000000000000000000000000000000000000000000000000000000000000000000000000000000000000000000000000000000000000000000000000000000000000000000000000000000000000000000000000000000000000000000000000000000000000000000000000000000000000000000000000000000000000000000000000000000000000000000000000000000000000000000000000000000000000000000000000000000000000000000000000000000000000000000000000000000000000000000000000000000000000000000000000000000000000000000000000000000000000000000000000000000000000000000000000000000000000000000000000000000000000000000000000000000000000000000000000000000000000000000000000000000000000000000000000000000000000000000000000000000000000000000000000000000000000000000000000000000000000000000000000000000000000000000000000000000000000000000000000000000000000000000000000000000000000000000000000000000000000000000000000000000000000000000
#013370:000000000000000000000000000000000000000000000000000000000000000000000000000000000000000000000000000000000000000000000000000000000000000000000000000000000000000000000000000000000000000000000000000000000000000000000000000000000000000000000000000000000000000000000000000000000000000000000000000000000000005300000000000000000000000000000000000000000000000000000000230000000000000000000000000000000000000000000000000000000000000000000000000000000000000000000000000000000000000000000000000000000000000000000000000000000000000000000000000000000000000000000000000000000000000000000000000000000000000000000000000000000000000000000000000000000000000000000000000000000000000000000000000000000000000000000000000000000000000000000000000000000000000000000000000000000000000000000000000000000000000000000000000000000000000000000000000000000000000000000000000000000000000000000000000000000000000000000000000000000000000000000000000000000000000000000000000000000000000000000000000000000000000000000000000000000000000000000000000000000000000000000000000000000000000000000000000000000000000000000000000000000000000000000000000000000000000000000000000000000000000000000000000000000000000000000000000000000000000000000000000000000000000000000000000000000000000000000000000000000000000000000000000000000000000000000000000000000000000000000000000000000000000000000000000000000000000000000000000000000000000000000000000000000000000000000000000000000000000000000000000000000000000000000000000000000000000000000000000000000000000000000000000000000000000000000000000000000000000000000000000000000000000000000000000000000000000000000000000000000000000000000000000000000000000000000000000000000000000000000000000000000000000000000000000000000000000000000000000000000000000000000000000000000000000000000000000000000000000000000000000000000000000000000000000000000000000000000000000000000000000000000000000000000000000000000000000000000000000000000000
#0133b1:0000000000001353000000000000000000000000000000000000000000000000
#0133a1:000000000000000000000000000000000000000000000000000000000000000000000000000000000000000000000000000000000000000000000000000000000000000000000000000000000000000000000000000000000000000000000000000000000000000000000000000000000000000000000000000000000000000000000000000000000000000000000000000000000000000000000000000000000000000000000000000000000000000000000000000000000000000000000000000000000000000000000000000000000000005300000000000000000000000000000000000000000000000000000000530000000000000000000000000000000000000000000000000000000000000000000000000000000000000000000000000000000000000000000000000000000000000000000000000000000000000000000000000000000000000000000000000000000000000000000000000000000000000000000000000000000000000000000000000000000000000000000000000000000000000000000000000000000000000000000000000000000000000000000000000000000000000000000000000000000000000000000000000000000000000000000000000000000000000000000000000000000000000000000000000000000000000000000000000000000000000000000000000000000000000000000000000000000000000000000000000000000000000000000000000000000000000000000000000000000000000000000000000000000000000000000000000000000000000000000000000000000000000000000000000000000000000000000000000000000000000000000000000000000000000000000000000000000000000000000000000000000000000000000000000000000000000000000000000000000000000000000000000000000000000000000000000000000000000000000000000000000000000000000000000000000000000000000000000000000000000000000000000000000000000000000000000000000000000000000000000000000000000000000000000000000000000000000000000000000000000000000000000000000000000000000000000000000000000000000000000000000000000000000000000000000000000000000000000000000000000000000000000000000000000000000000000000000000000000000000000000000000000000000000000000000000000000000000000000000000000000000000000000000000000000000000000000000000000000000000000000000000000000000000
#013391:000000000000000000000000000000000000000000000000000000000000000000000000000000000000000000000000000000000000000000000000000000000000000000000000000000000000000000000000000000000000000000000000000000000000000000000000000000000000000000000000000000000000000000000000000000000000000000000000000000000000000000000000000000000000000000000000000000000000000000000000000000000000000000000000000000000000000000000000000000000000000000000000000000000000000000000000000000000000000000000000005300000000000000000000000000000000000000000000000000000000530000000000000000000000000000000000000000000000000000000000000000000000000000000000000000000000000000000000000000000000000000000000000000000000000000000000000000000000000000000000000000000000000000000000000000000000000000000000000000000000000000000000000000000000000000000000000000000000000000000000000000000000000000000000000000000000000000000000000000000000000000000000000000000000000000000000000000000000000000000000000000000000000000000000000000000000000000000000000000000000000000000000000000000000000000000000000000000000000000000000000000000000000000000000000000000000000000000000000000000000000000000000000000000000000000000000000000000000000000000000000000000000000000000000000000000000000000000000000000000000000000000000000000000000000000000000000000000000000000000000000000000000000000000000000000000000000000000000000000000000000000000000000000000000000000000000000000000000000000000000000000000000000000000000000000000000000000000000000000000000000000000000000000000000000000000000000000000000000000000000000000000000000000000000000000000000000000000000000000000000000000000000000000000000000000000000000000000000000000000000000000000000000000000000000000000000000000000000000000000000000000000000000000000000000000000000000000000000000000000000000000000000000000000000000000000000000000000000000000000000000000000000000000000000000000000000000000000000000000000000
#013381:000000000000000000000000000000000000000000000000000000000000000000000000000000000000000000000000000000000000000000000000000000000000000000000000000000000000000000000000000000000000000000000000000000000000000000000000000000000000000000000000000000000000000000000000000000000000000000000000000000000000000000000000000000000000000000000000000000000000000000000000000000000000000000000000000000000000000000000000000000000000000000000000000000000000000000000000000000000000000000000000000000000000000000000000000000000000000000000000000000000000005300000000000000000000000000000000000000000000000000000000530000000000000000000000000000000000000000000000000000000000000000000000000000000000000000000000000000000000000000000000000000000000000000000000000000000000000000000000000000000000000000000000000000000000000000000000000000000000000000000000000000000000000000000000000000000000000000000000000000000000000000000000000000000000000000000000000000000000000000000000000000000000000000000000000000000000000000000000000000000000000000000000000000000000000000000000000000000000000000000000000000000000000000000000000000000000000000000000000000000000000000000000000000000000000000000000000000000000000000000000000000000000000000000000000000000000000000000000000000000000000000000000000000000000000000000000000000000000000000000000000000000000000000000000000000000000000000000000000000000000000000000000000000000000000000000000000000000000000000000000000000000000000000000000000000000000000000000000000000000000000000000000000000000000000000000000000000000000000000000000000000000000000000000000000000000000000000000000000000000000000000000000000000000000000000000000000000000000000000000000000000000000000000000000000000000000000000000000000000000000000000000000000000000000000000000000000000000000000000000000000000000000000000000000000000000000000000000000000000000000000000000000000000000000000000000000000000000000000000000000
#013371:000000000000000000000000000000000000000000000000000000000000000000000000000000000000000000000000000000000000000000000000000000000000000000000000000000000000000000000000000000000000000000000000000000000000000000000000000000000000000000000000000000000000000000000000000000000000000000000000000000000000000000000000000000000000000000000000000000000000000000000000000000000000000000000000000000000000000000000000000000000000000000000000000000000000000000000000000000000000000000000000000000000000000000000000000000000000000000000000000000000000000000000000000000000000000000000000000000000000000000000000005300000000000000000000000000000000000000000000000000000000530000000000000000000000000000000000000000000000000000000000000000000000000000000000000000000000000000000000000000000000000000000000000000000000000000000000000000000000000000000000000000000000000000000000000000000000000000000000000000000000000000000000000000000000000000000000000000000000000000000000000000000000000000000000000000000000000000000000000000000000000000000000000000000000000000000000000000000000000000000000000000000000000000000000000000000000000000000000000000000000000000000000000000000000000000000000000000000000000000000000000000000000000000000000000000000000000000000000000000000000000000000000000000000000000000000000000000000000000000000000000000000000000000000000000000000000000000000000000000000000000000000000000000000000000000000000000000000000000000000000000000000000000000000000000000000000000000000000000000000000000000000000000000000000000000000000000000000000000000000000000000000000000000000000000000000000000000000000000000000000000000000000000000000000000000000000000000000000000000000000000000000000000000000000000000000000000000000000000000000000000000000000000000000000000000000000000000000000000000000000000000000000000000000000000000000000000000000000000000000000000000000000000000000000000000000000000000000000000000000000
#013361:000000000000000000000000000000000000000000000000000000000000000000000000000000000000000000000000000000000000000000000000000000000000000000000000000000000000000000000000000000000000000000000000000000000000000000000000000000000000000000000000000000000000000000000000000000000000000000000000000000000000000000000000000000000000000000000000000000000000000000000000000000000000000000000000000000000000000000000000000000000000000000000000000000000000000000000000000000000000000000000000000000000000000000000000000000000000000000000000000000000000000000000000000000000000000000000000000000000000000000000000000000000000000000000000000000000000000000000000000000000000005300000000000000000000000000000000000000000000000000000000230000000000000000000000000000000000000000000000000000000000000000000000000000000000000000000000000000000000000000000000000000000000000000000000000000000000000000000000000000000000000000000000000000000000000000000000000000000000000000000000000000000000000000000000000000000000000000000000000000000000000000000000000000000000000000000000000000000000000000000000000000000000000000000000000000000000000000000000000000000000000000000000000000000000000000000000000000000000000000000000000000000000000000000000000000000000000000000000000000000000000000000000000000000000000000000000000000000000000000000000000000000000000000000000000000000000000000000000000000000000000000000000000000000000000000000000000000000000000000000000000000000000000000000000000000000000000000000000000000000000000000000000000000000000000000000000000000000000000000000000000000000000000000000000000000000000000000000000000000000000000000000000000000000000000000000000000000000000000000000000000000000000000000000000000000000000000000000000000000000000000000000000000000000000000000000000000000000000000000000000000000000000000000000000000000000000000000000000000000000000000000000000000000000000000000000000000000000000000000000000
#013330:000000000000000000000000000000000000000000000000000000000000000000000000000000000000000000000000000000000000000000000000000000000000000000000000000000000000000000000000000000000000000000000000000000000000000000000000000000000000000000000000000000000000000000000000000000000000000000000000000000000000000000000000000000000000000000000000000000000000000000000000000000000000000000000000000000000000000000000000000000000000000000000000000000000000000000000000000000000000000000000000000000000000000000000000000000000000000000000000000000000000000000000000000000000000000000000000000000000000000000000000000000000000000000000000000000000000000000000000000000000000000000000000000000000000000000000000000000000000000000000000130000000000000000000000000000000000000000000000000000000000530000000000000000000000000000000000000000000000000000000000000000000000000000000000000000000000000000000000000000000000000000000000000000000000000000000000000000000000000000000000000000000000000000000000000000000000000000000000000000000000000000000000000000000000000000000000000000000000000000000000005300000000000000000000000000000000000000000000000000000000530000000000000000000000000000000000000000000000000000000000000000000000000000000000000000000000000000000000000000000000000000000000000000000000000000000000000000000000000000000000000000000000000000000000000000000000000000000000000000000000000000000000000000000000000000000000000000000000000000000000000000000000000000000000000000000000000000000000000000000000000000000000000000000000000000000000000000000000000000000000000000000000000000000000000000000000000000000000000000000000000000000000000000000000000000000000000000000000000000000000000000000000000000000000000000000000000000000000000000000000000000000000000000000000000000000000000000000000000000000000000000000000000000000000000000000000000000000000000000000000000000000000000000000000000000000000000000000000000000000000
#013340:000000000000000000000000000000000000000000000000000000000000000000000000000000000000000000000000000000000000000000000000000000000000000000000000000000000000000000000000000000000000000000000000000000000000000000000000000000000000000000000000000000000000000000000000000000000000000000000000000000000000000000000000000000000000000000000000000000000000000000000000000000000000000000000000000000000000000000000000000000000000000000000000000000000000000000000000000000000000000000000000000000000000000000000000000000000000000000000000000000000000000000000000000000000000000000000000000000000000000000000000000000000000000000000000000000000000000000000000000000000000000000000000000000000000000000000000000000000000000000000000000000000000000000000000000000000000000000000000000000000000005300000000000000000000000000000000000000000000000000000000530000000000000000000000000000000000000000000000000000000000000000000000000000000000000000000000000000000000000000000000000000000000000000000000000000000000000000000000000000000000005300000000000000000000000000000000000000000000000000000000530000000000000000000000000000000000000000000000000000000000000000000000000000000000000000000000000000000000000000000000000000000000000000000000000000000000000000000000000000000000000000000000000000000000000000000000000000000000000000000000000000000000000000000000000000000000000000000000000000000000000000000000000000000000000000000000000000000000000000000000000000000000000000000000000000000000000000000000000000000000000000000000000000000000000000000000000000000000000000000000000000000000000000000000000000000000000000000000000000000000000000000000000000000000000000000000000000000000000000000000000000000000000000000000000000000000000000000000000000000000000000000000000000000000000000000000000000000000000000000000000000000000000000000000000000000000000000000000000000000000000000000000000000000000000000000000000000000000000000000000
#013350:000000000000000000000000000000000000000000000000000000000000000000000000000000000000000000000000000000000000000000000000000000000000000000000000000000000000000000000000000000000000000000000000000000000000000000000000000000000000000000000000000000000000000000000000000000000000000000000000000000000000000000000000000000000000000000000000000000000000000000000000000000000000000000000000000000000000000000000000000000000000000000000000000000000000000000000000000000000000000000000000000000000000000000000000000000000000000000000000000000000000000000000000000000000000000000000000000000000000000000000000000000000000000000000000000000000000000000000000000000000000000000000000000000000000000000000000000000000000000000000000000000000000000000000000000000000000000000000000000000000000000000000000000000000000000000000000000000000000000000000000005300000000000000000000000000000000000000000000000000000000530000000000000000000000000000000000000000000000000000000000005300000000000000000000000000000000000000000000000000000000530000000000000000000000000000000000000000000000000000000000000000000000000000000000000000000000000000000000000000000000000000000000000000000000000000000000000000000000000000000000000000000000000000000000000000000000000000000000000000000000000000000000000000000000000000000000000000000000000000000000000000000000000000000000000000000000000000000000000000000000000000000000000000000000000000000000000000000000000000000000000000000000000000000000000000000000000000000000000000000000000000000000000000000000000000000000000000000000000000000000000000000000000000000000000000000000000000000000000000000000000000000000000000000000000000000000000000000000000000000000000000000000000000000000000000000000000000000000000000000000000000000000000000000000000000000000000000000000000000000000000000000000000000000000000000000000000000000000000000000000000000000000000000000000000000000000000000000000000000000000
#013360:000000000000000000000000000000000000000000000000000000000000000000000000000000000000000000000000000000000000000000000000000000000000000000000000000000000000000000000000000000000000000000000000000000000000000000000000000000000000000000000000000000000000000000000000000000000000000000000000000000000000000000000000000000000000000000000000000000000000000000000000000000000000000000000000000000000000000000000000000000000000000000000000000000000000000000000000000000000000000000000000000000000000000000000000000000000000000000000000000000000000000000000000000000000000000000000000000000000000000000000000000000000000000000000000000000000000000000000000000000000000000000000000000000000000000000000000000000000000000000000000000000000000000000000000000000000000000000000000000000000000000000000000000000000000000000000000000000000000000000000000000000000000000000000000000000000000000000000000000000000000005300000000000000000000000000000000000000000000000000000000530000000000000000000000000000000000000000000000000000000000000000000000000000000000000000000000000000000000000000000000000000000000000000000000000000000000000000000000000000000000000000000000000000000000000000000000000000000000000000000000000000000000000000000000000000000000000000000000000000000000000000000000000000000000000000000000000000000000000000000000000000000000000000000000000000000000000000000000000000000000000000000000000000000000000000000000000000000000000000000000000000000000000000000000000000000000000000000000000000000000000000000000000000000000000000000000000000000000000000000000000000000000000000000000000000000000000000000000000000000000000000000000000000000000000000000000000000000000000000000000000000000000000000000000000000000000000000000000000000000000000000000000000000000000000000000000000000000000000000000000000000000000000000000000000000000000000000000000000000000000000000000000000000000000000000000000000000000000000000000000
#013320:000000000000000000000000000000000000000000000000000000000000000000000000000000000000000000000000000000000000000000000000000000000000000000000000000000000000000000000000000000000000000000000000000000000000000000000000000000000000000000000000000000000000000000000000000000000000000000000000000000000000000000000000000000000000000000000000000000000000000000000000000000000000000000000000000000000000000000000000000000000000000000000000000000000000000000000000000000000000000000000000000000000000000000000000000000000000000000000000000000000000000000000000000000000000000000000000000000000000000000000000000000000000000000000000000000000000000000000000000000000000000000000000000000000000000000000000000000000000000000000000000000000000000000000000000000000000000000000000000000000000000000000000000000000000000000000000000000000000000000000000000000000000000000000000000000000000000000000000000000000000000000000000000000000000000000000000000000000000000000000000000000000000000000000000000000000000000000000000000000000000000000000000000000000000000000000000000000000000000000000000000000000000000000000000000000000000000000000000000000000000005300000000000000000000000000000000000000000000000000000000230000000000000000000000000000000000000000000000000000000000000000000000000000000000000000000000000000000000000000000000000000000000000000000000000000000000000000000000000000000000000000000000000000000000000000000000000000000000000000000000000000000000000000000000000000000000000000000000000000000000000000000000000000000000000000000000000000000000000000000000000000000000000000000000000000000000000000000000000000000000000000000000000000000000000000000000000000000000000000000000000000000000000000000000000000000000000000000000000000000000000000000000000000000000000000000000000000000000000000000000000000000000000000000000000000000000000000000000000000000000000000000000000000000000000000000000000000000000000000000000
#014360:13
#014320:00000023000000000000000000000000
#014371:00000013000000000053000000000000
#0143b1:0000005300002300
#014320:0000001300002300
#014360:000000000000000000000000000000000000000000000000000000000000000000000000000000000000000000000000000000000000000000000000000000000000000000000000000000000000000000000000000000000000000000000000000000000000000000000000000000000000000000000000000000000000000000000000000000000000000000000000000000000000000000000000000000000000000000000000000000000000000000000000000000000000000000000000000000000000000000000000000000000000000000000000000000000000000000000000000000000000000000000000000000000000000000000000000000000000000000000000000000000000000000000000000000000000000000000000000000000000000000000000000000000000000000000000000000000000000000000000000000000000000000000000000000000000000000000000000000000000000000000000000000000000000000000000000000000000000000000000000000000000000000000000000000000000000000000000000000000000000000000000000000000000000000000000000000000000000000000000000000000000000000000000000000000000000000000000000000000000000000000000000000000000000000000000000000000000000000000000000000000000000000000000000000000000000000000000000000000000000000000000005300000000000000000000000000000000000000000000000000000000000000000000000000000000000000000000000000000000000000000000000000000000000000000000000000000000000000000000000000000000000000000000000000000000000000000000000000000000000000000000000000000000000000000000000000000000000000000000000000000000000000000000000000000000000000000000000000000000000000000000000000000000000000000000000000000000000000000000000000000000000000000000000000000000000000000000000000000000000000000000000000000000000000000000000000000000000000000000000000000000000000000000000000000000000000000000000000000000000000000000000000000000000000000000000000000000000000000000000000000000000000000000000000000000000000000000000000000000000000000000000000000000000000000000000000000000000000000000000000000000000000000000000000000000000000000000000000000000000000000000
#015370:0000001300000000
#0153b0:0000000053230000
#015320:0000000000001323
#0163b0:0000001300230000
#016370:0053
#016361:0000001300230000
#016321:0053
#0173b1:13000023000000000000000000000000
#017371:0000005300000000000000000000000000000000000000000000000000000000
#017360:00000013000023000000000000000000
#017320:0000000000000000005300000000000000000000000000000000000000000000
#0173b1:0000001300230000
#017361:0053
#018381:13230000
#0183b1:0053000000000000
#018350:00132300
#018320:0000005300000000
#018381:00001323
#0183b1:0000000000530000
#019361:0000001300230000
#019321:0053
#0193b1:00000013
#019371:0000000000000023
#020371:0000001300230000
#0203b1:0053
#020320:0000001300532300
#020360:0053
#0213b0:13000023000000000000000000000000
#021370:0000005300000000000000000000000000000000000000000000000000000000
#021321:00000013000023000000000000000000
#021361:0000000000000000005300000000000000000000000000000000000000000000
#0213b0:0000001300000000
#021370:0023
#021321:0013
#021361:0000000000230000
#0223b1:13230000
#022371:0053000000000000
#022320:00132300
#022360:0000005300000000
#0223b1:00001323
#022371:0000000000530000
#023371:0000001300230000
#0233b1:0053
#023321:00000013
#023361:0000000000000023
#024361:0000001300230000
#024321:0053
#0243b0:0000001300532300
#024370:0053
#025320:13000023000000000000000000000000
#025360:0000005300000000000000000000000000000000000000000000000000000000
#0253b1:00000013000023000000000000000000
#025371:0000000000000000005300000000000000000000000000000000000000000000
#025320:0000001300000000
#025360:0023
#0253b1:0013
#025371:0000000000230000
#026321:13230000
#026361:0053000000000000
#0263b0:00132300
#026370:0000005300000000
#026321:00001323
#026361:0000000000530000
#0313b1:0000000000130000
#031371:00000023
#033321:0000000000130000
#033361:00000023
#035321:0000001300230000
#035371:0053
#035380:0000000000130000
#0353b0:00000023
#035351:00000013
#035321:0000000000000023
#036361:13
#036321:00230000
#0363b1:0000001300000000
#036371:0023
#037361:14240000000000000000000000000000
#037361:00000014240000000000000000000000
#0373b1:0000001300000000
#037371:0023
#037360:0000001300000000
#037320:0023
#038370:1300003300000000
#038320:00000053000000000000000000000000
#038350:00000000000000530000000000000000
#038360:000000000000000000000000000000000000000000000000000000000000000000000000000000000000000000000000000000000000000000000000000000000000000000000000000000000000000000000000000000000000000000000000000000000000000000000000000000000000000000000000000000000000000000000000000000000000000000000000000000000000000000000000000000000000000000000000000000000000000000000000000000000000000000000000000000000000000000000000000000000000000000000000000000000000000000000000000000000000000000000000000000000000000000000000000000000000000000000000000000000000000000000000000000000000000000000000000000000000000000000000000000000000000000000000000000000000000000000000000000000000000000000000000000000000000000000000000000000000000000000000000000000000000000000000000000000000000000000000000000000000000000000000000000000000000000000000000000000000000000000000000000000000000000000000000000000000000000000000000000000000000000000000000000000000000000000000000000000000000000000000005300000000000000000000000000000000000000000000000000000000000000000000000000000000000000000000000000000000000000000000000000000000000000000000000000000000000000000000000000000000000000000000000000000000000000000000000000000000000000000000000000000000000000000000000000000000000000000000000000000000000000000000000000000000000000000000000000000000000000000000000000000000000000000000000000000000000000000000000000000000000000000000000000000000000000000000000000000000000000000000000000000000000000000000000000000000000000000000000000000000000000000000000000000000000000000000000000000000000000000000000000000000000000000000000000000000000000000000000000000000000000000000000000000000000000000000000000000000000000000000000000000000000000000000000000000000000000000000000000000000000000000000000000000000000000000000000000000000000000000000000000000000000000000000000000000000000000000000000000000000000000000000000000000000000000000000000000000000000000000000
#0383b0:0000000000330000
#038380:00000023
#038361:00000013000000000000000000000000
#0383b1:0000005300000000
#038371:0053
#038321:0000000000330000
#038351:00000023
#0393b1:0000001300230000
#039361:0053
#039350:0000000000130000
#039320:00000023
#039381:00000013
#0393b1:0000000000000023
#040371:13
#0403b1:00230000
#040321:0000001300000000
#040361:0023
#041361:14240000000000000000000000000000
#041361:00000014240000000000000000000000
#041321:0000001300000000
#041361:0023
#041370:0000001300000000
#0413b0:0023
#0423b0:13230000
#042380:0053000000000000
#042351:00132300
#042321:0000005300000000
#0423b0:00001323
#042380:0000000000530000
#046320:13230000
#046350:0053000000000000
#046381:00132300
#0463b1:0000005300000000
#046320:00001323
#046350:0000000000530000
#049360:14
#049320:0024000000000000
#049360:00140000
#0493a0:0000002400000000
#049320:0014
#049360:0000000000240000
#0493a0:00000014
#049360:0000000000000024
#053320:13230000
#053350:0053000000000000
#0533b0:00001323
#053380:0000000000530000
#053320:0000000000000014
#054320:22
#0533a1:0000000000000014
#0543c1:22
#054361:000000000000000000000000000000000000145400000054240000000000000000000000000000000000000000000000
#054371:0000000000000000000000000000000000000000000000000000000000000000000000000000000000000000000000000000000000000000000000000000000000000000000000000000000000000000000000000000000000000000000000000000000000000000000000000000000000000000000000000000000000000052000000000000000000000000000000000000000000000000005200000000000000000000000000000000000000000000000000000000000000000000000000000000000000000000000000000000000000000000000000000000000000000000000000000000000000000000000000000000000000000000000000000000000000000000000000000000000000000000000000000000000000000000000000000000000000000000000000000000000000000000000000000000000000000000
#054391:000000000000000000000000000000000000000000000000000000000000145400000054240000000000000000000000
#0543a1:0000000000000000000000000000000000000000000000000000000000000000000000000000000000000000000000000000000000000000000000000000000000000000000000000000000000000000000000000000000000000000000000000000000000000000000000000000000000000000000000000000000000000000000000000000000000000000000000000000000000000000000000000000000000000000000000000000000000000000000000000000000000000000000000000000000000000000000000000000005200000000000000000000000000000000000000000000000000520000000000000000000000000000000000000000000000000000000000000000000000000000000000000000000000000000000000000000000000000000000000000000000000000000000000000000000000000000
#054330:000000000000000000000000000000000000000000000000000000000000145400000054240000000000000000000000
#054340:0000000000000000000000000000000000000000000000000000000000000000000000000000000000000000000000000000000000000000000000000000000000000000000000000000000000000000000000000000000000000000000000000000000000000000000000000000000000000000000000000000000000000000000000000000000000000000000000000000000000000000000000000000000000000000000000000000000000000000000000000000000000000000000000000000000000000000000000000000005200000000000000000000000000000000000000000000000000520000000000000000000000000000000000000000000000000000000000000000000000000000000000000000000000000000000000000000000000000000000000000000000000000000000000000000000000000000
#056320:13332300
#056370:0033003300000000
#057350:13230000
#057320:0053000000000000
#057380:00001323
#0573b0:0000000000530000
#057350:0000000000000013
#058320:23
#058381:13
#0583b1:0023000000000000
#058320:0013000000000000
#058350:00230000
#0583b1:00130000
#058381:0000002300000000
#058350:0000001300000000
#058320:0023
#0593b0:00001323000000000000000000000000
#059321:00000013230000000000000000000000
#059321:00000000000000000000132300000000
#0593b0:00000000000000000000001323000000
#061320:13
#061350:0023000000000000
#0613b1:0013000000000000
#061381:00230000
#0613b1:0013
#061381:0000000000230000
#061320:0000000000130000
#061350:00000023
#061381:00000013
#0613b1:0000000000000023
#061350:0000000000000013
#062320:23
#0623b1:1300532300000000
#062371:0053000000000000
#062321:00001323
#062361:0000000000530000
#063381:14
#0633a1:0054000000540000
#063361:000000000000000000000000000000000000000000000000000000000000000000000000000000000000000000000000000000000000000000000000000000000000000000000000000000000000000000000000000000000000000000000000000000000000000000000000000000000000000000000000000000000000000000000000000000000000000000000000000000000000000000000000000000000000000000000000000000000000000000000000000000000000000000000000000000000000000000000000000000000000000000000000000000000000000000000000000000000000000000000054000000000000000000000000000000000000000000000000000000000000000000000000000000000000000000000000000000000000000000000000000000000000000000000000000000000000000000000000000000000000000000000000000000000000000000000000000000000000000000000000000000000000000000000000000000000000000000000000000000000000000000000000000000000000000000000000000000000000000000000000000000000000000000000000000000000000000000000000000000000000000000000000000000000000000000000000000000000000000000000054000000000000000000000000000000000000000000000000000000000000000000000000000000000000000000000000000000000000000000000000000000000000000000000000000000000000000000000000000000000000000000000000000000000000000000000000000000000000000000000000000000000000000000000000000000000000000000000000000000000000000000000000000000000000000000000000000000000000000000000000000000000000000000000000000000000000000000000000000000000000000000000000000000000000000000000000000000000000000000000054000000000000000000000000000000000000000000000000000000000000000000000000000000000000000000000000000000000000000000000000000000000000000000000000000000000000000000000000000000000000000000000000000000000000000000000000000000000000000000000000000000000000000000000000000000000000000000000000000000000000000000000000000000000000000000000000000000000000000000000000000000000000000000000000000000000000000000000000000000000000000000000000000000000000000000000000000000000000000000000054
#063321:0000005400000054
#064391:00540000005400000000000000000000
#064361:000000000000000000000000000000000000000000000000000000000000000000000000000000000000000000000000000000000000000000000000000000000000000000000000000000000000000000000000000000000000000000000000000000000000000000000000000000000000000000000054000000000000000000000000000000000000000000000000000000000000000000000000000000000000000000000000000000000000000000000000000000000000000000000000000000000000000000000000000000000000000000000000000000000000000000000000000000000000000000000054000000000000000000000000000000000000000000000000000000000000000000000000000000000000000000000000000000000000000000000000000000000000000000000000000000000000000000000000000000000000000000000000000000000000000000000000000000000000000000000054000000000000000000000000000000000000000000000000000000000000000000000000000000000000000000000000000000000000000000000000000000000000000000000000000000000000000000000000000000000000000000000000000000000000000000000000000000000000000000000000000000000000000000000000000000000000000000000000000000000000000000000000000000000000000000000000000000000000000000000000000000000000000000000000000000000000000000000000000000000000000000000000000000000000000000000000000000000000000000000000000000000000000000000000000000000000000000000000000000000000000000000000000000000000000000000000000000000000000000000000000000000000000000000000000000000000000000000000000000000000000000000000000000000000000000000000000000000000000000000000000000000000000000000000000000000000000000000000000000000000000000000000000000000000000000000000000000000000000000000000000000000000000000000000000000000000000000000000000000000000000000000000000000000000000000000000000000000000000000000000000000000000000000000000000000000000000000000000000000000000000000000000000000000000000000000000000000000000000000000000000000000000000000000000000000000000000000000000000000000000000000000000000000000000000000000000000000000000000000000000
#064331:00000054000000540000000000000000
#064381:0024
#063340:14
#063320:0054000000540000
#063360:00343434
#0633a0:0000005400000054
#064360:3434343400000000
#064330:00540000005400000000000000000000
#064390:00000054000000540000000000000000
#064340:0024
#0653b0:13
#065380:0023000000000000
#065321:0013000000000000
#065351:00230000
#065321:0013
#065351:0000000000230000
#0653b0:0000000000130000
#065380:00000023
#065351:00000013
#065321:0000000000000023
#065380:0000000000000013
#0663b0:23
#066330:00000012
#066340:000000000000000000000000000000000000000000000000000000000000000000000000005200520052005200520052
#066320:000000000000000000000000000000000000005252525252
#067330:22
#067320:0000001300000000
#067360:0023
#0673b1:0013
#067371:0000000000230000
#068321:13000023000000000000000000000000
#068361:0000005300000000000000000000000000000000000000000000000000000000
#0683b0:00000013000023000000000000000000
#068370:0000000000000000005300000000000000000000000000000000000000000000
#068361:0000001300230000
#068321:0053
#0693b1:0000001300000000
#069371:0023
#069320:0013
#069360:0000000000230000
#0703b0:13000023000000000000000000000000
#070370:0000005300000000000000000000000000000000000000000000000000000000
#070321:00000013000023000000000000000000
#070361:0000000000000000005300000000000000000000000000000000000000000000
#070370:0000001300230000
#0703b0:0053
