This file was generated by Ched 2.7.0.0.
#TITLE ""
#ARTIST ""
#DESIGNER ""
#DIFFICULTY 0
#PLAYLEVEL
#SONGID ""
#WAVE ""
#WAVEOFFSET 0
#JACKET ""
#REQUEST "ticks_per_beat 480"
#00002: 4
#BPM01: 171
#00008: 01
#TIL00: ""
#HISPEED 00
#MEASUREHS 00
#05118:0014
#05114:00140000
#05112:00000014
#0511a:24
#0511f:21
#01518:14
#01514:0014
#01510:41
#0161a:14
#01914:0014
#0191a:24
#02312:14
#02318:0014
#02310:41
#05312:14141400
#05318:14141400
#01114:0014
#0111a:24
#0121a:14
#01312:14
#01318:0014
#01412:14
#02018:14
#02118:0014
#02112:14
#02514:0014
#0251a:14
#03918:14
#03912:0014
#03910:41
#0401a:14
#0411a:0014
#04114:14
#04212:14
#03512:0014
#0351a:24
#03618:14
#03712:14
#0371a:0014
#03814:14
#04918:14
#04914:0014
#02414:14
#0031a:1414
#00414:1414
#0051a:1414
#00614:1414
#06513:1414
#06519:1414
#06619:14140000
#06613:14140000
#0521a:14141400
#05214:0014001400000000
#05210:41
#05514:0014
#05518:00140000
#0551a:00000014
#05512:24
#05612:14141400
#05618:0014001400000000
#0541a:14141400
#05414:14141400
#05714:14
#05718:0014
#0571a:14
#05712:0014
#05719:00140000
#05713:00140000
#05818:14
#05814:0014
#05812:14
#0581a:0014
#05813:00140000
#05819:00140000
#0591a:0014
#05912:00140000
#05914:00000014
#05918:24
#06018:14141400
#06012:0014001400000000
#06114:1414
#0611a:1414
#06118:00140000
#06112:00140000
#06218:1414
#06212:1414
#06214:00140000
#0621a:00140000
#06312:14
#0631a:0014
#06413:14140000
#06414:0014000000000000
#06412:0000001400000000
#00718:1414
#00710:41
#00812:1414
#0431a:14
#04318:0000001400000000
#0431f:11
#04412:14
#04414:0000001400000000
#04614:1414
#04618:00140000
#04514:00140000
#04518:1414
#02214:14
#0221a:0014
#02618:14
#02612:0014
#01714:14
#01718:0014
#01812:14
#01012:1414
#00918:1414
#0671a:14
#06716:0014
#06812:14
#06816:0014
#0691a:14
#06916:0014
#05014:0028
#03110:41
#05054:0018
#0635a:0064
#06352:54
#06454:0024000000000000
#06452:0000002400000000
#06453:54540000
#04452:54
#04454:0000002400000000
#0435a:64
#04358:0000002400000000
#02254:14
#0225a:0014
#02658:14
#02652:0014
#0273a0:1424
#028340:1424
#029380:1424
#030320:1424
#0313a0:14
#031380:0024
#032320:14
#032340:0024
#033380:14
#0333a0:0024
#034340:14
#034320:0024
#0433a0:14000024
#043380:0000005400000000
#044320:14000024
#044340:0000005400000000
#0473a0:14
#047380:0024
#048320:14
#048340:0024
#050340:1838383828000000
#063320:14
#063340:00240000
#0633a0:0014
#063380:00000024
#064330:14342400
#064340:0054000000000000
#064320:0000005400000000
#070320:1400000000343424
