This file was generated by Ched 2.7.0.0.
#TITLE ""
#ARTIST ""
#DESIGNER ""
#DIFFICULTY 0
#PLAYLEVEL
#SONGID ""
#WAVE ""
#WAVEOFFSET 0
#JACKET ""
#REQUEST "ticks_per_beat 480"
#00002: 4
#BPM01: 191
#00008: 01
#TIL00: ""
#HISPEED 00
#MEASUREHS 00
#00113:14
#0021a:14
#00019:14
#0031a:14
#00618:14
#01114:14
#01512:14
#0121a:14
#01314:14
#01418:14
#00414:14
#00514:14
#00718:14
#0101a:14
#05212:16
#05218:0016
#04812:0016
#04818:26
#0481f:21
#06212:1616
#06318:1616
#06412:16
#06418:0016
#06512:16
#0731a:14
#07114:14
#07412:14
#07518:14
#04918:16
#04912:0016
#04910:41
#05312:16
#05318:0016
#05618:1616
#05712:1616
#05818:16
#05812:0016
#05918:16
#06818:16
#0721a:14
#08112:14
#07812:14
#07918:14
#0821a:14
#08314:14
#08012:14
#00812:14
#00912:14
#01618:14
#01712:14
#04312:14
#0421a:14
#03312:14
#0191a:14
#0181a:14
#01810:41
#03114:14
#03218:14
#02912:14
#0301a:14
#02818:14
#02810:41
#02714:14
#0261a:14
#02312:14
#02212:14
#03812:14
#0381f:11
#03918:14
#0341a:14
#03514:14
#06912:16
#0701a:24
#03710:41
#07610:41
#06610:41
#0203a0:14
#0213a0:24
#024320:14
#025320:24
#0363a0:14
#0373a0:24
#040320:14
#041320:24
#0443a0:14
#0453a0:24
#046320:14
#047320:24
#050380:1636
#051380:26
#054320:1636
#055320:26
#060380:1636
#061380:3626
#066320:1636
#067320:3626
#076340:1424
#0773a0:1424
#084380:1424
#085320:14342400
#0863a0:14
#0903a0:24
