This file was generated by Ched 2.7.0.0.
#TITLE ""
#ARTIST ""
#DESIGNER ""
#DIFFICULTY 0
#PLAYLEVEL
#SONGID ""
#WAVE ""
#WAVEOFFSET 0
#JACKET ""
#REQUEST "ticks_per_beat 480"
#00002: 4
#BPM01: 191
#00008: 01
#TIL00: ""
#HISPEED 00
#MEASUREHS 00
#0001b:13130000
#00012:13130000
#00019:00001313
#00014:0000000000130000
#00118:0013001300000000
#00112:00001313
#00115:13130000
#0011b:00001313
#00418:00001313
#0041b:0000000000130000
#00415:00130000
#00412:13
#00512:13130000
#00515:00001313
#0051b:13130013
#00518:0000001300000000
#00912:1313
#00918:00131323
#00915:0013000000002300
#0091b:1300001300130000
#01618:00001313
#01615:00000000000000130000130000000000
#01612:13
#0161b:13
#01815:13
#0181b:1300001300000013
#01812:0013
#01818:0013
#01810:41
#01918:1300001300000000
#01912:1313
#0191b:0000000000130000
#01915:00000013
#0201b:1300000000001313
#02018:0000131300000000
#02015:0000000013130000
#02012:13130000
#0261b:1313130000000000
#02618:0000000013131300
#0271b:1300000000001313
#02715:1300131300000000
#02718:0013
#02712:0013
#03212:13001313
#0321b:1300001300001300
#03215:00130000
#03218:0000000000130000
#03412:00131300
#03418:0000001300001300
#0341b:1313
#03415:1300000000130013
#03512:13
#03515:00001313
#03518:1300001300130013
#0351b:00131300
#03614:0000001300000000
#03612:0000000013000013
#0361b:13131300
#03615:13000013
#03618:0000000000130000
#03616:00130000
#03918:0000000013000013
#0391b:1300001300000000
#03915:1313
#03912:00130000
#04815:13131313
#04812:0000000000000013
#0481b:0000131300000000
#0481f:21
#05018:0000001300130000
#05015:1300000013000013
#0501b:1313
#05012:00130013
#0511b:13130013
#05115:0000001300130000
#05118:0013
#05112:00130013
#06212:00131300
#0621b:0013001300001313
#06215:13
#06218:2323
#06319:0000000000000013
#0631b:00131300
#06312:0013001300001313
#06318:13
#06315:2323
#06412:1313
#06418:0000001300000013
#0641b:23132313
#06515:0013001300000000
#0651b:1313
#06518:00130000
#06512:23002313
#00215:13001313
#00212:0000130000130000
#0061b:13001313
#00618:0000130000130000
#02112:1313000000001300
#02118:0000131300000013
#02115:0000000013130000
#0211b:13000013
#04515:13130000
#04518:0000001300000000
#0451b:0013
#04512:0013
#04619:00130000
#04614:00000013
#04618:00000013
#0461b:0013
#04615:00130000
#04612:13
#0471b:00131300
#04712:13000023
#04716:00130000
#04717:00000013
#05218:1300131313001300
#0521b:0000000000000013
#05212:13131300
#0541b:1300001300000000
#05412:13130000
#05415:00002323
#05418:0000000000230023
#0551b:13131300
#05518:0013001300130000
#05512:13131300
#05515:0013001300130000
#05818:1300001300130000
#0581b:00131300
#05815:00001313
#05812:1300000000130013
#0561b:13001313
#05617:00130000
#05612:0013
#05615:0000000000130000
#05616:13
#05619:0000001300000000
#05918:1313
#0591b:00130000
#05915:00130000
#05912:0013
#0601a:14141414
#06016:00001313
#06012:00130000
#06014:0000001300000013
#06112:14141424
#06115:0000001300000000
#06118:0013000000130000
#0611a:14141424
#0661b:00131300
#06612:13000013
#06616:00130000
#06617:00000013
#06610:41
#06718:0000130000130013
#06712:13130000
#06715:0013001300002300
#0671b:00001313
#0681b:0000131300000000
#06815:0000000013130000
#06818:0000000000001313
#06812:13130000
#07012:1300001300000000
#07015:00130000
#07018:00000013
#0701b:0000000000000013
#06912:1313000013000000
#0691b:0000131313000000
#06915:00000013
#06918:13000000000000000000001300000000
#07215:0000001300000000
#07218:0000000013000013
#0721b:00130013
#07212:00130013
#07217:13
#07312:1300001300000000
#07315:00130000
#07318:0000000013000013
#0731b:00000013
#07618:0000131300000000
#07615:0013
#07612:0000130000001313
#07616:13
#0761b:00000013
#07610:41
#07718:1300001300000000
#0771b:00130000
#07715:0000000013000013
#07712:00000013
#07812:1300000000000013
#07812:13
#07815:00131313
#07818:0000001300130000
#0781b:0000000013000013
#08012:13
#08015:0000131313001313
#0821b:1300000013131300
#08218:00130000
#08215:0000001300131300
#0841a:1424
#08418:0013001300000013
#08415:00000000130000130000000013000000
#08412:2400000000130000
#0851a:1424000000000000
#08512:2414000000000000
#08514:00000013
#08519:0000142414001300
#08513:0000241424000000
#0861b:13
#08612:13
#03818:13000013
#03815:0013
#03812:0000000000000013
#0381f:11
#03012:13
#03015:00130000
#03115:00131300
#0311b:0013
#03112:13000013
#03118:00130013
#0101b:1313
#01018:0000130000130000
#01012:0013
#01015:0000001300001300
#0141b:1313
#01418:00130013
#01415:0000001300130000
#01412:0013
#04918:13131313
#0491b:0000000000000013
#04912:1300131300000000
#04910:41
#05315:1300131313001300
#05312:0000000000000013
#0531b:13131300
#05718:0000000000130013
#05712:13001313
#05716:00130000
#0571b:0013
#05717:13
#05714:0000001300000000
#0791b:1300000000000013
#0791b:13
#07918:00131313
#07915:0000001300130000
#07912:0000000013000013
#0811b:13
#08118:0000131313001313
#08312:1300000013131300
#08315:00130000
#08318:0000001300131300
#07112:00130000
#07114:0000001300000000
#0711b:00000013
#07119:0000000000000013
#0741b:1300001300000000
#07418:00130000
#07415:00000013
#07412:0000000000000013
#0751b:00130000
#07519:0000001300000000
#07512:00000013
#07514:0000000000000013
#0131b:13
#01318:0013000013002300
#01312:00001323
#01315:1300130000130000
#04412:13131300
#0441b:0000000013000013
#04418:13000013
#04415:0000000000130000
#04419:0000001300000000
#04417:00130000
#04318:00001313
#04315:1300001300130013
#04312:00131300
#0431b:13
#04212:0013
#04218:1300000000130013
#0421b:00131300
#04215:0000001300001300
#0411b:13000013
#04112:13131300
#04117:00130000
#04116:00000013
#03715:00130013
#03712:0013
#0371b:0000130000130000
#03718:1313
#03710:41
#02912:0013000000130000
#02915:1313
#02918:1300001300001300
#0291b:0000130000000013
#02815:0013
#02812:13
#02818:13000013
#0281b:0000131313000000
#02810:41
#02518:0000000013132300
#02512:13000023
#02515:0000131300000000
#0251b:1313000000000000
#02315:1300001300000000
#0231b:1313
#02318:00000013
#02312:0000000000130000
#0221b:0013
#02212:1300001300000013
#02215:0013
#02218:13
#0241b:13130000
#02412:1300000000001313
#02418:0000000013130000
#02415:0000131300000000
#01714:0000132313000000
#01719:0000231323000000
#0171b:2313000000002300
#01712:1323000000002300
#01515:00130013
#0151b:0013
#01518:0000001300130000
#01512:1313
#01212:13131300
#01218:0013000000000000
#0121b:13001313
#01215:0000000000130000
#01118:0000001300001300
#01112:1313
#01115:0000130000130000
#0111b:0013
#00815:1300001300001300
#00818:0000130000130013
#0081b:1313
#00812:0013000013000000
#00712:13001313
#00715:0000130000130000
#00318:13001313
#0031b:0000130000130000
#04012:1300001300000000
#0401b:13130000
#04018:00002323
#04015:0000000000230023
#03314:23232300
#03319:23232300
#0331b:00000023
#03312:00000023
#00952:53
#00955:0023000000001300
#00958:00006313
#0095b:1300000000230000
#0175b:00000013
#01752:00000013
#03252:13000013
#0325b:13000013
#03955:0053
#0395b:53
#03958:0013
#0515b:43
#05152:33
#04855:0013
#05258:0013
#05252:0053
#0555b:63535300
#05558:0023002300230000
#05552:53636300
#05555:0023002300230000
#05652:0063
#05655:0000000000230000
#0565b:13
#05656:63
#05852:6300000000000023
#0585b:0063
#05858:1300000000230000
#05855:00000063
#05958:13
#05955:13
#05952:0053
#06152:00000014
#0615a:00000014
#06252:0023
#06452:5353
#06852:13
#00552:13
#00555:0013
#03552:13
#03558:0000000000230000
#0355b:0053
#07052:13
#07258:0013
#07257:13
#07352:13
#07358:0013
#07655:0013
#07656:13
#07758:13
#07755:0013
#07852:13
#08052:13
#08055:0013
#08452:14
#0845a:0014
#03052:13
#0105b:13
#0145b:13
#01652:53
#01655:00130000
#01658:00130000
#0165b:53
#0455b:0053
#04558:13
#04555:13
#04752:53
#0475b:0053
#04756:00230000
#04757:00000023
#04958:0013
#0505b:6363
#05052:00000063
#05058:0000000000230000
#05055:0000000000000023
#05355:0013
#0535b:0063
#0575b:0053
#05758:0000000000230000
#05752:13
#05757:53
#0635b:0023
#0655b:0053
#06652:53
#06656:00230000
#0665b:0063
#06657:00000023
#06752:53530000
#06755:0023002300000000
#0675b:00006363
#06758:0000000000230023
#0795b:13
#0815b:13
#08158:0013
#0825b:13
#08352:13
#0865b:53
#08652:63
#01852:0053
#0185b:53
#01958:53
#0745b:13
#0135b:63
#01358:0023000000000000
#01352:00005333
#01355:0000000000230000
#0205b:13
#02052:13
#04658:00000023
#0465b:0053
#04655:00230000
#04652:53
#0445b:0000000000000023
#04458:00000053
#04455:0000000000230000
#04452:1353
#04355:0000000000230000
#04352:0063
#0435b:13
#04258:1300000000230000
#0425b:0053
#03855:0013
#0385b:0013
#04157:00230000
#04156:00000023
#04152:0063
#0415b:53
#03758:13006313
#03752:0013
#0375b:0000130000230000
#03755:13
#03652:0000000000000023
#03655:00000063
#03658:0000000000230000
#0365b:1363
#03455:1300000000230000
#03452:0063
#03352:00000013
#0335b:00000013
#03152:00000013
#0315b:1313
#03155:00130000
#02952:0023000000230000
#02955:5363
#02958:0000002300005300
#0295b:0000530000000023
#02855:0023
#02852:23
#0275b:23
#02752:0023
#02355:63
#0225b:0063
#02252:63
#0245b:13
#02452:13
#01552:13
#01258:0023000000000000
#0125b:63
#01255:0000000000230000
#01252:1353
#01152:13
#00858:0000000000230000
#0085b:1363
#00852:0023000000000000
#00855:53
#00752:13
#0065b:13
#00452:13
#00358:13
#00255:13
#07152:13
#0755b:13
#0023b0:13
#002380:00230000
#002380:00001323
#0023b0:0000000000330000
#003320:13
#003350:00230000
#003350:00001323
#003320:0000000000330000
#004380:13
#0043b0:00230000
#004320:00001323
#004350:0000000000330000
#006320:13
#006350:00230000
#006350:00001323
#006320:0000000000330000
#0073b0:13
#007380:00230000
#007380:00001323
#0073b0:0000000000330000
#008350:13230000
#008320:0053000000000000
#0083b0:00001323
#008380:0000000000530000
#009320:13230000
#009350:0053000000000000
#009380:00001323
#0093b0:0000000000530000
#010320:13
#010350:00230000
#0113b0:13
#011380:00230000
#0123b0:13230000
#012380:0053000000000000
#012320:00001323
#012350:0000000000530000
#0133b0:13230000
#013380:0053000000000000
#013320:00001323
#013350:0000000000530000
#014350:13
#014320:00230000
#015380:13
#0153b0:00230000
#016320:13
#016350:00230000
#0163b1:13
#016381:00230000
#0183b1:13
#018381:00230000
#018321:0013
#018351:00000023
#019381:13
#0193b1:00230000
#022321:13
#022351:00230000
#0223b1:0013
#022381:00000023
#023351:13
#023321:00230000
#026351:13230000
#026321:00001323
#0273b1:13
#027381:00230000
#027321:0013
#027351:00000023
#028321:13
#028351:00230000
#028351:0013
#028321:00000023
#029351:13230000
#029321:0053000000000000
#0293b0:00132300
#029380:0000005300000000
#029351:00001323
#029321:0000000000530000
#029380:00000013
#0293b0:0000000000000053
#030380:23
#0303b0:00130000
#030380:0023
#030351:0013
#030321:00000023
#030380:00000013
#0313b0:23
#034320:00001323
#034350:0000000000530000
#0353b0:00001323
#035380:0000000000530000
#0363b0:00001323
#036380:0000000000530000
#036351:00000013
#036321:0000000000000053
#037351:23
#037381:00001323
#0373b1:0000000000530000
#038321:13230000
#038351:0033000000000000
#0383b0:00132300
#038380:0000003300000000
#0393b0:13
#039380:00230000
#039350:0013
#039320:00000023
#0413b0:1323
#041370:00530000
#041321:0013
#041361:00000053
#042321:23
#0423b1:00001323
#042381:0000000000530000
#043321:00001323
#043351:0000000000530000
#044321:00001323
#044351:0000000000530000
#044380:00000013
#0443b0:0000000000000053
#045380:23
#0453b0:0013
#046370:23
#046321:1323
#046351:00530000
#0463b0:0013
#046380:00000053
#0473b0:23
#047321:1323
#047361:00530000
#0473b0:0013
#047370:00000053
#0483b0:23
#0483b0:0013
#048380:00000023
#049320:0013
#049350:00000023
#0503b0:13
#050380:00230000
#0503b0:00001323
#050380:0000000000530000
#050321:00000013
#050351:0000000000000053
#051321:23
#052321:0013
#052351:00000023
#0533b1:0013
#053381:00000023
#0553b1:13333323
#055381:0053005300530000
#055320:13333323
#055350:0053005300530000
#056360:13
#056320:00230000
#056320:00001323
#056350:0000000000530000
#057370:13
#0573b0:00230000
#0573b0:00001323
#057380:0000000000530000
#058320:13
#058350:00230000
#0583b0:00001323
#058380:0000000000530000
#058351:00000013
#058321:0000000000000053
#059351:23
#059321:0013
#060361:23
#062321:0013
#062361:00000023
#0633b1:0013
#063371:00000023
#064321:13
#064351:00230000
#064321:0013
#064351:00000023
#0653b1:0013
#066371:23
#066320:1323
#066360:00530000
#0663b1:0013
#066371:00000053
#0673b1:23
#067320:13332300
#067350:0053005300000000
#0673b1:00001333
#067381:0000000000530053
#0683b1:23
#070381:13
#0703b1:0023
#070350:0013
#071320:23
#071381:13
#0713b1:0023
#071360:0013
#072320:23
#073380:13
#0733b0:00230000
#073320:0013
#073350:00000023
#074350:13
#074320:0023
#074381:0013
#0753b1:23
#075350:13
#075320:0023
#075371:0013
#0763b1:23
#077351:13
#077321:00230000
#077381:0013
#0773b1:00000023
#078381:13
#0783b1:00230000
#079351:13
#079321:00230000
#0803b1:13
#080381:00230000
#080381:0013
#0803b1:00000023
#081321:13
#081351:00230000
#081351:0013
#081321:00000023
#082321:13
#082351:00230000
#0833b1:13
#083381:00230000
#0863b1:13
#089381:23
#086320:13
#089350:23
