This file was generated by Ched 2.7.0.0.
#TITLE ""
#ARTIST ""
#DESIGNER ""
#DIFFICULTY 0
#PLAYLEVEL
#SONGID ""
#WAVE ""
#WAVEOFFSET 0
#JACKET ""
#REQUEST "ticks_per_beat 480"
#00002: 4
#BPM01: 191
#00008: 01
#TIL00: ""
#HISPEED 00
#MEASUREHS 00
#0001b:13130000
#00012:13130000
#00018:00001313
#00015:0000000000130000
#00118:0013001300000000
#00115:13131300
#00415:00001313
#00418:0000000000130000
#0051b:13
#00518:0013
#00515:00130000
#00512:00000013
#0091b:13
#00912:00001323
#00918:0013000000000000
#00915:0000000000130000
#01618:00001313
#01615:0000000000130000
#01612:13
#01815:1300001300000000
#01818:00131300
#01810:41
#01918:0000001300000000
#01912:0013
#0191b:0000000000130000
#01915:13000013
#0201b:13
#02015:0000131300000000
#02018:0000000013130000
#02012:00000013
#02618:0013000000000000
#02612:13130000
#02615:00001313
#0261b:0000000000130000
#02715:0000001300000013
#03212:13
#0321b:13000013
#03218:00131300
#03215:0000001300130000
#03415:00131313
#03418:1300001300000013
#03512:13
#03518:00131313
#03515:0000001300000013
#03618:0000001300000000
#03612:0013
#0361b:13000013
#03615:00130013
#03918:0000001300000013
#03912:13
#03915:0013
#0481b:13130000
#04815:0013001300000000
#0481f:21
#0621b:23132300
#06215:0013001300001300
#06218:0000000000000013
#00215:00001313
#00218:0000000000130000
#00612:00001313
#00618:0000000000130000
#0211b:13130000
#02115:0013001300000000
#02118:0000000013130000
#02112:00000013
#04515:13130000
#04518:0000001300000000
#04512:0013
#0451b:13
#05015:1300000013000013
#05012:00000013
#0501b:13
#05018:0000000000130000
#05118:0013
#05115:0000000000130000
#0511b:00000013
#05218:1300001300000000
#05212:13131300
#0541b:13130000
#05412:13130000
#05415:00002323
#05418:0000000000230000
#0701b:13
#07015:00130000
#07018:0000001300000000
#07218:0000001300000000
#07215:0000000013000013
#0721b:13000013
#07212:00130000
#07318:1300001300001300
#07315:0013
#07312:00130000
#0821b:1300000000130000
#08215:00131300
#08218:0000001300000000
#08212:00000013
#08418:0013001300130013
#08415:00130013
#08412:2424
#08514:00000013
#08519:00000013
#08512:24242400
#0851a:0024002400000000
#03815:0013001300001300
#0381b:13131300
#03818:0000000000000013
#0381f:11
#0301b:13
#03112:00130013
#0311b:1313
#03118:00130013
#03115:1313
#0101b:13
#01015:0000130000130000
#01018:00001313
#01412:13
#01415:00131313
#01418:0000001300000000
#0141b:0000000000130000
#05912:0013
#05915:13
#0591b:13
#05918:0013
#06418:0013
#0641b:13
#06415:0000001300000000
#01312:13
#01315:0013000000000000
#0131b:00001323
#01318:0000000000130000
#00318:00001313
#00315:0000000000130000
#0071b:00001313
#00715:0000000000130000
#00812:00001313
#00818:0000000000130000
#01112:13
#01118:0000130000130000
#01115:00001313
#0121b:13
#01215:0000130000130000
#01218:00001313
#0151b:13
#01518:00131313
#01515:0000001300000000
#01512:0000000000130000
#02218:1300001300000000
#02215:00131300
#02315:0000001300000000
#0231b:0013
#02312:0000000000130000
#02318:13000013
#02412:13
#02418:0000131300000000
#02415:0000000013130000
#0241b:00000013
#02512:13130000
#02518:0013001300000000
#02515:0000000013130000
#0251b:00000023
#02812:0000001300000000
#02810:41
#02912:13
#02918:00000013
#02915:0000000000000013
#03718:1300000000130000
#03712:13
#0371b:00130000
#03715:00001313
#03710:41
#04218:00131313
#04215:0000001300000013
#04212:13
#0431b:13
#04315:00131313
#04318:0000001300000013
#04415:0000001300000000
#0441b:0013
#04412:13000013
#04418:00130013
#04112:0013
#04118:0013
#0411b:13
#04115:13
#04912:13130000
#04918:0013001300000000
#04910:41
#05315:1300001300000000
#0531b:13131300
#0551b:13
#05518:0013
#0561b:00131300
#05615:0000001300000013
#05618:00000013
#05612:13
#0571b:13
#05712:00131300
#05718:0000001300000013
#05715:00000013
#05815:0000001300000000
#0581b:0013
#05812:13000013
#05818:00130013
#06015:13000013
#0601b:13000013
#06112:13000023
#06118:13000023
#06312:23132300
#06318:0013001300001300
#06315:0000000000000013
#0651b:2313
#06515:0013
#06512:23
#06618:13000013
#06612:13000013
#06610:41
#0671b:13
#06715:13
#0681b:13
#06815:0000131300000000
#06818:0000000013130000
#06812:00000013
#0691b:13130013
#06915:0013001300000000
#06918:0013
#06912:00000013
#07615:0000001300001300
#0761b:0013
#07618:0000130000000013
#07612:13
#07610:41
#07712:13000013
#07715:0000001300000000
#0771b:0013
#07718:00130000
#07818:13
#07815:00131313
#0781b:0000001300130000
#07915:13
#07918:00131313
#07912:0000001300130000
#08312:1300000000130000
#08318:00131300
#08315:0000001300000000
#0831b:00000013
#08614:18
#04615:0013
#0461b:0013
#04712:13
#04718:13
#0711b:13
#07115:00130000
#07118:0000001300000000
#07412:13
#07418:00130000
#07415:0000001300000000
#07512:13
#07518:00130000
#07515:0000001300000000
#04012:13130000
#0401b:13130000
#04018:00002323
#04015:0000000000230000
#01714:23232300
#01719:0023002300000000
#0171b:00000023
#03314:23232300
#03319:23232300
#0331b:00000023
#03312:00000023
#0095b:63
#00958:0023000000000000
#00952:00006333
#00955:0000000000230000
#03252:13
#0325b:13
#03955:0053
#03952:63
#05152:33
#0055b:13
#00558:0013
#03552:13
#0705b:13
#07255:0013
#0725b:13
#07358:13
#07355:0013
#0305b:13
#0105b:13
#01452:13
#01652:53
#01655:00130000
#04552:0063
#05055:6300000000000023
#05052:00000063
#0505b:63
#05252:0053
#05952:0053
#05958:0053
#06458:0053
#0645b:63
#0825b:13
#01858:0053
#01955:63
#01352:53
#01355:0023000000000000
#0135b:00006343
#01358:0000000000230000
#01152:13
#0125b:13
#0155b:13
#0205b:13
#02255:0063
#02358:53
#02452:13
#02952:53
#03458:13
#0365b:13
#0435b:13
#04252:13
#04452:13
#04152:0053
#04158:0053
#0415b:63
#04155:63
#0535b:0063
#0555b:63
#05558:0053
#0575b:13
#05652:13
#05852:13
#06055:53
#0605b:53
#06152:53000013
#06158:53000013
#0655b:0063
#06555:0063
#06658:63
#06652:63
#0675b:63
#06755:63
#0685b:13
#0765b:0013
#07652:13
#07752:13
#0775b:0013
#07858:13
#07955:13
#08352:13
#08654:58
#04655:0053
#0465b:0053
#04752:63
#04758:63
#0715b:13
#07452:13
#07552:13
#0175b:00000013
#0335b:00000013
#03352:00000013
#0023b0:13
#002380:00230000
#003320:13
#003350:00230000
#004380:13
#0043b0:00230000
#0063b0:13
#006380:00230000
#007320:13
#007350:00230000
#0083b0:13
#008380:00230000
#0093b0:13230000
#009380:0053000000000000
#009320:00001323
#009350:0000000000530000
#013320:13230000
#013350:0053000000000000
#0133b0:00001323
#013380:0000000000530000
#016320:13
#016350:00230000
#018380:0013
#0183b0:00000023
#019350:13
#019320:00230000
#022350:0013
#022320:00000023
#023380:13
#0233b0:00230000
#0273b0:13
#027380:00230000
#027380:0013
#0273b0:00000023
#0283b0:13
#028380:00230000
#028380:0013
#0283b0:00000023
#029320:13
#029350:0023
#030380:00130023
#0303b0:0033
#030321:00130023
#030351:0033
#039321:13
#039351:00230000
#039351:0013
#039321:00000023
#0413b1:13
#041381:00230000
#041350:13
#041320:00230000
#041320:0013
#041350:00000023
#041381:0013
#0413b1:00000023
#045321:0013
#046351:23
#046351:0013
#047321:33
#047351:0023
#0463b0:0013
#047380:33
#0473b0:0023
#0483b0:0013
#048380:00000023
#049320:0013
#049350:00000023
#050350:13
#050320:00230000
#0503b1:13
#050381:00230000
#050321:00000013
#050351:0000000000000053
#051321:23
#052321:0013
#052351:00000023
#0533b1:0013
#053381:00000023
#0553b1:13000023
#055381:00333300
#059321:0013
#060351:33
#060321:0023
#059380:0013
#0603b0:33
#060380:0023
#061320:13
#061350:0023
#061381:13
#0613b1:0023
#0643b1:13
#064381:00230000
#064381:0013
#0643b1:00000023
#0653b1:0013
#066381:33
#0663b1:0023
#065350:0013
#066320:33
#066350:0023
#0673b0:13
#067380:0023
#067351:13
#067321:0023
#070321:0013
#070351:00000023
#071351:0013
#071321:00000023
#0743b1:0013
#074381:00000023
#075381:0013
#0753b1:00000023
#0803b1:13
#080381:00230000
#080321:0013
#080351:00000023
#081381:13
#0813b1:00230000
#081351:0013
#081321:00000023
#086341:18
#089361:24
