This file was generated by Ched 2.7.0.0.
#TITLE ""
#ARTIST ""
#DESIGNER ""
#DIFFICULTY 0
#PLAYLEVEL
#SONGID ""
#WAVE ""
#WAVEOFFSET 0
#JACKET ""
#REQUEST "ticks_per_beat 480"
#00002: 4
#BPM01: 191
#00008: 01
#TIL00: ""
#HISPEED 00
#MEASUREHS 00
#0001b:13130000
#00012:13130000
#00014:0000000013131300
#00019:0000000013131300
#00112:0013001300001300
#00115:13131300
#0011b:13131313
#00118:0013001300000000
#00412:13
#00414:00120000
#00418:0012
#0041a:0000000000120012
#0041c:00000012
#00416:0000001200000000
#00512:1313
#0051b:00130013
#0081b:13131300
#00812:13001313
#00815:0013000000000000
#00818:0000000000130000
#00819:0000001300000013
#00814:0000001300000013
#0091b:13131323
#00912:13001323
#00919:0000001300000000
#00915:0013000000000000
#00914:0000001300000000
#00918:0000000000130000
#0161b:00000013
#01616:00000000000000141400140000000000
#01612:00000013
#01618:13
#01615:13
#01812:13
#01818:13000000000013000000000013000013
#0181b:0013
#01815:0000130013000013
#01810:41
#01912:1313
#0191b:1300001300001300
#01918:0000000000130000
#01915:00130013
#0201b:1300000013001313
#02018:0000131300000000
#02015:0000000013130000
#02012:13130013
#02218:0000001300001300
#0221b:0013
#02215:1300000000000013
#02212:00130000
#02312:13131313
#02317:0013000000130000
#02316:0000001300000000
#0231b:13131313
#0261b:1313000013130000
#02618:0000131300001300
#02615:0000000000000013
#02612:13131313
#02715:1313
#0271b:1313
#02718:0000000000001313
#02712:0000131300000000
#02818:0000131300000000
#0281b:1313
#02812:13001313
#02815:0000000000120000
#02819:0000000000000012
#02810:41
#03015:0000130013131300
#03017:13
#03012:13
#03018:0000131313001313
#03212:13130013
#0321b:1313
#0321c:00120012
#03218:0000001200120000
#03214:0012
#03415:1300000000130016
#03412:00121300
#03416:0000001200000000
#03418:1316000013000000
#0341b:0000131300001300
#03512:13000012
#03516:00120000
#03518:1300001200001216
#03515:0013
#0351c:0000000000120000
#03514:0000000000000012
#0351a:0012
#0361b:1313
#0361c:00120000
#03618:0000001200130000
#03612:1300000013000013
#03615:00000013
#03614:0000001300000000
#04812:1300131313001313
#04818:0000001300000000
#04819:0000000000000013
#0481b:00131300
#0481f:21
#06212:12121200
#06216:0000001200000012
#0621b:0012000000120000
#06218:23232323
#06416:1200001200000012
#06412:0012
#0641a:0012000000120000
#0641b:23232323
#06614:0000000000130013
#0661a:0013001300000000
#06612:13000013
#0661b:00131300
#06617:00130000
#06616:00000013
#06610:41
#00216:00120012
#00214:0000001200120012
#00212:1312
#0021c:0000001200000000
#00712:1312
#00716:00120012
#00714:0000001200120012
#0071c:0000001200000000
#00618:00120012
#0061a:0000001200120012
#0061c:0012
#0061b:13
#00612:0000001200000000
#01012:0000120000120000
#01014:0000001200000012
#01018:0000131300000013
#01016:00001212
#0101b:1300000000130000
#0131b:13
#01315:0000001313002300
#01312:0000130000130000
#01318:0013001300002300
#01218:1300001300001313
#0121b:0013000000000000
#01212:0013
#01215:0000131300130013
#0141c:0000120000120000
#0141a:0000001200000012
#01418:00001212
#01415:0000131300130000
#01412:13
#01712:1323000000002300
#01715:0000132313000000
#0171b:2313000000002300
#01718:0000231323000000
#02112:1313000000001300
#02118:13000000130013000000000000000013
#02115:0000130013130013
#0211b:00001313
#02412:1300000013001313
#02415:0000131300000000
#02418:0000000013130000
#0241b:13130013
#02518:0000130013130013
#02515:13000000130013000000001300000013
#0251b:1313000000002300
#02512:00001323
#0291b:1313
#02918:0013000000130000
#02914:0012000000120013
#02919:0000001200000013
#02912:00130000
#02915:0000001300000000
#02916:00000013
#03115:00130000
#0311b:0013
#03112:00000013
#03118:13
#03718:1312
#0371c:00120012
#0371a:0000001200120000
#03712:0012
#03714:0000001200120000
#03716:00120012
#03710:41
#04415:1300001300130013
#04412:00121313
#0441b:13001313
#04418:0000001300130013
#0421b:00131300
#04212:0000001600161200
#04218:0000000000130000
#04216:1312
#0421a:0000001200000000
#04515:13
#04512:0000130000001313
#04518:1300001300000000
#04516:0013
#0451b:0013
#0461b:00131300
#04612:13000013
#0461a:0013001300000000
#04613:0000000000130013
#04617:00130000
#04616:00000013
#0471b:00131300
#04719:0013001300000000
#04714:0000000000130000
#04712:13000023
#04717:00130000
#04716:00000013
#05415:1300000013130000
#0541b:1300131300001313
#05412:0000131300002323
#05418:0000000023230000
#06012:00141414
#06015:0000001300000013
#0601a:00141414
#06018:0000000000130000
#0601b:13
#06116:0012000000000000
#06112:1400141214002400
#06118:0000001200130000
#0611a:14141424
#0611c:0012000000000000
#06115:0000000000130000
#06718:0013001300000000
#0671b:00130023
#06715:0000000000130000
#06712:00001323
#07012:13
#07016:00120000
#07018:0000001200120013
#0701c:00001212
#07015:0000000000000013
#06912:1313000000001300
#06918:13000000130000000000001300000000
#0691b:00001313
#06915:0000131613000000
#07215:1300001600000016
#07212:00130000
#07218:0013
#0721b:00000013
#07312:13
#07315:0000131600000016
#07318:0013
#0731b:00000013
#0741b:13
#07418:0000130000000013
#07412:0000001612160016
#07416:00000012
#07618:13
#0761b:0000131300000000
#07615:0000001613000016
#07612:0000000000001313
#07610:41
#0771b:13
#07712:0000001600001300
#07718:0000131300000016
#07715:00000000000000001300000000000013
#07812:1300001200000000
#07812:13
#07816:00120000
#07818:0000001200120013
#0781c:00001212
#07815:0000000000000013
#08015:1300000000000016
#08018:0000001313000000
#08012:0000131600000013
#0801b:00000013
#0821b:13
#08219:00120000
#08215:0016001216001613
#08212:13001212
#08216:0000000000120000
#08218:0000000000000013
#0841b:1300131300130000
#08418:0013000023001300
#08412:23001313
#08415:00000000130000130000000000001300
#0851b:1323000000000000
#08512:2313000000000000
#08514:0000241424001300
#08518:0000142414000000
#08519:00000013
#04315:0000000000130013
#04312:13131300
#04318:0000001612160013
#04317:13
#0431c:00000012
#04314:0000001200000000
#0411b:13131300
#04112:13000013
#04117:00130000
#04116:00000013
#00318:00120012
#0031a:0000001200120012
#0031c:0012
#0031b:13
#00312:0000001200000000
#0111c:0000120000120000
#0111a:0000001200000012
#01115:0000131300000013
#01118:00001212
#01112:1300000000130000
#01512:0000120000120000
#01514:0000001200000012
#01516:00001212
#01518:0000131300130000
#0151b:13
#03818:1300001200130000
#0381c:00120000
#03815:1300000013000016
#03812:0016131300001300
#0381b:0013
#0381f:11
#0391b:13
#03918:00121300
#03916:0000001200001200
#03915:13
#03912:0000000000120016
#0391a:0000000000000012
#03914:0012
#0391c:00000012
#0491b:1300131313001313
#04915:0000001300000000
#04914:0000000000000013
#04912:13131300
#04910:41
#0521b:1300131313001313
#05215:0016001600000000
#05214:0000000000000013
#05212:16131300
#05312:1300131313001313
#05315:0016001600000000
#05319:0000000000000013
#0531b:00131300
#05318:16
#05615:0016131600000013
#05618:1600130000000013
#05612:1300001313001300
#0561b:0013
#05718:0000130000000013
#05715:0016131600000013
#0571b:1300001313001300
#05712:1613
#05012:13121300
#05016:0000001200000000
#0501b:1300000013000013
#05015:0000000000130000
#05018:00000013
#05019:0000001300000000
#05115:13
#05112:00120012
#05114:0000001200120000
#0511c:0012
#0511a:0000001200120000
#05118:00120012
#05116:0012
#04018:1300000013130000
#04012:1300131300001313
#0401b:0000131300002323
#04015:0000000023230000
#05818:1300001300130013
#0581c:00120000
#05812:13001313
#05815:0000001300130013
#0581b:00001313
#05918:13
#05915:1300001300000000
#0591b:0000130000001313
#05917:0013
#05912:0013
#0631c:12121200
#06318:0000001200000012
#06313:0012000000120000
#06315:23232323
#06514:0012000000120000
#06518:1200001200000000
#06512:23232323
#0681b:1300000013001313
#06818:00130000
#06815:0000001613160000
#06812:13130013
#0711b:13
#07118:0000120000000013
#07116:0000001200120000
#07112:00001212
#07115:0000000000000013
#07512:13
#07515:0000130000000013
#07518:0000001600161216
#0751c:0012
#0791b:13
#0791b:13
#07918:0000120000000013
#07916:0000001200120000
#07912:00001212
#07915:0000000000000013
#0791c:0000001200000000
#08118:1300001600000000
#08115:0000001313000016
#0811b:0000130000000013
#08112:00000013
#08312:13
#08315:0016120016001600
#08319:0000001200000000
#0831c:00001212
#08318:0000000000120000
#0831b:13
#08612:16
#08618:16
#0551a:14141400
#05514:0014001400140000
#05512:14141400
#05518:0014001400140000
#03314:23232300
#03319:23232300
#03312:00000026
#03318:00000026
#00852:5333
#00855:0023000000000000
#0085b:4363
#00858:0000000000230000
#00952:53003333
#00955:0023000000000000
#0095b:43006343
#00958:0000000000230000
#0135b:63
#01355:00005313
#01358:0023000000001300
#01352:0000000000230000
#01258:63
#0125b:0023000000000000
#01252:0053
#01255:0000000000230000
#01752:00000013
#0175b:00000013
#01858:23
#01855:0023
#0195b:23
#02052:13130013
#0205b:1313
#02452:1313
#0245b:13130013
#0275b:23
#02755:0023
#02852:23000023
#0285b:0023
#02958:0023000000230000
#0295b:6363
#02952:00530000
#02955:0000002300000000
#03057:13
#03052:13
#03252:13000013
#0325b:13
#03455:1300000000230000
#03452:0063
#03458:0013
#03558:63
#03552:13
#03555:0013
#03652:6300000013000023
#03655:00000063
#0365b:1363
#03658:0000000000230000
#03758:13
#03755:13
#03752:0012
#0375c:00120012
#0425b:4353
#04258:0000000000230000
#04256:53
#0445b:5313
#04455:13
#04452:00000013
#04852:1313
#0485b:0053
#06152:00000014
#0615a:00000014
#06252:0022
#06452:0022
#06456:52
#00252:13
#00452:13
#00552:1313
#0055b:00130013
#0065b:13
#00752:13
#07052:13
#07255:13
#07258:0013
#07352:13
#07358:0013
#0745b:13
#07658:13
#07655:0013
#0775b:13
#07755:0013
#07852:13
#08055:13
#08058:0013
#08452:13
#08458:0013
#02158:13
#02155:00130000
#0215b:0013
#02555:13
#02558:00130000
#02552:0013
#0015b:0013
#00155:0013
#0035b:13
#01658:53
#01655:53
#0165b:00130000
#01652:00130000
#03158:13
#03155:00130000
#0315b:0013
#03152:00000013
#03352:00000046
#03358:00000036
#03858:1300000000230000
#03855:0013
#0385b:0053
#0395b:13
#03958:0013
#03955:53
#0415b:0053
#04157:00230000
#04156:00000023
#04152:53
#04352:3363
#04355:0000000000230000
#04357:63
#04558:13
#0455b:0053
#04652:53
#04657:00230000
#0465b:0063
#04656:00000023
#04752:53
#04757:00230000
#0475b:0063
#04756:00000023
#0495b:1313
#04952:0063
#0525b:1313
#05252:0063
#05352:1313
#0535b:0053
#05652:1313
#0565b:0053
#0575b:1313
#05752:0063
#05052:1353
#0505b:5300000013000023
#05055:0000000000230000
#05058:00000053
#05155:13
#05152:00120012
#0515c:0012
#05158:13
#05858:13
#05852:6313
#0585b:00000013
#05955:13
#05952:0063
#0635c:0022
#06558:62
#06652:53
#0665b:0053
#06657:00230000
#06656:00000023
#0685b:1313
#06852:13130013
#06958:13
#06955:00130000
#0695b:0013
#0715b:13
#07552:13
#0795b:13
#08158:13
#08155:0013
#08252:13
#0835b:13
#08652:56
#08658:66
#0105b:13
#01152:13
#01452:13
#0155b:13
#0555a:54545400
#05554:0024002400240000
#05552:64646400
#05558:0024002400240000
#0023b0:13
#002380:00230000
#002380:00001323
#0023b0:0000000000530000
#003320:13
#003350:00230000
#003350:00001323
#003320:0000000000530000
#004380:13
#0043b0:00230000
#004320:00001323
#004350:0000000000530000
#005380:13
#0053b0:0023000000000000
#005350:00130000
#005320:0000002300000000
#0053b0:0013
#005380:0000000000230000
#005320:00000013
#005350:0000000000000023
#006320:13
#006350:00230000
#006350:00001323
#006320:0000000000530000
#0073b0:13
#007380:00230000
#007380:00001323
#0073b0:0000000000530000
#008320:13230000
#008350:0053000000000000
#0083b0:00001323
#008380:0000000000530000
#009320:13230000
#009350:0053000000000000
#0093b0:00001323
#009380:0000000000530000
#010320:13
#010350:0023000000000000
#0113b0:13
#011380:0023000000000000
#012380:13230000
#0123b0:0053000000000000
#012351:13
#012321:0023000000000000
#012320:00001323
#012350:0000000000530000
#0123b1:0013
#012381:0000000000230000
#0133b0:13230000
#013380:0053000000000000
#013351:13
#013321:0023000000000000
#013350:00001323
#013320:0000000000530000
#013381:0013
#0133b1:0000000000230000
#0143b0:13
#014380:0023000000000000
#014320:00000013
#014350:0000000000000023
#015320:13
#015350:0023000000000000
#0153b0:00000013
#015380:0000000000000023
#016350:13
#016320:00230000
#016381:13
#0163b1:00230000
#018381:13
#0183b1:00230000
#018351:0013
#018321:00000023
#0193b1:13
#019381:00230000
#022381:13
#0223b1:00230000
#022351:0013
#022321:00000023
#0273b1:13
#027371:00230000
#027351:0013
#027321:00000023
#028321:13
#028351:00230000
#0283b1:0013
#028381:00000023
#028320:00000013
#029350:23
#0293b1:13230000
#029381:0053000000000000
#029320:00132300
#029350:0000005300000000
#0293b1:00001323
#029381:0000000000530000
#031351:13
#031321:0023000000000000
#031381:00130000
#0313b1:0000002300000000
#031321:0013
#031351:0000000000230000
#0313b1:00000013
#031381:0000000000000023
#034321:00001323
#034351:0000000000530000
#035381:13
#0353b1:00230000
#036321:13
#036361:00230000
#0363b1:00001323
#036381:0000000000530000
#036350:00000013
#036320:0000000000000053
#037350:23
#0383b0:00001323
#038380:0000000000530000
#039350:13
#039320:00230000
#041320:1323
#041370:00530000
#0413b1:0013
#041361:00000053
#0423b1:23
#042360:13
#042320:00230000
#0423b0:00001323
#042380:0000000000530000
#043370:13
#0433b0:00230000
#043320:00001323
#043350:0000000000530000
#0443b0:13
#044380:00230000
#0453b0:0013
#046370:23
#046321:1323
#046371:00530000
#0463b0:0013
#046360:00000053
#0473b0:23
#047321:1323
#047371:00530000
#0473b0:0013
#047360:00000053
#0483b0:23
#0483b0:0013
#048370:00000023
#049320:0013
#049360:00000023
#0503b0:13
#050370:00230000
#050320:00001323
#050350:0000000000530000
#050381:00000013
#0503b1:0000000000000053
#051381:23
#052321:0013
#052361:00000023
#0533b1:0013
#053371:00000023
#0553a1:14343424
#055341:0054005400540000
#055320:14343424
#055380:0054005400540000
#0563b0:0013
#056370:00000023
#057320:0013
#057360:00000023
#058320:13
#058350:00230000
#059320:0013
#060360:23
#062320:0012
#062360:00000022
#0633c0:0012
#063380:00000022
#064360:12
#064320:00220000
#064320:0012
#064360:00000022
#065380:12
#0653c0:00220000
#0653b0:0013
#066380:23
#066321:1323
#066371:00530000
#0663b0:0013
#066360:00000053
#0673b0:23
#067321:13
#067351:0023000000000000
#067321:00130000
#067351:0000002300000000
#0673b1:0013
#067381:0000000000230000
#070381:13
#0703b1:00230000
#070351:0013
#070321:00000023
#071351:13
#071321:00230000
#071381:0013
#0713b1:00000023
#072381:13
#0723b1:00230000
#072351:0013
#072321:00000023
#073381:13
#0733b1:00230000
#073321:0013
#073351:00000023
#074351:13
#074321:00230000
#074381:0013
#0743b1:00000023
#075381:13
#0753b1:00230000
#075351:0013
#075321:00000023
#076351:13
#076321:00230000
#076381:0013
#0763b1:00000023
#077351:13
#077321:00230000
#0773b1:0013
#077381:00000023
#078381:13
#0783b1:00230000
#078351:0013
#078321:00000023
#079351:13
#079321:00230000
#079381:0013
#0793b1:00000023
#0803b1:13
#080381:00230000
#080321:0013
#080351:00000023
#081321:13
#081351:00230000
#0813b1:0013
#081381:00000023
#086321:16
#089321:22
#086380:16
#0893c0:22
