This file was generated by Ched 2.7.0.0.
#TITLE ""
#ARTIST ""
#DESIGNER ""
#DIFFICULTY 0
#PLAYLEVEL
#SONGID ""
#WAVE ""
#WAVEOFFSET 0
#JACKET ""
#REQUEST "ticks_per_beat 480"
#00002: 4
#BPM01: 191
#00008: 01
#TIL00: ""
#HISPEED 00
#MEASUREHS 00
#00618:0014
#00612:14
#05918:14
#05912:0014
#0591a:0014
#02218:1414
#01914:1414
#03512:1414
#0341a:2414
#05714:14
#05713:00140000
#05712:0014
#00214:0014
#0021a:24
#0101a:14
#01012:0014
#01118:14
#01114:0014
#0141a:0014
#01412:14
#01514:14
#01518:0014
#02312:1414
#0261a:14
#02612:0014
#02718:14
#02714:0014
#0301a:0014
#03012:14
#00418:0014
#00412:14
#00514:14
#0051a:0014
#0081a:14
#00814:0014
#00918:14
#00912:0014
#01612:14
#0161a:0014
#03118:0014
#03114:14
#0361a:14
#03614:0014
#03718:14
#03710:41
#03812:1414
#0381f:11
#0391a:1414
#04012:14
#04018:0014
#04114:14
#04418:1414
#04414:00140014
#04518:14
#04814:00140000
#0481a:2414
#0481f:21
#04914:1414
#0491a:00140000
#04910:41
#0501a:14
#05018:0014
#05212:1414
#05218:00140000
#05318:1414
#05312:00140000
#05412:14
#05414:0014
#05618:14
#05619:00140000
#0561a:0014
#05818:1414
#05814:00140014
#06318:16161600
#06212:16161600
#06412:1616
#06418:00160016
#06512:16
#06518:0026
#07012:0014
#0701a:24
#0711a:1414
#07412:14
#0741a:0014
#07512:1414
#0801a:14
#08018:0014
#08014:00140000
#08118:00140000
#08114:0014
#08112:14
#0781a:1414
#07814:00140000
#07918:00140000
#07912:1414
#0761a:14
#07610:41
#07712:14
#08218:16
#08216:00160000
#08312:16
#08314:00160000
#03212:14
#00019:1414
#0121a:14
#01212:0014
#0181a:2414
#01810:41
#0281a:14
#02812:0014
#02810:41
#02918:14
#03313:14141400
#03319:14141400
#06014:0014
#06018:0014
#06013:34
#06019:34
#08412:0016
#08418:16
#07212:14
#0731a:14
#08512:00000016
#06812:16
#06612:26
#06618:0026
#06610:41
#06712:26
#06718:0026
#06119:34
#06113:34
#0505a:64
#05058:0054
#05452:54
#05454:0054
#0765a:64
#07752:54
#08352:56
#08354:00260000
#08258:66
#08256:00260000
#03758:14
#04154:14
#05952:0054
#0595a:0054
#06058:0024
#06054:0024
#0515a:14
#05552:14
#07252:54
#0735a:64
#06852:66
#001330:1434343424000000
#0033a0:1424
#007320:1424
#013380:1424
#017340:1434343424000000
#0203a0:14
#020380:0024
#021340:14
#021320:0024
#024380:14
#0243a0:0024
#025320:14
#025340:0024
#0423a0:1424
#042380:00340000
#043320:1424
#043340:00340000
#045320:0014
#046330:34
#046340:0034
#047330:34
#047320:0024
#0453a1:0014
#046391:34
#046381:0034
#047391:34
#0473a1:0024
#0503a1:14
#050381:0034
#0513a1:24
#054321:14
#054341:0034
#055321:24
#059321:0014
#060331:34
#060341:0034
#061331:34
#061321:0024
#0593a0:0014
#060390:34
#060380:0034
#061390:34
#0613a0:0024
#068320:16
#069350:36362600
#072320:14
#072340:0024
#0733a0:14
#073380:0024
#0763a0:14
#076380:0024
#077320:14
#077340:0024
#082380:1626
#082360:00360000
#083320:1626
#083340:00360000
#085380:1636363626000000
#086320:16
#090320:24
