This file was generated by Ched 2.6.4.0.
#TITLE ""
#ARTIST ""
#DESIGNER ""
#DIFFICULTY 0
#PLAYLEVEL
#SONGID ""
#WAVE ""
#WAVEOFFSET 0
#JACKET ""
#REQUEST "ticks_per_beat 480"
#00002: 4
#BPM01: 170
#00008: 01
#TIL00: ""
#HISPEED 00
#MEASUREHS 00
#05018:2616
#0501f:21
#05218:1616
#05112:1616
#05110:41
#05412:1616
#05612:1616
#05518:1616
#05812:0016
#05818:26
#06018:16
#06012:0016
#05918:16
#05912:0016
#06218:0016
#06212:16
#06412:16
#06418:0016
#06312:16
#06318:0016
#06618:16
#06612:0016
#06718:16
#06712:0016
#06710:41
#07014:14
#07118:14
#07214:14
#07318:14
#07412:14
#0751a:14
#04518:14
#04614:14
#0471a:14
#0371a:14
#03812:14
#03918:14
#03910:41
#04014:14
#0171a:14
#01814:14
#01810:41
#0191a:14
#02014:14
#02118:14
#02212:14
#02318:14
#02412:14
#0251a:14
#02614:14
#02718:14
#02812:14
#02810:41
#02918:14
#03012:14
#0311a:14
#03214:14
#0091a:14
#00910:41
#0101a:14
#01112:14
#01212:14
#01318:14
#01418:14
#01514:14
#01614:14
#0411f:11
#001390:14
#002390:24
#003330:14
#004330:24
#005390:14
#006390:24
#007330:14
#008330:24
#0333a0:14
#0343a0:24
#035320:14
#036320:24
#041380:14
#042380:24
#043340:14
#044340:24
#048320:14
#049320:24
#053380:1626
#057320:1626
#061380:1626
#065320:1626
#068380:16
#069380:26
#076320:14
#077320:3400002400000000
