This file was generated by Ched 2.6.4.0.
#TITLE ""
#ARTIST ""
#DESIGNER ""
#DIFFICULTY 0
#PLAYLEVEL
#SONGID ""
#WAVE ""
#WAVEOFFSET 0
#JACKET ""
#REQUEST "ticks_per_beat 480"
#00002: 4
#BPM01: 170
#00008: 01
#TIL00: ""
#HISPEED 00
#MEASUREHS 00
#0001b:0013
#00018:0000000000130000
#00015:00000013
#00012:0000000000000013
#00212:0013
#00215:0000000000130000
#00218:00000013
#0021b:0000000000000013
#00312:13
#00315:0000130000000013
#0031b:0000001300000000
#00318:0000000000130000
#00412:00000013
#00612:13
#0061b:00130000
#00616:00000013
#0071b:1313000000000000
#00716:1313000000000000
#0091b:2300000000000013
#00912:00131300
#00918:00131313
#00915:0013000000130013
#00910:41
#01012:0013001300000013
#01018:0013130000000013
#0101b:0000000000131300
#01015:0013
#01818:0000131300000013
#01815:1300000000130000
#0181b:00000013
#01812:0000000000000013
#01810:41
#01912:00001313
#01915:0000000000130000
#01918:0013001300000013
#0191b:00130000
#02015:0000131300000013
#02018:1300000000130000
#02012:00000013
#0201b:0000000000000013
#02118:0013000000001300
#02112:00130000
#0211b:0000001300000000
#02212:0013000000000000
#02218:00130000
#02215:0000001300001300
#02312:0000001300000000
#0231b:0000000000000023
#0241b:0013000013000000
#02418:0000130000130000
#02415:0000001300001300
#02412:0000000013000013
#0261b:0013000000001313
#02612:0013000000001313
#02615:00130000
#02618:13
#02614:0000002800000000
#04918:0000000000131313
#04915:00000000000000000000001300130013
#0501b:00130000
#05018:2300001300000000
#05015:0000000000130000
#05017:0000000000000013
#05012:0000000000001313
#0501f:21
#0511b:0013000000000013
#05119:13130000
#05117:0000001300130000
#05116:0013000000000000
#05112:00000013
#05110:41
#05212:00130000
#0521b:0000000000131300
#05216:1300000000000013
#05312:1300000013000013
#05315:0000131300000000
#0531b:1300001300000013
#05318:0013000000130000
#05718:1300001300000013
#0571b:0013000000000000
#05715:0000000000130000
#05712:13
#05912:0013000000000013
#05914:13130000
#05916:0000001300130000
#05917:0013000000000000
#0591b:00000013
#05816:0000000000000013
#0581b:0000000000001313
#05812:00130000
#05815:2300001300000000
#05818:0000000000130000
#0601b:00130000
#06012:0000000000131300
#06017:1300000000000013
#0611b:1300000013000013
#06118:0000131300000000
#06112:1300001300000013
#06115:0013000000130000
#0681a:00000014
#06815:13000000000000000000000000130000
#06818:1300000000000014
#06813:00000000000000000000000000000013
#0251b:0013000000000013
#02518:00130013
#02515:00001313
#02512:0000000000130013
#01112:0000000000000013
#0111b:00131300
#01115:00131313
#01118:0013000000130013
#0131b:0000130013000013
#01312:0000130013000013
#01315:0013000000130000
#01318:00000013
#01412:0013000000000013
#01415:00131300
#01418:0000001300000013
#0141b:0013000000232300
#0121b:0013001300000013
#01215:0013130000000013
#01218:0013
#01212:0000000000232300
#01512:0000130013000013
#0151b:0000130013000013
#01518:0013000000130000
#01515:00000013
#01618:0013131323000023
#01615:00000013001300130000002300000000
#01612:0000000023000023
#0161b:00000000000000000000002300000000
#03518:0000131300001300
#03515:1300000000130000
#03512:0000001300000013
#0351b:2300000000000013
#03712:1300000000130000
#0371b:0013000000000000
#03715:00130013
#03718:0000001300000013
#03818:0000000000130013
#03815:00130013
#0381b:13
#03812:0013000000000000
#04515:13000000000013000000000000000013
#04518:0000000000000013
#0451b:0013000000000000
#04715:0013000000130013
#04718:00000013000000001300000013000000
#04712:00130013
#0471b:0000001300000013
#05518:0000000000130000
#05515:00000013
#05512:0000000000000013
#05615:0013000000130013
#05618:00000000000000000000001300000000
#05612:00000013
#0561b:1300000000000013
#06215:13000000000013000000001300000000
#06212:0013000000000013
#06218:2300130000131300
#0621b:0000000000000013
#06315:0013000000130000
#06318:0013150000001300
#0631b:0000000000000013
#06313:00150000
#06418:0013000000130013
#06415:00000000000000000000001300000000
#0641b:00000013
#06412:1300000000000013
#06515:1300001300000000
#06512:0013000000000000
#06518:0000000000130013
#0651b:13
#06615:1300001300000000
#06618:00130000
#0661b:0000001300130000
#06612:00000013
#06617:0000000000000013
#06712:1313
#06716:00130000
#06717:0013
#0671b:00000013
#06710:41
#04615:00130000
#04618:0013000000130000
#0461b:13
#04612:0000001300000000
#04418:0000000000160016
#04412:0000001300001600
#04414:13
#04416:0014000000000000
#04419:00130000
#0441b:0000001300000000
#04812:0013000000000000
#0481b:0013000000000000
#04818:00130000
#04815:00130000
#07018:00130000
#0701b:23
#07112:0013000013000013
#07118:0000130000131300
#0711b:0000000000000013
#07115:0000001300000000
#07415:0013130000000000
#0741b:00130000
#07515:00130000
#07512:0000001300000013
#0751b:0000000000002313
#07518:0000000000230000
#03212:00001313
#03215:0013000000130000
#03218:0000130013000013
#0321b:0000001300001300
#03318:0000131300001300
#03315:1300000000000013
#0331b:2300000000130000
#03312:0000001300000000
#03412:2300000000130000
#03418:0000001300001300
#03415:0000131300000013
#0341b:13
#04318:1300000000130000
#04315:0000131300001300
#0431b:0000001300000013
#04312:2300000000000013
#04115:0000131300001300
#04118:1300000000000013
#04112:2300000000130000
#0411b:0000001300000000
#0411f:11
#0421b:2300000000130000
#04215:0000001300001300
#04218:0000131300000013
#04212:13
#0401b:00001313
#04018:0013000000130000
#04015:0000130013000013
#04012:0000001300001300
#03619:13
#03616:0014000000000000
#03614:00130000
#03612:0000001300001300
#0361b:0000001300000000
#03618:0000000000000013
#03615:0000000000130000
#02712:0013000000000013
#02715:00130013
#02718:00001313
#0271b:0000000000130013
#0281b:0013001300000000
#02818:0000130000130000
#02815:13000000000000001315000013150000
#02812:0013002300000000
#02816:00000000000000000000001500000000
#02810:41
#02915:0013000000001300
#0291b:00130000
#02912:0000001300000000
#0301b:0013000000000000
#03015:00130000
#03018:0000001300001300
#0311b:0000001300000000
#03112:0000000000000023
#03912:0000001300000023
#03918:00130000
#03910:41
#0541b:0013000000000000
#05418:1300001300000000
#05415:23
#0541a:00000000000000000000003300000000
#07215:00130000
#0731b:0013000013000013
#07315:0000130000232300
#07312:0000000000000013
#07318:0000001300000000
#0771a:00140000
#07712:0000001400000000
#00512:13
#01715:0013001300000013
#01712:00130000
#0171b:00001313
#01718:0000000000130000
#07618:0013130000000000
#07612:00130000
#06916:2424
#06912:00000024000000000000000000002400
#0691a:00000000000024000000002400000000
#00352:13
#0035b:0000001300000000
#05058:13
#05052:0000000000000053
#05156:0023000000000000
#05352:1323
#05355:0000006300000000
#0535b:63
#05358:0023000000130000
#05957:0023000000000000
#0585b:0000000000000063
#05855:13
#06158:0000005300000000
#0615b:1323
#06152:53
#06155:0023000000130000
#0565b:63
#05658:0000001300000000
#05652:0000001300000000
#05655:0063000000000000
#05758:5300005300000000
#05752:1300001300000000
#0575b:0023000000130000
#05755:0000000000130000
#06255:6300001300000000
#06252:0023000000000000
#06258:13
#06555:6300006300000000
#06552:0023000000130000
#06558:0000000000130000
#0655b:1300001300000000
#06655:63
#06657:0000000000000053
#06752:5353
#06757:0053
#06756:00630000
#0675b:00000063
#04858:00530000
#04855:00630000
#0455b:0063000000000000
#04555:0000006300000000
#04552:0000000000130000
#04558:0000000000130000
#05256:13
#05257:0000001300000000
#06057:13
#06056:0000001300000000
#03358:0000001300000000
#0335b:13
#03355:63
#03352:0000005300000000
#03455:0000001300000000
#03452:13
#0345b:63
#03458:0000005300000000
#03552:0000001300000000
#0355b:13
#03555:63
#03558:0000005300000000
#04155:0000001300000000
#04152:13
#04158:53
#0415b:0000006300000000
#04258:0000001300000000
#0425b:13
#04252:53
#04255:0000006300000000
#0435b:0000001300000000
#04352:13
#04355:0000006300000000
#04358:53
#06452:53
#06458:0053000000000000
#06455:0000001300000000
#0645b:0000001300000000
#06858:53
#06855:63
#02855:63000000000000005325000053250000
#02852:0023005300000000
#0285b:0000006300000000
#02856:00000000000000000000002500000000
#02858:0000000000630000
#02658:53
#0265b:0023000000000000
#0545b:0023000000000000
#05458:5300001300000000
#05455:13
#06358:0053250000000000
#06353:00250000
#06355:0063000000000000
#07752:0000001400000000
#04658:0023000000530000
#0465b:6300000000000013
#04652:0000005300000000
#04655:0000000000000013
#01858:0000005300000000
#01855:63
#02058:53
#02055:0000006300000000
#02555:00000063
#02552:0000000000000023
#02758:00000053
#0275b:0000000000000023
#06956:1414
#06952:00000014000000000000000000001400
#0695a:00000000000014000000001400000000
#03058:00000053
#02255:00000063
#0075b:0063000000000000
#00856:14
#03655:0000000000630000
#03652:00000023
#03758:0000005300000000
#03852:0053003300000000
#03855:00230000
#0013b0:13
#001370:0023
#001321:0013
#002361:23
#0023b0:13
#002370:0023
#0033b0:13230000
#003350:0000001300230000
#004380:13
#0043b0:00230000
#004321:00130000
#004351:0023
#0043b0:0013
#004380:00000023
#005370:13
#0053b0:0000002300000000
#005361:0000001300000000
#005321:00000023
#005370:00000013
#006370:23
#006360:00130000
#006320:0023
#0063b1:00001323
#0073b1:0013000000000000
#008361:24
#0173b1:0013002300000000
#017381:00330000
#017351:00001323
#017321:0000000000330000
#018351:13
#018321:00230000
#018381:0000001300000000
#0183b1:0000000000230000
#019321:0013002300000000
#019351:00330000
#019381:00001323
#0193b1:0000000000330000
#020381:13
#0203b1:00230000
#020351:0000001300000000
#020321:0000000000230000
#021351:0013
#021321:00000023
#0223b1:00001323
#022350:00000013
#023320:23
#0233b1:13
#023371:0000002300000000
#023321:0013
#023361:0000000000000023
#025321:0013002300000000
#0253b0:0000001300230000
#025350:00000013
#025320:0000000000000053
#026350:23
#026381:13230000
#0263b1:0053000000000000
#026341:0000001800280000
#0273b1:0013002300000000
#027320:0000001300230000
#027380:00000013
#0273b0:0000000000000053
#028380:23
#028351:13230000
#028321:0053000000000000
#0283b1:0000001300000000
#028381:0000000053333323
#028361:00000000000000000000005500000000
#028320:0000001300000000
#028350:00000000000000005355330033552300
#029380:0013
#0293b0:00000023
#030320:00001323
#030381:00000013
#0313b1:23
#031320:13
#031360:0000002300000000
#0313b0:0013
#031370:0000000000000023
#033350:13
#033320:00230000
#033320:0000001300000000
#033350:0000000000230000
#0343b0:13
#034380:00230000
#034380:0000001300000000
#0343b0:0000000000230000
#035350:13
#035320:00230000
#035380:0000001300000000
#0353b0:0000000000230000
#036350:0000000000130023
#036320:00000053
#037380:0000001300000000
#0373b0:0000000000230000
#038320:0013002300000000
#038350:00530000
#039320:13
#039350:00230000
#0393b0:0000001300000000
#039370:0000000000000023
#041380:13
#0413b0:00230000
#0413b0:0000001300000000
#041380:0000000000230000
#042320:13
#042350:00230000
#042350:0000001300000000
#042320:0000000000230000
#043380:13
#0433b0:00230000
#043350:0000001300000000
#043320:0000000000230000
#0453b0:0013000000000000
#045380:0000000000230000
#045351:0000001300000000
#045321:0000000000230000
#0463b1:13230000
#046381:0053000000000000
#046321:0000001300000000
#046351:0000000000000023
#046380:0000000000130000
#0463b0:0000000000000023
#048380:00130000
#0483b0:0000005300002300
#048351:00130000
#048321:0000005300002300
#049321:1222
#0493c0:1222
#050350:00132300
#050320:0000003300000000
#050381:00001323
#0503b1:0000000000330000
#050321:0000000000000013
#051361:0053000000000000
#051321:0000002300000000
#0523b1:13
#052371:0000002300000000
#052320:0000001300000000
#052360:00000023
#0533b0:13230000
#053380:0053000000000000
#053350:0000001300230000
#053320:0053
#054380:13230000
#0543b0:0053000000000000
#054351:0000130000330033
#055321:5333002300000000
#054380:0000000000130000
#0543a0:00000000000000000000003300000000
#0543b0:0000000000003353
#055380:3353332300000000
#0563b0:13
#056380:0053002300000000
#056351:0013000000000000
#056321:0000532300000000
#057381:13230000
#0573b1:0053000000000000
#057320:0000132300000000
#057381:0000001300000000
#0573b1:0000000000230000
#058381:00132300
#0583b1:0000003300000000
#058350:00001323
#058320:0000000000330000
#0583b0:0000000000000013
#059370:0053000000000000
#0593b0:0000002300000000
#060320:13
#060360:0000002300000000
#0603b1:0000001300000000
#060371:00000023
#061321:13230000
#061351:0053000000000000
#061381:0000001300230000
#0613b1:0053
#062351:13230000
#062321:0053000000000000
#0633b1:13
#063381:0033352300000000
#063320:13
#063350:0033002300000000
#063330:00350000
#064320:13
#064350:0053002300000000
#064381:0013000000000000
#0643b1:0000532300000000
#065351:13230000
#065321:0053000000000000
#0653b0:0000132300000000
#065351:0000001300000000
#065321:0000000000230000
#066351:13
#066321:00230000
#066371:0000000000000013
#0673b1:00230000
#067320:1333
#067360:00330023
#067371:0013
#0673b1:00000033
#068381:33
#0683b1:0053000023000000
#068350:13
#068320:0053000023000000
#070350:0013230000000000
#070320:0000000013230000
#070381:0000000000132300
#070350:0000000000001323
#0703b1:0000000000000013
#071381:0023000000000000
#072381:0013230000000000
#0723b1:0000000013230000
#072350:0000000000132300
#072381:0000000000001323
#072320:0000000000000013
#073350:0023000000000000
#074380:0000000013230000
#074321:0000000000132300
#0743b0:0000000000001323
#074351:0000000000000013
#075321:0023000000000000
#075380:0013002300000000
#075350:00001323
#076350:0000000013230000
#0763b1:0000000000132300
#076320:0000000000001323
#076381:0000000000000013
#0773b1:0023000000000000
#077360:0014240000000000
