This file was generated by Ched 2.6.4.0.
#TITLE ""
#ARTIST ""
#DESIGNER ""
#DIFFICULTY 0
#PLAYLEVEL
#SONGID ""
#WAVE ""
#WAVEOFFSET 0
#JACKET ""
#REQUEST "ticks_per_beat 480"
#00002: 4
#BPM01: 170
#00008: 01
#TIL00: ""
#HISPEED 00
#MEASUREHS 00
#00018:00001313
#00015:0000000000130013
#00215:00001313
#00218:0000000000130013
#00312:13
#00318:00130000
#00315:0000001300000013
#0031b:0000000000130000
#0051b:13
#00518:00000013000000000000000000000000
#00615:00000013
#00718:13
#00715:0013000000000000
#00915:0013000000001300
#00918:2300130000130000
#00912:0013
#0091b:0000000000000013
#00910:41
#01012:0013000000000013
#01018:00130013
#01015:0000001300130000
#0101b:0013
#01118:0013000000001300
#01115:0000130000130000
#0111b:0013
#01112:0000000000000013
#0121b:0013000000000013
#01215:00130023
#01218:0000001300230000
#01212:0013
#01315:0013000000130000
#01318:00130013
#01312:0013
#0131b:0000000000000013
#01415:0013000000230000
#01418:00130023
#01412:0000001300000013
#0141b:0013
#01518:0013000000130000
#01515:00130013
#0151b:0013
#01512:0000000000000013
#01618:0013000000000000
#01615:00130000
#0161b:00000000000013002300002300002300
#01612:00000000000000002300002300002300
#01718:0013001300000013
#01712:00130000
#01715:00001313
#0171b:0000000000130000
#01818:0000001300000000
#01815:0000000000130000
#0181b:00000013
#01812:0000000000000013
#01810:41
#01915:0013001300000013
#0191b:00130000
#01918:00001313
#01912:0000000000130000
#02015:0000001300000000
#02018:0000000000130000
#02012:00000013
#0201b:0000000000000013
#02115:0013000000000000
#0211b:00130000
#02112:0000001300000000
#02215:0013000000001300
#02218:00130000
#02212:0000001300000000
#0221b:0013
#02418:0013000000130000
#02415:00130013
#02412:0000001300000013
#0241b:0013
#0251b:0013001300130000
#02515:00131300
#02512:00000013
#02518:0000000000000013
#02615:00000013
#02618:0000002600000013
#02712:0013001300130000
#02718:00131300
#0271b:00000013
#02715:0000000000000013
#0281b:0000001300000000
#02812:0000002300000000
#02810:41
#02918:0013000000000000
#02912:00130000
#0291b:0000001300000000
#03018:0013000000001300
#03015:00130000
#0301b:0000001300000000
#03012:0013
#03215:0013000000001300
#03218:0000130000130000
#0321b:0000001300000013
#03212:0013
#03318:0000130000000013
#03315:0000001300000000
#0331b:0000000000130000
#03312:23000013
#03418:0000130000130000
#03412:0000001300000000
#03415:23000013
#0341b:0000000000000013
#0351b:0000130000000013
#03515:0000001300000000
#03518:0000000000130000
#03512:23000013
#03615:13
#03619:0013000000000000
#03613:00130000
#03617:0000001300000000
#04018:0013000000001300
#04015:0000130000130000
#04012:0000001300000013
#0401b:0013
#04115:0000130000000013
#04118:0000001300000000
#04112:0000000000130000
#0411b:23000013
#0411f:11
#04215:0000130000130000
#0421b:0000001300000000
#04218:23000013
#04212:0000000000000013
#04312:0000130000000013
#04318:0000001300000000
#04315:0000000000130000
#0431b:23000013
#04418:1300000000130000
#04414:0013000000000000
#0441a:00130000
#04416:0000001300000000
#04415:00000013
#04412:0000000000000013
#03718:1300000000000013
#03715:0013000000000000
#0371b:0000130000130000
#03712:0000001300001300
#03815:1300000000130013
#03818:00000013
#04518:1300000000000013
#04512:0013000000000000
#04515:00000000000013000000000000000013
#04618:1300000000130000
#0461b:0000001300000000
#04615:00130000
#04715:0013130000001300
#04718:00000013000000000000130000000000
#0471b:0000001300000013
#04712:0013
#04812:0013000000000000
#04818:00130000
#04915:0000000000000013
#05012:00130013
#0501b:0000130000001313
#05015:0000001300130013
#05018:2313
#0501f:21
#05112:0013000000130000
#05115:00000013
#05118:0013000000000013
#05113:33330000
#05119:33330000
#05110:41
#0521b:13000013
#05218:00130000
#05212:0000001300000013
#05215:0000000000130000
#05318:1300000000000013
#0531b:00130000
#05315:0000001300000000
#0541b:0000001300000013
#05412:0013000000000000
#05415:1300000000131300
#05418:00000000000000000000001300000000
#05512:16160000
#05518:0016001600000000
#05515:0000000000130013
#0551b:00000013
#05618:1300000000131300
#05612:0013000000000013
#05615:00000000000000000000001300000000
#0571b:1300000000130000
#05715:00130000
#05718:0000001300000013
#05712:0000000000130000
#0581b:00130013
#05812:0000130000001313
#05818:0000001300130013
#05815:2313
#0591b:0013000000130000
#05918:00000013
#05915:0013000000000013
#0591a:33330000
#05914:33330000
#06012:13000013
#06015:00130000
#0601b:0000001300000013
#06018:0000000000130000
#06115:1300000000000013
#06112:00130000
#06118:0000001300000000
#06212:0000001300000013
#0621b:0013000000000000
#06218:1300000000131300
#06215:00000000000000000000001300000000
#06318:1600160000130013
#06312:0016001600001300
#06415:1300000000131300
#0641b:0013000000000013
#06418:00000000000000000000001300000000
#06512:1300000000130000
#06518:0000130000000013
#06515:0000001300000000
#0651b:0000000000130000
#06612:13000013
#0661b:0000130000000013
#06615:0000001300000000
#06618:0000000000130000
#06718:0013
#06715:13
#06710:41
#06818:0000000000001313
#06815:00000000000000000000000000130013
#07015:0013000000130013
#0701b:0000130000000013
#07012:0013
#07018:23000013
#0711b:0013000000000013
#07115:00130013
#07118:0000001300130000
#07112:0000000013000013
#07415:0013000000130000
#07418:00130013
#07412:0000130013000013
#0741b:0000000013000013
#07515:0013000000230000
#07518:00130023
#07512:0000001300000013
#0751b:0013000013000013
#07618:0013000000130000
#07615:00130013
#0761b:0000130013000013
#07612:0000000013000013
#07719:0013131300000000
#07714:0013131300000000
#0731b:0000000013000013
#07312:0013000000000013
#07318:00130023
#07315:0000001300230000
#07218:0013000000130013
#07212:0000130000000013
#0721b:0013
#07215:00000013
#06918:24
#06912:00000024000000000000000000002400
#0691a:00000000000024000000002400000000
#06914:0024
#03910:41
#0055b:63
#00558:00000023000000000000000000000000
#00755:0063000000000000
#00852:13
#0285b:0000006300000000
#02852:0000005300000000
#03352:13
#03355:0000001300000000
#03455:13
#03452:0000001300000000
#03552:13
#03555:0000001300000000
#04158:0000001300000000
#0415b:13
#0425b:0000001300000000
#04258:13
#04358:0000001300000000
#0435b:13
#04552:0053000000130000
#04555:0000006300000000
#0465b:0000006300000013
#04658:0000000000530000
#04858:00530000
#05058:13
#05055:0000000000000063
#0505b:0000000000000063
#0525b:13
#05252:0000001300000000
#05358:13
#05352:0000000000130000
#05355:0000006300000000
#05452:0023000000000000
#05455:63
#0545b:0000001300000000
#05655:0000001300000000
#05652:0053000000000000
#0575b:1300000000130000
#05752:0000000000130000
#06052:13
#0605b:0000001300000000
#06155:13
#0615b:0000000000130000
#06158:0000005300000000
#06252:0000001300000000
#0625b:0023000000000000
#06258:53
#0645b:0063000000000000
#06458:0000001300000000
#06552:1300000000130000
#0655b:0000000000130000
#05855:13
#05858:0000000000000053
#05852:0000000000000053
#06758:0053
#06755:63
#05152:0023000000000000
#05158:0023000000000000
#0595b:0023000000000000
#05955:0023000000000000
#0013b0:13
#001370:0033
#0023b0:23
#004380:13230000
#004320:00001323
#0053b0:1300002300000000
#005380:00000053000000000000000000000000
#005350:00000013
#006320:23
#006380:00130000
#0063b0:0023
#007350:0013000000000000
#008320:23
#018320:13
#018350:00230000
#0203b0:13
#020380:00230000
#021380:00001323
#0233b0:13
#023380:0000002300000000
#023350:0013
#023320:0000000000000023
#026320:13230000
#026380:0000001600260000
#0283b0:13230000
#028320:0000001300000000
#028350:0000000000333323
#0283b1:0000001300000000
#028381:0000000000333323
#029351:00001323
#031321:13
#031351:0000002300000000
#031381:0013
#0313b1:0000000000000023
#036321:0000000000130000
#036351:0000000000000023
#0383b1:0013000000000000
#038381:0000002300000000
#0393b1:13
#039381:00230000
#039351:0000001300000000
#039321:0000000000000023
#045321:0013000000230000
#045351:0000003300000000
#0463b1:0000001300000023
#046381:0000000000330000
#048381:00130000
#0483b1:00000023
#049341:1222
#050351:0000000000000013
#051331:33330000
#051321:0033000000000000
#051351:0000002300000000
#0503b0:0000000000000013
#051390:33330000
#051380:0033000000000000
#0513b0:0000002300000000
#053350:0000001300000000
#053320:0000000000230000
#054350:13230000
#054320:0053000000000000
#056320:0013000000000000
#056350:0000002300000000
#058380:0000000000000013
#0593a0:33330000
#0593b0:0033000000000000
#059380:0000002300000000
#058321:0000000000000013
#059341:33330000
#059351:0033000000000000
#059321:0000002300000000
#061381:0000001300000000
#0613b1:0000000000230000
#062381:13230000
#0623b1:0053000000000000
#0643b1:0013000000000000
#064381:0000002300000000
#067351:13
#067321:00230000
#067381:0013
#0673b1:00000023
#0683b1:1323
#068320:1323
