This file was generated by Ched 2.6.4.0.
#TITLE ""
#ARTIST ""
#DESIGNER ""
#DIFFICULTY 0
#PLAYLEVEL
#SONGID ""
#WAVE ""
#WAVEOFFSET 0
#JACKET ""
#REQUEST "ticks_per_beat 480"
#00002: 4
#BPM01: 170
#00008: 01
#TIL00: ""
#HISPEED 00
#MEASUREHS 00
#00912:2300130013000013
#00915:0013000000000000
#0091b:23130000
#00918:0000001300000000
#00910:41
#01014:00130000
#01016:1300001300000000
#0101b:0000000000130000
#01019:00000013
#01017:0000000000000013
#01714:0000000000000013
#01716:0013000000000000
#0171b:0000001300000000
#01712:0013
#01717:00000013
#01719:0000000000000013
#01812:0000131300000013
#0181b:1300000000130000
#01819:00000013
#01817:0000001300000013
#01816:13
#01814:00000013
#01810:41
#02114:0013001300000000
#02119:0013001300000000
#0211b:00131300
#02112:00131300
#02216:0013001300000013
#02217:00130000
#0221b:0013001300000000
#02212:00131313
#02317:0000001300000000
#0231b:1300000013001323
#02312:00131300
#02316:0000000000000023
#02618:0000002400001414
#02614:0000002400001414
#02616:0013000000000000
#02612:00130000
#02617:13
#0491b:00000013
#04915:00000000000000000000000000130000
#04918:0000000000130013
#04912:00000000000000000000001300000013
#05012:00131313
#05015:2600001600160016
#0501b:00131313
#0501f:21
#0521b:00131313
#05212:1300001300130013
#05217:1300001300000013
#05216:0013000000001300
#05316:1300001300000000
#05312:0000130000130013
#0531b:1300001300130000
#05317:0013000000000013
#05315:00000000000000000013000000000000
#05318:0013
#05116:0000000000000013
#05117:00000013
#0511b:0000000000130013
#05112:00000013
#05110:41
#0681a:00000014
#06816:13000000000000000000000000140014
#06812:0000000000000014
#0681b:13
#0251b:0013000000001300
#02517:0000130000000013
#02512:0013
#02516:0000000000131300
#01612:00001300000000002300002300002300
#01615:0000131300130000
#01618:00000013000000130000000000130000
#0161b:13000000001300002300002300002300
#03512:0013001300131300
#0351b:2300130013000013
#03516:1300000013000013
#03517:00001300000013000000001300000000
#0371b:13130000
#03718:0013000000000000
#03714:0000000000130000
#03715:0000000000000013
#03712:00000013
#03717:0000001300000000
#03812:1300130000130000
#03815:00000013
#03818:0000000000000013
#03816:0013000000000000
#0451b:13131300
#04512:13001300000013000000000000000013
#04518:0000000000000013
#04517:0013001300000000
#04516:0013
#0471b:00001300000000000013000000130000
#04718:00000013000000130000001300000000
#04715:00131313
#04717:0000000000000013
#04712:0000001300130013
#05515:1600160000130000
#05518:0016000000000013
#05512:0013001600000000
#0551b:0000001300000000
#05618:0000000000130000
#05615:00000000000000000000001300001300
#0561b:0013000000001313
#05612:0013000000001300
#05617:00130000
#05616:000000000000000000000000000000000000000000000000000000000000000000000000000000000000000000000000000000000000000000000000000000000000000000000000000000000000000000000000000000000000000000000000000000000000000000000000000000000000000000000000000000000000000000000000000000000000000000000000000000000000000000000000000000000000000000000000000000000000000000000000000000000000000000000000000000000000000000000000000000000000000000000000000000000000000000000000000000000000000000000000000000000000000000000000000000000000000000000000000000000000000000000000000000000000000000000000000000000000000000000000000000000000000000000000000000000000000000000000000000000000000000000000000000000000000000000000000000000000000000000000000000000000000000000000000000000000000000000000000000000000000000000000000000000000000000000000000000000000000000000000000000000000000000000000000000000000000000000000000000000000000000000000000000000000000000000000000000000000000000000000001300000000000000000000000000000000000000000000000000000000000000000000000000000000000000000000000000000000000000000000000000000000000000000000000000000000000000000000000000000000000000000000000000000000000000000000000000000000000000000000000000000000000000000000000000000000000000000000000000000000000000000000000000000000000000000000000000000000000000000000000000000000000000000000000000000000000000000000000000000000000000000000000000000000000000000000000000000000000000000000000000000000000000000000000000000000000000000000000000000000000000000000000000000000000000000000000000000000000000000000000000000000000000000000000000000000000000000000000000000000000000000000000000000000000000000000000000000000000000000000000000000000000000000000000000000000000000000000000000000000000000000000000000000000000000000000000000000000000000000000000000000000000000000000000000000000000000000000000000000000000000000000000000000000000000000000000000000000000000000000000000000000000000000000000000000000000000000000000000000000000000000000000000000000000000000000000000000000000000000000000000000000000000000000000000000000000000000000000000000000000000000000000000000000000000000000000000000000000000000000000000000000000000000000000000000000000000000000000000000000000000000000000000000000000000000000000000000000000000000000000000000000000000000000000000000000000000000000000000000000000000000000000000000000000000000000000000000000000000000000000000000000000000000000000000000000000000000000000000000000000000000000000000000000000000000000000000000000000000000000000000000000000000000000000000000000000000000000000000000000000000000000000000000000000000000000000000000000000000000000000000000000000000000000000000000000000000000000000000000000000000000000000000000000000000000000000000000000000000000000000000000000000000000000000000000000000000000000000000000000000000000000000000000000000000000000000000000000000000000000000000000000000000000000000000000000000000000000000000000000000000000000000000000000000000000000000000000000000000000000000000000000000000000000000000000000000000000000000000000000000000000000000000000000000000000000000000000000000000000000000000000000000000000000000000000000000000000000000000000000000000000000000000000000000000000000000000000000000000000000000000000000000000000000000000000000000000000000000000000000000000000000000000000000000000000000000000000000000000000000000000000000000000000000000000000000000000000000000000000000000000000000000000000000000000000000000000000000000000000000000000000000000000000000000000000000000000000000000000000000000000000000000000000000000000000000000000000000000000000000000000000000000000000000000000000000000000000000000000000000000000000000000000000000000000000000000000000000000000000000000000000000000000000000000000000000000000000000000000000000000000000000000000000000000000000000000000000000000000000000
#06612:13130013
#0661b:1300001300001300
#06617:0000000000130000
#06616:0000001300000000
#06614:0000000000000013
#06719:1313
#06716:13
#0671b:0013000000130000
#06714:00130013
#06712:0000001300000013
#06710:41
#04617:00130013
#04616:1300001300130000
#0461b:1300001300130000
#04612:00131313
#04614:0013000000000000
#04619:0013000000000000
#04412:00000013001c1c1c
#04419:13130000
#04414:13130000
#04417:0000001300000000
#04416:0013000000000000
#0441b:0013000000000000
#03219:0000000000130013
#0321b:00131300
#03217:00000013
#03218:0013001300000000
#03216:00000000000000000013000000000000
#03214:00000000000000000000001300000013
#03212:00000000000000000000000000130000
#03316:1300001300131300
#03312:0013000013000013
#0331b:23000000130013000000001300000000
#03317:0013000013000013
#03412:0013000013000013
#0341b:1300001300131300
#03416:23000000130013000000001300000000
#03417:0013000013000013
#03614:13130000
#03619:1300130000000013
#03616:0000001300130000
#0361b:0000001300000000
#03617:0013000000000000
#03612:0013000000000000
#03912:0000001300130023
#0391b:13000000130000000000001300000000
#03915:00000013
#03918:00000000000000000000000000130000
#03910:41
#05412:0013001300000013
#05416:13
#05417:0000001300000000
#0541b:2300130000130013
#05415:00000000000000000000001300000000
#05418:00000013
#04817:00000000000000001300000000000013
#04818:0000000000130000
#0481b:00000000130000000000001300000000
#04816:0013130000001300
#04819:00000000000000000000000000130000
#04814:0000000000000013
#02819:00000000000000131313131313000000
#02816:130000000000000000000000000000000000000000000000000000000000000000000000000000000000000000000000000000000000000000000000000000000000000000000000000000000000000000000000000000000000000000000000000000000000000000000000000000000000000000000000000000000000000000000000000000000000000000000000000000000000000000000000000000000000000000000000000000000000000000000000000000000000000000000000000000000000000000000000000000000000000000000000000000000000000000000000000000000000000000000000000000000000000000000000000000000000000000000000000000000000000000000000000000000000000000000000000000000000000000000000000000000000000000000000000000000000000000000000000000000000000000000000000000000000000000000000000000000000000000000000000000000000000000000000000000000000000000000000000000000000000000000000000000000000000000000000000000000000000000000000000000000000000000000000000000000000000000000000000000000000000000000000000000000000000000000000000000000000000000000000000000000000000000000000000000000000000000000000000000000000000000000000000000000000000000000000000000000000000000000000000000000000000000000000000000000000000000000000000000000000000000000000000000000000000000000000000000000000000000000000000000000000000000000000000000000000000000000000000000000000000000000000000000000000000000000000000000000000000000000000000000000000000000000000000000000000000000000000000000000000000000000000000000000000000000000000000000000000000000000000000000000000000000000000000000000000000000000000000000000000000000000000000000000000000000000000000000000000000000000000000000000000000000000000000000000000000000000000000000000000000000000000000000000000000000000000000000000000000000000000000000000000000000000000000000000000000000000000000000000000000000000000000000000000000000000000000000000000000000000000130000000000000000000000000000000000000000000000000000000000000000000000000000000000000000000000000000000000000000000000000000000000000000000000000000000000000000000000000000000000000000000000000000000000000000000000000000000000000000000000001300000000000000000000000000000000000000000000000000000000000000000000000000000000000000000000000000000000000000000000000000000000000000000000000000000000000000000000000000000000000000000000000000000000000000000000000000000000000000000000130000000000000000000000000000000000000000000000000000000000000000000000000000000000000000000000000000000000000000000000000000000000000000000000000000000000000000000000000000000000000000000000000000000000000000000000000000000000000000000000001300000000000000000000000000000000000000000000000000000000000000000000000000000000000000000000000000000000000000000000000000000000000000000000000000000000000000000000000000000000000000000000000000000000000000000000000000000000000000000000130000000000000000000000000000000000000000000000000000000000000000000000000000000000000000000000000000000000000000000000000000000000000000000000000000000000000000000000000000000000000000000000000000000000000000000000000000000000000000000000000000000000000000000000000000000000000000000000000000000000000000000000000000000000000000000000000000000000000000000000000000000000000000000000000000000000000000000000000000000000000000000000000000000000000000000000000000000000000000000000000000000000000000000000000000000000000000000000000000000000000000000000000000000000000000000000000000000000000000000000000000000000000000000000000000000000000000000000000000000000000000000000000000000000000000000000000000000000000000000000000000000000000000000000000000000000000000000000000000000000000000000000000000000000000000000000000000000000000000000000000000000000000000000000000000000000000000000000000000000000000000000000000000000000000000000000000000000000000000000000000000000000000000000000000000000000000000000000000000000000000000000000000000000000000000000000000000000000000000000000
#02814:00000000000000131313131313000000
#02817:000000000000000000000000000000000000000000000000000000000000000000000000000000000000000000000000000000000000000000000000000000000000000000000000000000000000000000000000000000000000000000000000000000000000000000000000000000000000000000000000000000000000000000000000000000000000000000000000000000000000000000000000000000000000000000000000000000000000000000000000000000000000000000000000000000000000000000000000000000000000000000000000000000000000000000000000000000000000000000000000130000000000000000000000000000000000000000000000000000000000000000000000000000000000000000000000000000000000000000000000000000000000000000000000000000000000000000000000000000000000000000000000000000000000000000000000000000000000000000000000000000000000000000000000000000000000000000000000000000000000000000000000000000000000000000000000000000000000000000000000000000000000000000000000000000000000000000000000000000000000000000000000000000000000000000000000000000000000000000000000000000000000000000000000000000000000000000000000000000000000000000000000000000000000000000000000000000000000000000000000000000000000000000000000000000000000000000000000000000000000000000000000000000000000000000000000000000000000000000000000000000000000000000000000000000000000000000000000000000000000000000000000000000000000000000000000000000000000000000000000000000000000000000000000000000000000000000000000000000000000000000000000000000000000000000000000000000000000000000000000000000000000000000000000000000000000000000000000000000000000000000000000000000000000000000000000000000000000000000000000000000000000000000000000000000000000000000000000000000000000000000000000000000000000000000000000000000000000000000000000000000000000000000000000000000000000000000000000000000000000000000000000000000000000000000000000000000000000000000000000001300000000000000000000000000000000000000000000000000000000000000000000000000000000000000000000000000000000000000000000000000000000000000000000000000000000000000000000000000000000000000000000000000000000000000000000000000000000000000000000130000000000000000000000000000000000000000000000000000000000000000000000000000000000000000000000000000000000000000000000000000000000000000000000000000000000000000000000000000000000000000000000000000000000000000000000000000000000000000000000001300000000000000000000000000000000000000000000000000000000000000000000000000000000000000000000000000000000000000000000000000000000000000000000000000000000000000000000000000000000000000000000000000000000000000000000000000000000000000000000130000000000000000000000000000000000000000000000000000000000000000000000000000000000000000000000000000000000000000000000000000000000000000000000000000000000000000000000000000000000000000000000000000000000000000000000000000000000000000000000001300000000000000000000000000000000000000000000000000000000000000000000000000000000000000000000000000000000000000000000000000000000000000000000000000000000000000000000000000000000000000000000000000000000000000000000000000000000000000000000000000000000000000000000000000000000000000000000000000000000000000000000000000000000000000000000000000000000000000000000000000000000000000000000000000000000000000000000000000000000000000000000000000000000000000000000000000000000000000000000000000000000000000000000000000000000000000000000000000000000000000000000000000000000000000000000000000000000000000000000000000000000000000000000000000000000000000000000000000000000000000000000000000000000000000000000000000000000000000000000000000000000000000000000000000000000000000000000000000000000000000000000000000000000000000000000000000000000000000000000000000000000000000000000000000000000000000000000000000000000000000000000000000000000000000000000000000000000000000000000000000000000000000000000000000000000000000000000000000000000000000000000000000000000000000000000000000000000000000000000
#0281b:0000131300000000
#02812:0000002300000000
#02810:41
#05715:0013130000000000
#05718:13000013000000000000000000000000
#05712:1313
#0571b:0000001300130000
#05716:00000000000013000000000000000013
#05717:00000013
#05714:00000000000000000000000000130000
#05719:0000000000000013
#06916:00001400001400000000140000140000
#0691a:24000000000024000000002400000000
#06912:00000024000000002400000000002400
#00712:13
#0071b:13
#00716:0012
#00718:0012
#00318:0000000000000013
#00312:0013001300130000
#0031b:00131300
#00317:0000001300000000
#00316:13
#00014:0000000000000012
#00016:00000012
#00018:0000000000120000
#0001a:0012
#0431b:0013001300131300
#04312:2300130013000013
#04317:1300000013000013
#04316:00001300000013000000001300000000
#04014:0000000000130013
#04016:00000013
#04017:00000000000000000013000000000000
#04019:00000000000000000000001300000013
#0401b:00000000000000000000000000130000
#04012:00131300
#04015:0013001300000000
#04117:1300001300131300
#0411b:0013000013000013
#04112:23000000130013000000001300000000
#04116:0013000013000013
#0411f:11
#0421b:0013000013000013
#04212:1300001300131300
#04217:23000000130013000000001300000000
#04216:0013000013000013
#06012:00131313
#0601b:1300001300130013
#06016:1300001300000013
#06017:0013000000001300
#06117:1300001300000000
#0611b:0000130000130013
#06112:1300001300130000
#06116:0013000000000013
#06118:00000000000000000013000000000000
#06115:0013
#0581b:1300001300130013
#05812:2300001300130000
#05815:00161616
#05917:0000000000000013
#05916:00000013
#05915:0000000000160000
#0591b:00000013
#05912:0000000000000013
#06318:0000001600130000
#06315:1600160000000013
#06312:0016001300000000
#0631b:0013000000000000
#0621b:0013001300000013
#06216:0000001300000000
#06212:2300130000130013
#06218:00000000000000000000001300000000
#06215:00000013
#06217:13
#06415:0000000000130000
#06418:00000000000000000000001300001300
#06412:0013000000001313
#0641b:0013000000001300
#06416:00130000
#06417:000000000000000000000000000000000000000000000000000000000000000000000000000000000000000000000000000000000000000000000000000000000000000000000000000000000000000000000000000000000000000000000000000000000000000000000000000000000000000000000000000000000000000000000000000000000000000000000000000000000000000000000000000000000000000000000000000000000000000000000000000000000000000000000000000000000000000000000000000000000000000000000000000000000000000000000000000000000000000000000000000000000000000000000000000000000000000000000000000000000000000000000000000000000000000000000000000000000000000000000000000000000000000000000000000000000000000000000000000000000000000000000000000000000000000000000000000000000000000000000000000000000000000000000000000000000000000000000000000000000000000000000000000000000000000000000000000000000000000000000000000000000000000000000000000000000000000000000000000000000000000000000000000000000000000000000000000000000000000000000000001300000000000000000000000000000000000000000000000000000000000000000000000000000000000000000000000000000000000000000000000000000000000000000000000000000000000000000000000000000000000000000000000000000000000000000000000000000000000000000000000000000000000000000000000000000000000000000000000000000000000000000000000000000000000000000000000000000000000000000000000000000000000000000000000000000000000000000000000000000000000000000000000000000000000000000000000000000000000000000000000000000000000000000000000000000000000000000000000000000000000000000000000000000000000000000000000000000000000000000000000000000000000000000000000000000000000000000000000000000000000000000000000000000000000000000000000000000000000000000000000000000000000000000000000000000000000000000000000000000000000000000000000000000000000000000000000000000000000000000000000000000000000000000000000000000000000000000000000000000000000000000000000000000000000000000000000000000000000000000000000000000000000000000000000000000000000000000000000000000000000000000000000000000000000000000000000000000000000000000000000000000000000000000000000000000000000000000000000000000000000000000000000000000000000000000000000000000000000000000000000000000000000000000000000000000000000000000000000000000000000000000000000000000000000000000000000000000000000000000000000000000000000000000000000000000000000000000000000000000000000000000000000000000000000000000000000000000000000000000000000000000000000000000000000000000000000000000000000000000000000000000000000000000000000000000000000000000000000000000000000000000000000000000000000000000000000000000000000000000000000000000000000000000000000000000000000000000000000000000000000000000000000000000000000000000000000000000000000000000000000000000000000000000000000000000000000000000000000000000000000000000000000000000000000000000000000000000000000000000000000000000000000000000000000000000000000000000000000000000000000000000000000000000000000000000000000000000000000000000000000000000000000000000000000000000000000000000000000000000000000000000000000000000000000000000000000000000000000000000000000000000000000000000000000000000000000000000000000000000000000000000000000000000000000000000000000000000000000000000000000000000000000000000000000000000000000000000000000000000000000000000000000000000000000000000000000000000000000000000000000000000000000000000000000000000000000000000000000000000000000000000000000000000000000000000000000000000000000000000000000000000000000000000000000000000000000000000000000000000000000000000000000000000000000000000000000000000000000000000000000000000000000000000000000000000000000000000000000000000000000000000000000000000000000000000000000000000000000000000000000000000000000000000000000000000000000000000000000000000000000000000000000000000000000000000000000000000000000000000000000000000000000000000000000000000000000000000000000000000000
#06518:0013130000000000
#06515:13000013000000000000000000000000
#0651b:1313
#06512:0000001300130000
#06517:00000000000013000000000000000013
#06516:00000013
#06519:00000000000000000000000000130000
#06514:0000000000000013
#00117:13
#00116:0013
#0051b:0000001300000000
#00517:00000000000000000013000000000000
#00512:13000016
#00516:00000013000000000000000000000000
#0291b:0013001300000000
#02912:0013001300000000
#02914:00130000
#02919:00130000
#02918:0013
#02915:0013
#03017:0013001300000013
#03016:00130000
#03012:0013001300000000
#0301b:00131313
#01919:0000000000000013
#01917:0013000000000000
#01912:0000001300000000
#0191b:0013
#01916:00000013
#01914:0000000000000013
#0201b:0000131300000013
#02012:1300000000130000
#02014:00000013
#02016:0000001300000013
#02017:13
#02019:00000013
#02412:0000130000130013
#02418:00000000130000001300001300000000
#02415:00001300000000130000000013000000
#0241b:0000001300000013
#02712:0013000000001300
#02716:0000130000000013
#0271b:0013
#02717:0000000000131300
#0111b:1300130013000013
#01118:0013000000000000
#01112:13130000
#01115:0000001300000000
#01219:00130000
#01217:1300001300000000
#01216:0000000000000013
#01212:0000000000230000
#01214:00000023
#01312:1313
#01314:0013000000000000
#0131b:13130000
#01319:0000001300000000
#01316:0000130000000013
#01416:00130000
#01414:0000001300000000
#01412:13
#0141b:0000000000000013
#01417:0000000000230000
#01419:00000023
#0151b:1313
#01519:0013000000000000
#01512:13130000
#01514:0000001300000000
#01517:0000130000000013
#07116:1300131300000000
#0711b:0000000000131300
#07117:0000000000000013
#07018:0000001300000000
#07012:2300000000000013
#07015:0013000000000000
#07016:0000000000130000
#07317:1300131300000000
#07316:0000000000000013
#07312:0000000000232300
#07215:0000001300000000
#0721b:2300000000000013
#07218:0013000000000000
#07217:0000000000130000
#07516:13130000
#07512:0000001300000000
#07517:0000000000230013
#0751b:00000023
#07412:0000001300000013
#0741b:0013000000000000
#07417:0000000000130000
#07419:23
#0761b:0000001300000013
#07612:0013000000000000
#07616:0000000000130000
#07614:13
#07717:13
#07715:00130000
#07713:001300
#07718:00130000
#0771a:001300
#07712:0013000000000000
#00217:13
#00212:0013
#00213:0000000000130000
#00214:00000013
#00215:0000000000000013
#00612:00000016
#00616:00120000
#00618:1612
#00412:1216
#0041c:00120000
#00418:00000016
#03116:0000001300000000
#03112:1300000013001323
#0311b:00131300
#03117:0000000000000023
#05055:16
#0535b:6300000000130000
#05357:0023000000000000
#05356:13
#05652:0053003300000000
#05657:00230000
#05656:000000000000000000000000000000000000000000000000000000000000000000000000000000000000000000000000000000000000000000000000000000000000000000000000000000000000000000000000000000000000000000000000000000000000000000000000000000000000000000000000000000000000000000000000000000000000000000000000000000000000000000000000000000000000000000000000000000000000000000000000000000000000000000000000000000000000000000000000000000000000000000000000000000000000000000000000000000000000000000000000000000000000000000000000000000000000000000000000000000000000000000000000000000000000000000000000000000000000000000000000000000000000000000000000000000000000000000000000000000000000000000000000000000000000000000000000000000000000000000000000000000000000000000000000000000000000000000000000000000000000000000000000000000000000000000000000000000000000000000000000000000000000000000000000000000000000000000000000000000000000000000000000000000000000000000000000000000000000000000000000002300000000000000000000000000000000000000000000000000000000000000000000000000000000000000000000000000000000000000000000000000000000000000000000000000000000000000000000000000000000000000000000000000000000000000000000000000000000000000000000000000000000000000000000000000000000000000000000000000000000000000000000000000000000000000000000000000000000000000000000000000000000000000000000000000000000000000000000000000000000000000000000000000000000000000000000000000000000000000000000000000000000000000000000000000000000000000000000000000000000000000000000000000000000000000000000000000000000000000000000000000000000000000000000000000000000000000000000000000000000000000000000000000000000000000000000000000000000000000000000000000000000000000000000000000000000000000000000000000000000000000000000000000000000000000000000000000000000000000000000000000000000000000000000000000000000000000000000000000000000000000000000000000000000000000000000000000000000000000000000000000000000000000000000000000000000000000000000000000000000000000000000000000000000000000000000000000000000000000000000000000000000000000000000000000000000000000000000000000000000000000000000000000000000000000000000000000000000000000000000000000000000000000000000000000000000000000000000000000000000000000000000000000000000000000000000000000000000000000000000000000000000000000000000000000000000000000000000000000000000000000000000000000000000000000000000000000000000000000000000000000000000000000000000000000000000000000000000000000000000000000000000000000000000000000000000000000000000000000000000000000000000000000000000000000000000000000000000000000000000000000000000000000000000000000000000000000000000000000000000000000000000000000000000000000000000000000000000000000000000000000000000000000000000000000000000000000000000000000000000000000000000000000000000000000000000000000000000000000000000000000000000000000000000000000000000000000000000000000000000000000000000000000000000000000000000000000000000000000000000000000000000000000000000000000000000000000000000000000000000000000000000000000000000000000000000000000000000000000000000000000000000000000000000000000000000000000000000000000000000000000000000000000000000000000000000000000000000000000000000000000000000000000000000000000000000000000000000000000000000000000000000000000000000000000000000000000000000000000000000000000000000000000000000000000000000000000000000000000000000000000000000000000000000000000000000000000000000000000000000000000000000000000000000000000000000000000000000000000000000000000000000000000000000000000000000000000000000000000000000000000000000000000000000000000000000000000000000000000000000000000000000000000000000000000000000000000000000000000000000000000000000000000000000000000000000000000000000000000000000000000000000000000000000000000000000000000000000000000000000000000000000000000000000000000000000000000000000000000000000
#0565b:0063004300000000
#06759:5353
#0675b:0023000000230000
#06754:00630063
#06752:0000002300000023
#06756:4343
#06757:00330033
#04557:0053005300330000
#04552:0000005300330000
#04556:0023
#0455b:00232300
#05257:1300005300000000
#05252:5300001300000000
#0525b:0023
#05256:0023000000000000
#03356:6300001300000000
#0335b:1300006300000000
#03357:0023
#03352:0023000000000000
#03552:0023001300000000
#03556:63
#03557:0000005300000000
#0355b:1323
#05452:0023001300000000
#05456:63
#05457:0000001300000000
#0545b:13
#02859:00000000000000232323232323000000
#02854:00000000000000232323232323000000
#02856:630000000000000000000000000000000000000000000000000000000000000000000000000000000000000000000000000000000000000000000000000000000000000000000000000000000000000000000000000000000000000000000000000000000000000000000000000000000000000000000000000000000000000000000000000000000000000000000000000000000000000000000000000000000000000000000000000000000000000000000000000000000000000000000000000000000000000000000000000000000000000000000000000000000000000000000000000000000000000000000000000000000000000000000000000000000000000000000000000000000000000000000000000000000000000000000000000000000000000000000000000000000000000000000000000000000000000000000000000000000000000000000000000000000000000000000000000000000000000000000000000000000000000000000000000000000000000000000000000000000000000000000000000000000000000000000000000000000000000000000000000000000000000000000000000000000000000000000000000000000000000000000000000000000000000000000000000000000000000000000000000000000000000000000000000000000000000000000000000000000000000000000000000000000000000000000000000000000000000000000000000000000000000000000000000000000000000000000000000000000000000000000000000000000000000000000000000000000000000000000000000000000000000000000000000000000000000000000000000000000000000000000000000000000000000000000000000000000000000000000000000000000000000000000000000000000000000000000000000000000000000000000000000000000000000000000000000000000000000000000000000000000000000000000000000000000000000000000000000000000000000000000000000000000000000000000000000000000000000000000000000000000000000000000000000000000000000000000000000000000000000000000000000000000000000000000000000000000000000000000000000000000000000000000000000000000000000000000000000000000000000000000000000000000000000000000000000000000000000000000000530000000000000000000000000000000000000000000000000000000000000000000000000000000000000000000000000000000000000000000000000000000000000000000000000000000000000000000000000000000000000000000000000000000000000000000000000000000000000000000000006300000000000000000000000000000000000000000000000000000000000000000000000000000000000000000000000000000000000000000000000000000000000000000000000000000000000000000000000000000000000000000000000000000000000000000000000000000000000000000000530000000000000000000000000000000000000000000000000000000000000000000000000000000000000000000000000000000000000000000000000000000000000000000000000000000000000000000000000000000000000000000000000000000000000000000000000000000000000000000000006300000000000000000000000000000000000000000000000000000000000000000000000000000000000000000000000000000000000000000000000000000000000000000000000000000000000000000000000000000000000000000000000000000000000000000000000000000000000000000000530000000000000000000000000000000000000000000000000000000000000000000000000000000000000000000000000000000000000000000000000000000000000000000000000000000000000000000000000000000000000000000000000000000000000000000000000000000000000000000000000000000000000000000000000000000000000000000000000000000000000000000000000000000000000000000000000000000000000000000000000000000000000000000000000000000000000000000000000000000000000000000000000000000000000000000000000000000000000000000000000000000000000000000000000000000000000000000000000000000000000000000000000000000000000000000000000000000000000000000000000000000000000000000000000000000000000000000000000000000000000000000000000000000000000000000000000000000000000000000000000000000000000000000000000000000000000000000000000000000000000000000000000000000000000000000000000000000000000000000000000000000000000000000000000000000000000000000000000000000000000000000000000000000000000000000000000000000000000000000000000000000000000000000000000000000000000000000000000000000000000000000000000000000000000000000000000000000000000000000000
#02857:000000000000000000000000000000000000000000000000000000000000000000000000000000000000000000000000000000000000000000000000000000000000000000000000000000000000000000000000000000000000000000000000000000000000000000000000000000000000000000000000000000000000000000000000000000000000000000000000000000000000000000000000000000000000000000000000000000000000000000000000000000000000000000000000000000000000000000000000000000000000000000000000000000000000000000000000000000000000000000000000000000000000000000000000000000000000000000000000000000000000000000000000000000000000000000000000000000000000000000000000000000000000000000000000000000000000000000000000000000000000000000000000000000000000000000000000000000000000000000000000000000000000000000000000000000000000000000000000000000000000000000000000000000000000000000000000000000000000000000000000000000000000000000000000000000000000000000000000000000000000000000000000000000000000000000000000000000000000000000000000000000000000000000000000000000000000000000000000000000000000000000000000000000000000000000000000000000000000000000000000000000000000000000000000000000000000000000000000000000000000000000000000000000000000000000000000000000000000000000000000000000000000000000000000000000000000000000000000000000000000000000000000000000000000000000000000000000000000000000000000000000000000000000000000000000000000000000000000000000000000000000000000000000000000000000000000000000000000000000000000000000000000000000000000000000000000000000000000000000000000000000000000000000000000000000000000000000000000000000000000000000000000000000000000000000000000000000000000000000000000000000000000000000000000000000000000000000000000000000000000000000000000000000000000000000000000000000000000000000000000000000000000000000000000000000000000000000000000000000000000006300000000000000000000000000000000000000000000000000000000000000000000000000000000000000000000000000000000000000000000000000000000000000000000000000000000000000000000000000000000000000000000000000000000000000000000000000000000000000000000530000000000000000000000000000000000000000000000000000000000000000000000000000000000000000000000000000000000000000000000000000000000000000000000000000000000000000000000000000000000000000000000000000000000000000000000000000000000000000000000006300000000000000000000000000000000000000000000000000000000000000000000000000000000000000000000000000000000000000000000000000000000000000000000000000000000000000000000000000000000000000000000000000000000000000000000000000000000000000000000530000000000000000000000000000000000000000000000000000000000000000000000000000000000000000000000000000000000000000000000000000000000000000000000000000000000000000000000000000000000000000000000000000000000000000000000000000000000000000000000006300000000000000000000000000000000000000000000000000000000000000000000000000000000000000000000000000000000000000000000000000000000000000000000000000000000000000000000000000000000000000000000000000000000000000000000000000000000000000000000000000000000000000000000000000000000000000000000000000000000000000000000000000000000000000000000000000000000000000000000000000000000000000000000000000000000000000000000000000000000000000000000000000000000000000000000000000000000000000000000000000000000000000000000000000000000000000000000000000000000000000000000000000000000000000000000000000000000000000000000000000000000000000000000000000000000000000000000000000000000000000000000000000000000000000000000000000000000000000000000000000000000000000000000000000000000000000000000000000000000000000000000000000000000000000000000000000000000000000000000000000000000000000000000000000000000000000000000000000000000000000000000000000000000000000000000000000000000000000000000000000000000000000000000000000000000000000000000000000000000000000000000000000000000000000000000000000000000000000000000
#0285b:0000006300000000
#02852:0000005300000000
#00858:16
#00852:16
#00352:0023001300000000
#0035b:1323
#00357:0000005300000000
#00356:63
#04856:00630000
#04757:0000000000000053
#03457:0023000000000000
#0345b:6300001300000000
#03452:0023
#03456:1300006300000000
#03656:0000000000630000
#04157:5300001300000000
#04156:0023
#0415b:0023000000000000
#04152:1300005300000000
#0435b:0023001300000000
#04357:53
#04356:0000006300000000
#04352:1323
#04256:0023000000000000
#04252:5300001300000000
#0425b:0023
#04257:1300005300000000
#04656:0000006300630043
#0465b:0000000000630043
#04657:00000023
#04652:00002323
#05752:1323
#0575b:0000001300430000
#05756:0000006300430000
#06056:1300006300000000
#0605b:6300001300000000
#06052:0023
#06057:0023000000000000
#06157:13
#06152:5300000000130000
#06156:0023000000000000
#0625b:0023001300000000
#06256:0000001300000000
#06257:53
#06252:13
#05852:13
#0655b:1323
#06552:0000001300330000
#06557:0000005300330000
#0665b:63
#06656:0000006300000000
#0685b:63
#06856:63
#0695a:14000000000014000000001400000000
#06952:00000014000000001400000000001400
#03856:0063004300000000
#03852:00230000
#03757:0000005300000000
#00157:53
#00156:0063
#0055b:0000006300000000
#00557:00000000000000000023000000000000
#00552:53000056
#00556:00000023000000000000000000000000
#01852:0000005300000000
#0185b:63
#02958:0053
#02955:0063
#02152:0053
#0215b:0063
#02252:00000053
#02256:0000000000000023
#0235b:63
#02352:0053
#0305b:00000063
#03057:0000000000000023
#0205b:0000006300000000
#02052:53
#02657:53
#02556:00000063
#02757:00000053
#01056:23
#00952:0000000000000053
#0115b:0000000000000063
#01257:23
#01356:0000000000000063
#01452:23
#01557:0000000000000053
#0165b:23
#07052:0000000000000053
#07156:23
#0725b:0000000000000063
#07357:23
#07452:0000000000000053
#07459:43
#07556:23
#0645b:0063004300000000
#06456:00230000
#06457:000000000000000000000000000000000000000000000000000000000000000000000000000000000000000000000000000000000000000000000000000000000000000000000000000000000000000000000000000000000000000000000000000000000000000000000000000000000000000000000000000000000000000000000000000000000000000000000000000000000000000000000000000000000000000000000000000000000000000000000000000000000000000000000000000000000000000000000000000000000000000000000000000000000000000000000000000000000000000000000000000000000000000000000000000000000000000000000000000000000000000000000000000000000000000000000000000000000000000000000000000000000000000000000000000000000000000000000000000000000000000000000000000000000000000000000000000000000000000000000000000000000000000000000000000000000000000000000000000000000000000000000000000000000000000000000000000000000000000000000000000000000000000000000000000000000000000000000000000000000000000000000000000000000000000000000000000000000000000000000000002300000000000000000000000000000000000000000000000000000000000000000000000000000000000000000000000000000000000000000000000000000000000000000000000000000000000000000000000000000000000000000000000000000000000000000000000000000000000000000000000000000000000000000000000000000000000000000000000000000000000000000000000000000000000000000000000000000000000000000000000000000000000000000000000000000000000000000000000000000000000000000000000000000000000000000000000000000000000000000000000000000000000000000000000000000000000000000000000000000000000000000000000000000000000000000000000000000000000000000000000000000000000000000000000000000000000000000000000000000000000000000000000000000000000000000000000000000000000000000000000000000000000000000000000000000000000000000000000000000000000000000000000000000000000000000000000000000000000000000000000000000000000000000000000000000000000000000000000000000000000000000000000000000000000000000000000000000000000000000000000000000000000000000000000000000000000000000000000000000000000000000000000000000000000000000000000000000000000000000000000000000000000000000000000000000000000000000000000000000000000000000000000000000000000000000000000000000000000000000000000000000000000000000000000000000000000000000000000000000000000000000000000000000000000000000000000000000000000000000000000000000000000000000000000000000000000000000000000000000000000000000000000000000000000000000000000000000000000000000000000000000000000000000000000000000000000000000000000000000000000000000000000000000000000000000000000000000000000000000000000000000000000000000000000000000000000000000000000000000000000000000000000000000000000000000000000000000000000000000000000000000000000000000000000000000000000000000000000000000000000000000000000000000000000000000000000000000000000000000000000000000000000000000000000000000000000000000000000000000000000000000000000000000000000000000000000000000000000000000000000000000000000000000000000000000000000000000000000000000000000000000000000000000000000000000000000000000000000000000000000000000000000000000000000000000000000000000000000000000000000000000000000000000000000000000000000000000000000000000000000000000000000000000000000000000000000000000000000000000000000000000000000000000000000000000000000000000000000000000000000000000000000000000000000000000000000000000000000000000000000000000000000000000000000000000000000000000000000000000000000000000000000000000000000000000000000000000000000000000000000000000000000000000000000000000000000000000000000000000000000000000000000000000000000000000000000000000000000000000000000000000000000000000000000000000000000000000000000000000000000000000000000000000000000000000000000000000000000000000000000000000000000000000000000000000000000000000000000000000000000000000000000000000000000000000000000000000000000000000000000000000000000000000000000000000000000000000000000000000000
#06452:0053003300000000
#0765b:0000000000000063
#07757:23
#07755:0000634300000000
#07753:002300
#07758:0000533300000000
#0775a:002300
#00257:53
#00656:00220000
#00658:6622
#00452:2266
#0045c:00220000
#00458:00000056
#00756:0062
#00758:0052
#03152:53
#0315b:0063
#001370:13
#0013b0:0023
#001361:0013
#002321:23
#002370:13
#0033b0:23
#003361:13230000
#003321:0053000000000000
#003371:0000001300230000
#0033b1:0053
#004321:12260000
#0043c0:00120000
#004380:0026
#004321:00001622
#004380:00000016
#0053c0:22
#005321:1300002300000000
#005361:00000053000000000000000000000000
#0053b0:0000001300002300
#005370:00000000000000000053000000000000
#005321:00000016
#006361:22
#006380:16220000
#006361:00120000
#006321:0026
#006380:00001226
#007320:0013000000000000
#007380:0052
#008380:26
#0073b1:0013000000000000
#007361:0052
#008321:26
#0093b1:0000000013230000
#009350:0000000000132300
#009381:0000000000001323
#009320:0000000000000013
#010360:53
#010320:0023000000000000
#010371:0013000000000000
#0103b1:0023
#010360:0013
#010320:0000000000000023
#011320:0000000013230000
#011381:0000000000132300
#011350:0000000000001323
#0113b1:0000000000000013
#012371:53
#0123b1:0023000000000000
#012360:0013000000000000
#012320:0023
#012371:0013
#0123b1:0000000000000023
#013371:0000000013230000
#013320:0000000000132300
#0133b1:0000000000001323
#013360:0000000000000013
#014320:53
#014360:0023000000000000
#0143b1:0013000000000000
#014371:0023
#014320:0013
#014360:0000000000000023
#015360:0000000013230000
#0153b1:0000000000132300
#015320:0000000000001323
#015371:0000000000000013
#0163b1:53
#016371:0023000000000000
#0173b1:0013000000000000
#017371:00230000
#017320:00130000
#017360:0000002300000000
#017370:0013
#0173b0:0000000000230000
#017361:0000000000130000
#017321:00000023
#0183b1:13
#018371:00230000
#018321:0000001300000000
#018361:0000000000230000
#019321:0013000000000000
#019361:00230000
#0193b0:00130000
#019370:0000002300000000
#019360:0013
#019320:0000000000230000
#019371:0000000000130000
#0193b1:00000023
#020321:13
#020361:00230000
#0203b1:0000001300000000
#020371:0000000000230000
#021321:0013
#021351:00000023
#0213b0:0013
#021380:00000023
#022370:00001323
#022321:00000013
#022361:0000000000000053
#023321:23
#0233b0:13
#023370:00230000
#023320:0013
#023360:00000023
#025360:0013002300000000
#025320:00530000
#0253b1:0000001300230000
#025371:0053
#025361:00000013
#025321:0000000000000053
#026321:23
#026370:13
#0263b0:0053230000000000
#026380:0000001400000000
#026340:000000000000000000000000000000000000000000000000000000000000000000000000000000000000000000000000000000000000000000000000000000000000000000000000000000000000000000000000000000000000000000000000000000000000000000000000000000000000000000000000000000000000000000000000000000000000000000000000000000000000000000000000000000000000000000000000000000000000000000000000000000000000000000000000000000000000000000000000000000000000000000000000000000000000000000000000000000000000000000000000000000000000000000000000000000000000000000000000000000000000000000000000000000000000000000000000000000000000000000000000000000000000000000000000000000000000000000000000000000000000000000000000000000000000000000000000000000000000000000000000000000000000000000000000000000000000000000000000000000000000000000000000000000000000000000000000000000000000000000000000000000000000000000000000000000000000000000000000000000000000000000000000000000000000000000000000000000000000000000000000000000000000000000000000000000000000000000000000000000000000000000000000000000000000000000000000000000000000000000000000000000000000000000000000000000000000000000000000000000000000000000000000000000000000000000000000000000000000000000000000000000000000000000000000000000000000000000000000000000000000000000000000000000000000000000000000000000000000000000000000000000000000000000000000000000000000000000000000000000000000000000000000000000000000000000000000000000000000000000000000000058000000000000000000000000000000000000000000000000000000000000000000000000000000000000000000000000000000000000000000000000000000000000000000000000000000000000000000000000000000000000000000000000000000000000000000000000000000000000000000000000000000000000000000000000000000000000000000000000000000000000000000000000000000000000000000000000000000000000000000000000000000000000000000000000000000000000000000000000000000000000000000000000005600000000000000000000000000000000000000000000000000000000000000000000000000000000560000000000000000000000000000000000000000000000000000000000000000000000000000000000000000000000000000000000000000000000000000000000000000000000000000000000000000000000000000000000000000000000000000000000000000000000000000000000000000000000000000000000000000000000000000000000000000000000000000000000000000000000000000000000000000000000000000000000000000000000000000000000000000000000000000000000000000000000000000000000000000000000005800240000000000000000000000000000000000000000000000000000000000000000000000000000000000000000000000000000000000000000000000000000000000000000000000000000000000000000000000000000000000000000000000000000000000000000000000000000000000000000000000000000000000000000000000000000000000000000000000000000000000000000000000000000000000000000000000000000000000000000000000000000000000000000000000000000000000000000000000000000000000000000000000000000000000000000000000000000000000000000000000000000000000000000000000000000000000000000000000000000000000000000000000000000000000000000000000000000000000000000000000000000000000000000000000000000000000000000000000000000000000000000000000000000000000000000000000000000000000000000000000000000000000000000000000000000000000000000000000000000000000000000000000000000000000000000000000000000000000000000000000000000000000000000000000000000000000000000000000000000000000000000000000000000000000000000000000000000000000000000000000000000000000000000000000000000000000000000000000000000000000000000000000000000000000000000000000000000000000000000000000000000000000000000000000000000000000000000000000000000000000000000000000000000000000000000000000000000000000000000000000000000000000000000000000000000000000000000000000000000000000000000000000000000000000000000000000000000000000000000000000000000000000000000000000000000000000000000000000000000000000000000000000000000000000000000000000000000000000000000000000
#026341:000000000000000000000000000000000000000000000000000000000000000000000000000000000000000000000000000000000000000000000000000000000000000000000000000000000000000000000000000000000000000000000000000000000000000000000000000000000000000000000000000000000000000000000000000000000000000000000000000000000000000000000000000000000000000000000000000000000000000000000000000000000000000000000000000000000000000000000000000000000000000000000000000000000000000000000000000000000000000000000000000000000000000000000000000000000000000000000000000000000000000000000000000000000000000000000000000000000000000000000000000000000000000000000000000000000000000000000000000000000000000000000000000000000000000000000000000000000000000000000000000000000000000000000000000000000000000000000000000000000000000000000000000000000000000000000000000000000000000000000000000000000000000000000000000000000000000000000000000000000000000000000000000000000000000000000000000000000000000000000000000000000000000000000000000000000000000000000000000000000000000000000000000000000000000000000000000000000000000000000000000000000000000000000000000000000000000000000000000000000000000000000000000000000000000000000000000000000000000000000000000000000000000000000000000000000000000000000000000000000000000000000000000000000000000000000000000000000000000000000000000000000000000000000000000000000000000000000000000000000000000000000000000000000000000000000000000000000000000000000000145800000000000000000000000000000000000000000000000000000000000000000000000000000000000000000000000000000000000000000000000000000000000000000000000000000000000000000000000000000000000000000000000000000000000000000000000000000000000000000000000000000000000000000000000000000000000000000000000000000000000000000000000000000000000000000000000000000000000000000000000000000000000000000000000000000000000000000000000000000000000000000000000000000000000000000000000000000000000000000000000000000000000000000000000000000000000000000000000000000000000000000000000000000000000000000000000000000000000000000000000000000000000000000000000000000000000000000000000000000000000000000000000000000000000000000000000000000000000000000000000000000000000000000000000000000000000000000000000000000000000000000000000000000000000000000000000000000000000000000000000000000000000000000000000000000000000000000000000000000000000000000000000000000000000000000000000000000000000000000058000000000000000000000000000000000000000000000000000000000000000000000000000000000000000000000000000000000000000000000000000000000000000000000000000000000000000000000000000000000000000000000000000000000000000000000000000000000000000000000000000000000000000000000000000000000000000000000000000000000000000000000000000000000000000000000000000000000000000000000000000000000000000000000000000000000000000000000000000000000000000000000000000000000000000000000000000000000000000000000000000000000000000000000000000000000000000000000000000000000000000000000000000000000000000000000000000000000000000000000000000000000000000000000000000000000000000000000000000000000000000000000000000000000000000000000000000000000000000000000000000000000000000000000000000000000000000000000000000000000000000000000000000000000000000000000000000000000000000000000000000000000000000000000000000000000000000000000000000000000000000000000000000000000000000000000000000000000000000000000000000000000000000000000000000000000000000000000000000000000000000000000000000000000000000000000000000000000000000000000000000000000000000000000000000000000000000000000000000000000000000000000000000000000000000000000000000000000000000000000000000000000000000000000000000000000000000000000000000000000000000000000000000000000000000000000000000000000000000000000000000000000000000000000000000000000000000000000000000000000000000000000000000000000000000000000000000000000000000000000000
#026361:000000000000000000000000000000000000000000000000000000000000000000000000000000000000000000000000000000000000000000000000000000000000000000000000000000000000000000000000000000000000000000000000000000000000000000000000000000000000000000000000000000000000000000000000000000000000000000000000000000000000000000000000000000000000000000000000000000000000000000000000000000000000000000000000000000000000000000000000000000000000000000000000000000000000000000000000000000000000000000000000000000000000000000000000000000000000000000000000000000000000000000000000000000000000000000000000000000000000000000000000000000000000000000000000000000000000000000000000000000000000000000000000000000000000000000000000000000000000000000000000000000000000000000000000000000000000000000000000000000000000000000000000000000000000000000000000000000000000000000000000000000000000000000000000000000000000000000000000000000000000000000000000000000000000000000000000005600000000000000000000000000000000000000005600000000000000000000000000000000000000000000000000000000000000000000000000000000000000000000000000000000000000000000000000000000000000000000000000000000000000000000000000000000000000000000000000000000000000000000000000000000000000000000000000000000000000000000000000000000000000000000000000000000000000000000000000000000000000000000000000000000000000000000000000000000000000000000000000000000000000000000000000000000000000000000000000000000000000000000000000000000000000000000000000000000000000000000000000000000000000000000000000000000000000000000000000000000000000000000000000000000000000000000000000000000000000000000000000000000000000000000000000000000000000000000000000000000000000000000000000000000000000000000000000000000000000000000000000000000000000000000000000000000000000000000000000000000000000000000000000000000000000000000000000000000000000000000000000000000000000000000000000000000000000000000000000000000000000000000000000
#026381:0000000000240000
#027371:0013002300000000
#0273b1:00530000
#027320:0000001300230000
#027360:0053
#027370:00000013
#0273b0:0000000000000053
#0283b0:23
#028361:13
#028321:0053230000000000
#028321:0000001300000000
#028391:00000000000000530053005300000000
#028361:0000000000000000000000000000005300000053000000530000000000000000
#028341:0000000053333300
#028371:0000000000000000000000000000000000530000005300000000000000000000
#0283b1:0000000000000023
#0283b0:0000001300000000
#028340:00000000000000530053005300000000
#028370:000000000000000000000000000000000000000000000000000000000000000000000000000000000000000000000000000000000000000000000000000000000000000000000000000000000000000000000000000000000000000000000000000000000000000000000000000000000000000000000000000000000000000000000000000000000000000000000000000000000000000000000000000000000000000000000000000000000000000000000000000000000000000000000000000000000000000000000000000000000000000000000000000000000000000000000000000000000000000000000000000000000000000000000000000000000000000000000000000000000000000000000000000000000000000000000000000000000000000000000000000000000000000000000000000000000000000000000000000000000000000000000000000000000000000000000000000000000000000000000000000000000000000000000000000000000000000000000000000000000000000000000000000000000000000000000000000000000000000000000000000000000000000000000000000000000000000000000000000000000000000000000000000000000000000000000000000000000000000000000000000000000000000000000000000000000000000000000000000000000000000000000000000000000000000000000000000000000000000000000000000000000000000000000000000000000000000000000000000000000000000000000000000000000000000000000000000000000000000000000000000000000000000000000000000000000000000000000000000000000000000000000000000000000000000000000000000000000000000000000000000000000000000000000000000000000000000000000000000000000000000000000000000000000000000000000000000000000000000000000000000000000000000000000000000000000000000000000000000000000000000000000000000000000000000000000000000000000000000000000000000000000000000000000000000000000000000000000000000000000000000000000000000000000000000000000000000000000000000000000000000000000000000000000000000000000000000000000000000000000000000000000000000000000000000000000000000000000000000000000000005300000000000000000000000000000000000000000000000000000000000000000000000000000000000000000000000000000000000000000000000000000000000000000000000000000000000000000000000000000000000000000000000000000000000000000000000000000000000000000000000000000000000000000000000000000000000000000000000000000000000000000000000000000000000000000000000000000000000000000000000000000000000000000000000000000000000000000000000000000000000000000000000000000000000000000000000000000000000000000000005300000000000000000000000000000000000000000000000000000000000000000000000000000000000000000000000000000000000000000000000000000000000000000000000000000000000000000000000000000000000000000000000000000000000000000000000000000000000000000000000000000000000000000000000000000000000000000000000000000000000000000000000000000000000000000000000000000000000000000000000000000000000000000000000000000000000000000000000000000000000000000000000000000000000000000000000000000000000000000000005300000000000000000000000000000000000000000000000000000000000000000000000000000000000000000000000000000000000000000000000000000000000000000000000000000000000000000000000000000000000000000000000000000000000000000000000000000000000000000000000000000000000000000000000000000000000000000000000000000000000000000000000000000000000000000000000000000000000000000000000000000000000000000000000000000000000000000000000000000000000000000000000000000000000000000000000000000000000000000000000000000000000000000000000000000000000000000000000000000000000000000000000000000000000000000000000000000000000000000000000000000000000000000000000000000000000000000000000000000000000000000000000000000000000000000000000000000000000000000000000000000000000000000000000000000000000000000000000000000000000000000000000000000000000000000000000000000000000000000000000000000000000000000000000000000000000000000000000000000000000000000000000000000000000000000000000000000000000000000000000000000000000000000000000000000000000000000000000000000000000000000000000000000000000000000000000000000000000000000000
#028390:0000000053333300
#028360:000000000000000000000000000000000000000000000000000000000000000000000000000000000000000000000000000000000000000000000000000000000000000000000000000000000000000000000000000000000000000000000000000000000000000000000000000000000000000000000000000000000000000000000000000000000000000000000000000000000000000000000000000000000000000000000000000000000000000000000000000000000000000000000000000000000000000000000000000000000000000000000000000000000000000000000000000000000000000000000000000000000000000000000000000000000000000000000000000000000000000000000000000000000000000000000000000000000000000000000000000000000000000000000000000000000000000000000000000000000000000000000000000000000000000000000000000000000000000000000000000000000000000000000000000000000000000000000000000000000000000000000000000000000000000000000000000000000000000000000000000000000000000000000000000000000000000000000000000000000000000000000000000000000000000000000000000000000000000000000000000000000000000000000000000000000000000000000000000000000000000000000000000000000000000000000000000000000000000000000000000000000000000000000000000000000000000000000000000000000000000000000000000000000000000000000000000000000000000000000000000000000000000000000000000000000000000000000000000000000000000000000000000000000000000000000000000000000000000000000000000000000000000000000000000000000000000000000000000000000000000000000000000000000000000000000000000000000000000000000000000000000000000000000000000000000000000000000000000000000000000000000000000000000000000000000000000000000000000000000000000000000000000000000000000000000000000000000000000000000000000000000000000000000000000000000000000000000000000000000000000000000000000000000000000000000000000000000000000000000000000000000000000000000000000000000000000000000000000000000000000000000000000000000000000000000000000000000000000000000000000000000000000000000000000000000000000000000000000000000000000000000000000000000000000000000000000000000000000000000000000000000000000000000000000000000000000000000000000000000000005300000000000000000000000000000000000000000000000000000000000000000000000000000000000000000000000000000000000000000000000000000000000000000000000000000000000000000000000000000000000000000000000000000000000000000000000000000000000000000000000000000000000000000000000000000000000000000000000000000000000000000000000000000000000000000000000000000000000000000000000000000000000000000000000000000000000000000000000000000000000000000000000000000000000000000000000000000000000000000000005300000000000000000000000000000000000000000000000000000000000000000000000000000000000000000000000000000000000000000000000000000000000000000000000000000000000000000000000000000000000000000000000000000000000000000000000000000000000000000000000000000000000000000000000000000000000000000000000000000000000000000000000000000000000000000000000000000000000000000000000000000000000000000000000000000000000000000000000000000000000000000000000000000000000000000000000000000000000000000000000000000000000000000000000000000000000000000000000000000000000000000000000000000000000000000000000000000000000000000000000000000000000000000000000000000000000000000000000000000000000000000000000000000000000000000000000000000000000000000000000000000000000000000000000000000000000000000000000000000000000000000000000000000000000000000000000000000000000000000000000000000000000000000000000000000000000000000000000000000000000000000000000000000000000000000000000000000000000000000000000000000000000000000000000000000000000000000000000000000000000000000000000000000000000000000000000000000000000000000000000000000000000000000000000000000000000000000000000000000000000000000000000000000000000000000000000000000000000000000000000000000000000000000000000000000000000000000000000000000000000000000000000000000000000000000000000000000000000000000000
#028320:0000000000000023
#029350:0013
#029320:00000023
#029381:0013
#0293b1:00000023
#030361:00001323
#0303b0:00000013
#030370:0000000000000053
#0313b0:23
#031321:13
#031361:00230000
#0313b1:0013
#031371:00000023
#032321:0013005300000000
#032351:00532300
#033361:13230000
#033321:0053000000000000
#0333b1:0000001300230000
#033371:0053
#0343b1:13230000
#034371:0053000000000000
#034361:0000001300230000
#034321:0053
#035361:13230000
#035321:0053000000000000
#035371:0000001300230000
#0353b1:0053
#036361:0000000000130000
#037321:0000002300000000
#037370:0000001300000000
#0383b0:0023000000000000
#038361:0013002300000000
#038321:00530000
#0383b0:0000001300230000
#039320:13
#039360:00230000
#0393b0:0000001300000000
#039370:0000000000230000
#0403b0:0013005300000000
#040380:00532300
#041370:13230000
#0413b0:0053000000000000
#041320:0000001300230000
#041360:0053
#042320:13230000
#042360:0053000000000000
#042370:0000001300230000
#0423b0:0053
#043370:13230000
#0433b0:0053000000000000
#043360:0000001300230000
#043320:0053
#045370:0013005300230000
#0453b0:00535300
#045321:0000001300230000
#045361:0053
#046361:0000001300530023
#046321:00005353
#0463b0:0000000000130023
#046370:00000053
#047370:0000000000000013
#0483b0:0023000000000000
#048360:00130000
#048320:0023
#049320:1222
#050320:0000000000000013
#051350:26
#0513b1:13
#051351:0026000000000000
#051320:0013000000000000
#051350:00260000
#0513b1:00130000
#051351:0000002600000000
#051320:0000001300000000
#051350:0000000000260000
#052320:13230000
#052360:0053000000000000
#052370:0000001300230000
#0523b0:0053
#0533b0:13230000
#053370:0053000000000000
#054360:13230000
#054320:0053000000000000
#0553b0:0000000000132300
#055321:0000000000001323
#0563b1:1353002300000000
#056371:00530000
#056320:0013002300000000
#056360:000000000000000000000000000000000000000000000000000000000000000000000000000000000000000000000000000000000000000000000000000000000000000000000000000000000000000000000000000000000000000000000000000000000000000000000000000000000000000000000000000000000000000000000000000000000000000000000000000000000000000000000000000000000000000000000000000000000000000000000000000000000000000000000000000000000000000000000000000000000000000000000000000000000000000000000000000000000000000000000000000000000000000000000000000000000000000000000000000000000000000000000000000000000000000000000000000000000000000000000000000000000000000000000000000000000000000000000000000000000000000000000000000000000000000000000000000000000000000000000000000000000000000000000000000000000000000000000000000000000000000000000000000000000000000000000000000000000000000000000000000000000000000000000000000000000000000000000000000000000000000000000000000000000000000000000000000000000000000000000000005300000000000000000000000000000000000000000000000000000000000000000000000000000000000000000000000000000000000000000000000000000000000000000000000000000000000000000000000000000000000000000000000000000000000000000000000000000000000000000000000000000000000000000000000000000000000000000000000000000000000000000000000000000000000000000000000000000000000000000000000000000000000000000000000000000000000000000000000000000000000000000000000000000000000000000000000000000000000000000000000000000000000000000000000000000000000000000000000000000000000000000000000000000000000000000000000000000000000000000000000000000000000000000000000000000000000000000000000000000000000000000000000000000000000000000000000000000000000000000000000000000000000000000000000000000000000000000000000000000000000000000000000000000000000000000000000000000000000000000000000000000000000000000000000000000000000000000000000000000000000000000000000000000000000000000000000000000000000000000000000000000000000000000000000000000000000000000000000000000000000000000000000000000000000000000000000000000000000000000000000000000000000000000000000000000000000000000000000000000000000000000000000000000000000000000000000000000000000000000000000000000000000000000000000000000000000000000000000000000000000000000000000000000000000000000000000000000000000000000000000000000000000000000000000000000000000000000000000000000000000000000000000000000000000000000000000000000000000000000000000000000000000000000000000000000000000000000000000000000000000000000000000000000000000000000000000000000000000000000000000000000000000000000000000000000000000000000000000000000000000000000000000000000000000000000000000000000000000000000000000000000000000000000000000000000000000000000000000000000000000000000000000000000000000000000000000000000000000000000000000000000000000000000000000000000000000000000000000000000000000000000000000000000000000000000000000000000000000000000000000000000000000000000000000000000000000000000000000000000000000000000000000000000000000000000000000000000000000000000000000000000000000000000000000000000000000000000000000000000000000000000000000000000000000000000000000000000000000000000000000000000000000000000000000000000000000000000000000000000000000000000000000000000000000000000000000000000000000000000000000000000000000000000000000000000000000000000000000000000000000000000000000000000000000000000000000000000000000000000000000000000000000000000000000000000000000000000000000000000000000000000000000000000000000000000000000000000000000000000000000000000000000000000000000000000000000000000000000000000000000000000000000000000000000000000000000000000000000000000000000000000000000000000000000000000000000000000000000000000000000000000000000000000000000000000000000000000000000000000000000000000000000000000000000000000000000000000000000000000000000000000000000000000000000000000000000000000000000000000000
#057360:0000001300230000
#057320:0053
#058350:0000000000000016
#059320:23
#059351:16
#0593b1:0023000000000000
#059350:0016000000000000
#059320:00230000
#059351:00160000
#0593b1:0000002300000000
#059350:0000001600000000
#059320:0000000000230000
#0603b0:13230000
#060370:0053000000000000
#060360:0000001300230000
#060320:0053
#061320:13230000
#061360:0053000000000000
#062370:13230000
#0623b0:0053000000000000
#063320:0000000000132300
#0633b1:0000000000001323
#064321:1353002300000000
#064361:00530000
#0643b0:0013002300000000
#064370:000000000000000000000000000000000000000000000000000000000000000000000000000000000000000000000000000000000000000000000000000000000000000000000000000000000000000000000000000000000000000000000000000000000000000000000000000000000000000000000000000000000000000000000000000000000000000000000000000000000000000000000000000000000000000000000000000000000000000000000000000000000000000000000000000000000000000000000000000000000000000000000000000000000000000000000000000000000000000000000000000000000000000000000000000000000000000000000000000000000000000000000000000000000000000000000000000000000000000000000000000000000000000000000000000000000000000000000000000000000000000000000000000000000000000000000000000000000000000000000000000000000000000000000000000000000000000000000000000000000000000000000000000000000000000000000000000000000000000000000000000000000000000000000000000000000000000000000000000000000000000000000000000000000000000000000000000000000000000000000000005300000000000000000000000000000000000000000000000000000000000000000000000000000000000000000000000000000000000000000000000000000000000000000000000000000000000000000000000000000000000000000000000000000000000000000000000000000000000000000000000000000000000000000000000000000000000000000000000000000000000000000000000000000000000000000000000000000000000000000000000000000000000000000000000000000000000000000000000000000000000000000000000000000000000000000000000000000000000000000000000000000000000000000000000000000000000000000000000000000000000000000000000000000000000000000000000000000000000000000000000000000000000000000000000000000000000000000000000000000000000000000000000000000000000000000000000000000000000000000000000000000000000000000000000000000000000000000000000000000000000000000000000000000000000000000000000000000000000000000000000000000000000000000000000000000000000000000000000000000000000000000000000000000000000000000000000000000000000000000000000000000000000000000000000000000000000000000000000000000000000000000000000000000000000000000000000000000000000000000000000000000000000000000000000000000000000000000000000000000000000000000000000000000000000000000000000000000000000000000000000000000000000000000000000000000000000000000000000000000000000000000000000000000000000000000000000000000000000000000000000000000000000000000000000000000000000000000000000000000000000000000000000000000000000000000000000000000000000000000000000000000000000000000000000000000000000000000000000000000000000000000000000000000000000000000000000000000000000000000000000000000000000000000000000000000000000000000000000000000000000000000000000000000000000000000000000000000000000000000000000000000000000000000000000000000000000000000000000000000000000000000000000000000000000000000000000000000000000000000000000000000000000000000000000000000000000000000000000000000000000000000000000000000000000000000000000000000000000000000000000000000000000000000000000000000000000000000000000000000000000000000000000000000000000000000000000000000000000000000000000000000000000000000000000000000000000000000000000000000000000000000000000000000000000000000000000000000000000000000000000000000000000000000000000000000000000000000000000000000000000000000000000000000000000000000000000000000000000000000000000000000000000000000000000000000000000000000000000000000000000000000000000000000000000000000000000000000000000000000000000000000000000000000000000000000000000000000000000000000000000000000000000000000000000000000000000000000000000000000000000000000000000000000000000000000000000000000000000000000000000000000000000000000000000000000000000000000000000000000000000000000000000000000000000000000000000000000000000000000000000000000000000000000000000000000000000000000000000000000000000000000000000000000000000000000000000000000000000000000000000000000000000000000000000000000000000000000000000000000000
#065370:0000001300230000
#0653b0:0053
#0663b0:13
#066370:00230000
#066360:0000001300000000
#066320:0000000000230000
#067390:13
#0673b0:0053000000000000
#067370:00230000
#067341:00130000
#067321:0000005300000000
#067361:0023
#067390:0013
#0673b0:0000000000530000
#067370:00000023
#067341:00000013
#067321:0000000000000053
#068361:53
#068321:0023
#0683b0:13
#068370:0023
#0703b0:13230000
#070380:0053000000000000
#070321:00132300
#070351:0000005300000000
#0703b0:0000000013230000
#070370:0000000000001323
#070321:0000000000000013
#071361:53
#071321:0023000000000000
#071370:0013000023000000
#0713b0:0000535300000000
#071321:0000000013000023
#071361:0000000000535300
#072321:13230000
#072351:0053000000000000
#0723b0:00132300
#072380:0000005300000000
#072321:0000000013230000
#072361:0000000000001323
#0723b0:0000000000000013
#073370:53
#0733b0:0023000000000000
#073361:0013000023000000
#073321:0000535300000000
#0733b0:0000000013000023
#073370:0000000000535300
#074360:13
#074320:0053000000000000
#074340:00230000
#074371:00130000
#0743b1:0000005300000000
#074391:0023
#074360:0013
#074320:0000000000230000
#0743b0:00000013
#074370:0000000000000023
#074321:0000000000000013
#075361:53
#075321:0023000000000000
#075370:0013005300000000
#0753b0:00532300
#075361:00001353
#075321:0000000000530023
#076371:13
#0763b1:0053000000000000
#076391:00230000
#076360:00130000
#076320:0000005300000000
#076340:0023
#076371:0013
#0763b1:0000000000230000
#076321:00000013
#076361:0000000000000023
#0763b0:0000000000000013
#077370:53
#0773b0:0023000000000000
#077350:0000132300000000
#077330:000000000000005353000000000000000000000000000000
#077381:0000132300000000
#0773a1:000000000000005353000000000000000000000000000000
