This file was generated by Ched 2.6.4.0.
#TITLE ""
#ARTIST ""
#DESIGNER ""
#DIFFICULTY 0
#PLAYLEVEL
#SONGID ""
#WAVE ""
#WAVEOFFSET 0
#JACKET ""
#REQUEST "ticks_per_beat 480"
#00002: 4
#BPM01: 170
#00008: 01
#TIL00: ""
#HISPEED 00
#MEASUREHS 00
#0091a:14141400
#00910:41
#01012:14141400
#01118:14141400
#01214:14141400
#0131a:14
#01319:00140000
#01318:0014
#01412:14
#01413:00140000
#01414:0014
#01518:14
#01519:00140000
#0151a:0014
#01614:14
#01613:00140000
#01612:0014
#0171a:1414
#01714:00140000
#01814:1414
#0181a:00140000
#01810:41
#0211a:14
#02116:00140000
#02112:0014
#0221a:1414
#02214:00140014
#0231a:14
#0291a:14
#02916:00140000
#02912:0014
#0301a:14
#03014:00140000
#03018:0014
#03012:00000014
#03214:14
#02412:14
#03118:14
#01918:1414
#01912:00140000
#02012:1414
#02018:00140000
#0251a:14
#02514:00140000
#02518:0014
#02612:14
#02618:00140000
#02614:0014
#02718:14
#02714:00140000
#0271a:0014
#02814:14
#02818:00140000
#02812:0014
#02810:41
#0331a:1414
#03314:00140014
#03418:1414
#03412:00140000
#03512:1414
#03518:00140014
#03614:1414
#0361a:00140000
#0411a:14
#04114:00140000
#04118:0014
#04112:00000014
#0411f:11
#04218:14
#04214:00140000
#0421a:0014
#04312:14
#04318:00140000
#04314:0014
#0431a:00000014
#04414:14
#04418:00140000
#04412:0014
#04614:14
#04612:00140000
#04518:14
#0451a:00140000
#0371a:14
#03718:00140000
#03812:14
#03814:00140000
#0391a:14
#03918:00140000
#03910:41
#04012:14
#04014:00140000
#04814:14
#04812:00140000
#04718:14
#0471a:00140000
#05012:00160000
#05018:26001414
#05014:0000000000140014
#0501f:21
#05212:1616
#05218:00160014
#05214:0000000000000014
#05412:14
#0541a:00140000
#05414:0014
#05418:00000014
#05512:14
#0551a:00140000
#05514:0014
#05518:00000014
#05612:14
#0561a:00140000
#05614:0014
#05618:00000014
#05812:0000160000000014
#0581a:0014
#05814:0000000000140000
#05818:26000014
#06012:1616
#06018:00160014
#06014:0000000000000014
#06214:14
#06218:00140000
#06212:0014
#0621a:00000014
#06314:14
#06318:00140000
#06312:0014
#0631a:00000014
#06414:14
#06418:00140000
#06412:0014
#0641a:00000014
#0611a:0000001400000000
#06514:14
#0661a:14
#06614:00140000
#06618:0014
#06612:00000014
#0681a:14
#0701a:1414
#07016:00000014
#07012:00140000
#0711a:14
#07112:00140000
#07116:0014
#07212:1414
#0721a:00140000
#07216:00000014
#07312:14
#0731a:00140000
#07316:0014
#07418:00140000
#07414:0014
#0741a:00000014
#07412:14
#07512:14
#07516:00140000
#0751a:0014
#07614:00140000
#07618:0014
#07612:00000014
#0761a:14
#07718:1600001600000000
#07712:00160000
#05112:3414340000000000
#05118:00000016
#05110:41
#05914:3414340000000000
#05918:00000016
#06919:2424
#06913:2424
#06710:41
#0235a:64
#03254:64
#02452:54
#03158:54
#04654:64
#04652:00240000
#04558:54
#0455a:00240000
#0375a:64
#03758:00240000
#03852:54
#03854:00240000
#0395a:64
#03958:00240000
#04052:54
#04054:00240000
#04854:64
#04852:00240000
#04758:54
#0475a:00240000
#05358:0000000000140000
#05752:0000000000140000
#06158:0000000000140000
#0615a:0000006400000000
#06552:0000000000140000
#06554:64
#0685a:64
#05054:0000000000000064
#05152:0024000000000000
#05852:0000000000000054
#05954:0024000000000000
#0013a0:1424
#002320:1424
#003380:1424
#004340:1424
#0053a0:14
#005380:0024
#006320:14
#006340:0024
#0073a0:14
#008380:24
#0233a0:14
#023380:0024
#024320:14
#024340:0024
#031380:14
#0313a0:0024
#032340:14
#032320:0024
#0373a0:1424
#037380:00540000
#038320:1424
#038340:00540000
#0393a0:1424
#039380:00540000
#040320:1424
#040340:00540000
#045380:1424
#0453a0:00540000
#046340:1424
#046320:00540000
#047380:1424
#0473a0:00540000
#048340:1424
#048320:00540000
#0493a0:1424
#049321:1424
#050341:0000000000000014
#051321:3434340000000000
#051341:0000002400000000
#053381:1400343400240000
#057321:1400343400240000
#058321:0000000000000014
#059341:3434340000000000
#059321:0000002400000000
#0613a1:1400343400000000
#061381:0000000000240000
#065341:14
#065321:0000343400240000
#0673a1:14
#067381:00240000
#067321:0014
#067341:00000024
#0683a1:14
#068361:00000024
