This file was generated by Ched 2.6.4.0.
#TITLE ""
#ARTIST ""
#DESIGNER ""
#DIFFICULTY 0
#PLAYLEVEL
#SONGID ""
#WAVE ""
#WAVEOFFSET 0
#JACKET ""
#REQUEST "ticks_per_beat 480"
#00002: 4
#BPM01: 210
#00008: 01
#TIL00: ""
#HISPEED 00
#MEASUREHS 00
#0011a:14
#0021a:14
#00312:14
#00412:14
#00518:14
#00618:14
#00714:14
#00814:14
#0091a:14
#00910:41
#0101a:14
#01114:14
#01214:14
#01318:14
#01418:14
#01512:14
#01612:14
#0171a:14
#01814:14
#0191a:14
#02014:14
#02314:14
#02418:14
#02512:14
#02510:41
#02618:14
#02712:14
#02818:14
#03118:14
#03214:14
#0331a:14
#03412:14
#0351a:14
#03612:14
#03718:14
#03710:41
#03814:14
#03918:14
#04014:14
#04919:14
#04913:14
#05118:14
#05214:14
#05318:2616
#0531f:21
#05412:1616
#05518:16
#05512:0016
#05510:41
#05618:16
#05612:0016
#06112:2616
#06218:1616
#06312:16
#06318:0016
#06412:16
#06418:0016
#05918:16
#05912:0016
#06018:16
#06712:16
#06819:14
#06813:14
#06919:14
#06913:14
#07212:0016
#07218:26
#07210:41
#07318:16
#07312:0016
#07418:1616
#07512:1616
#08018:0016
#08012:26
#08112:16
#08118:0016
#08212:1616
#08318:1616
#07818:16
#07812:0016
#07918:16
#08612:16
#08713:1414
#08719:1414
#08818:14
#08918:14
#09012:14
#09112:14
#0921a:14
#0931a:14
#09414:14
#09514:14
#09513:0014
#09519:0014
#0411f:11
#08410:41
#0213a0:14
#0223a0:24
#029320:14
#030320:24
#0413a0:14
#0423a0:24
#043320:14
#044320:24
#045380:14
#046380:24
#047340:14
#048340:24
#057380:1626
#058320:1626
#065320:1626
#066380:1626
#070350:16
#071350:26
#076380:1626
#077320:1626
#084320:1626
#085380:1626
