This file was generated by Ched 2.6.4.0.
#TITLE ""
#ARTIST ""
#DESIGNER ""
#DIFFICULTY 0
#PLAYLEVEL
#SONGID ""
#WAVE ""
#WAVEOFFSET 0
#JACKET ""
#REQUEST "ticks_per_beat 480"
#00002: 4
#BPM01: 210
#00008: 01
#TIL00: ""
#HISPEED 00
#MEASUREHS 00
#00018:1300130000130000
#00015:0013
#0001b:00000013
#00012:00000013
#00117:1313
#00116:0000130000130000
#0011b:0000000000130000
#00316:1313
#00317:0000130000130000
#00312:0000000000130000
#0031b:0000000000000013
#00418:13130000
#00415:0013001300000000
#0041b:0023
#00412:0023
#0051b:1313
#00512:0000130000130000
#00515:00000013
#00618:00130000
#00615:0000001300000000
#00712:1300000000000013
#00715:0013000000000000
#00718:00130000
#0071b:0000001300130000
#00716:0000000000130000
#00717:0000000000000013
#00816:00003313330000000000000000000000
#0081a:0013000000000000
#0081b:00130000
#00819:0000001300000000
#00817:0013
#00815:0000003300001600
#00918:0013000000001300
#00915:0000130000130013
#00912:2300001300000000
#0091b:23
#00910:41
#01012:0013001300130000
#01015:0000130000000013
#01018:0000001300001300
#0101b:0000000000130000
#01112:13
#01115:0013000000001300
#01118:0000130000130013
#0111b:1300001300000000
#0121b:0013000000000013
#01218:00130000
#01215:0000001300000013
#01212:00001313
#01312:1300000000130000
#01315:0013001300000013
#01318:13130013
#01415:0013001300000000
#01412:0000130000000013
#0141b:0000001300000000
#01414:00000013
#01416:0000000000130000
#01419:0000000000003333
#01515:0000000000130000
#01518:00000013
#01519:00130000
#01517:0013000000000000
#0151b:0000001300000000
#0151a:0000000000000024
#01514:0033330000000024
#01815:00000013
#01818:0000000000000013
#0181b:0000001300000000
#01812:13
#01819:0000000000130000
#01817:13
#02015:00000013
#02018:0000000000000013
#02016:13
#0201b:1300000000130000
#02017:0000001300000000
#02312:13
#02316:00130000
#0231b:0000000000130000
#02317:0000001300000013
#03216:00140000
#0321a:0000001400000000
#03212:0014000000130000
#0321b:0000000000130000
#03218:0013
#03215:0013
#01716:0000001300000000
#0171b:0013
#01717:0000000000000013
#01712:23
#01916:13
#01912:0000001300000000
#01917:0013
#0191b:0000000000000013
#0221b:0000001300000000
#02219:00130000
#02212:0013000000000000
#02216:0000001300001300
#02217:0013000000000000
#02116:0000000000000013
#02114:00130013
#02112:0000001300130000
#02115:13
#0211b:13
#02117:00000000000000130000000000000000
#02516:23000000000013000000001300000000
#02517:00000013000000001300000000001300
#0251b:13
#02512:0013
#02510:41
#02716:0013
#02712:13000000000013000000001300000000
#02717:13
#0271b:00000013000000001300000000001300
#02816:1300001300000000
#0281b:13
#02818:00000013
#02815:0000000000000013
#02812:0000000000130000
#02612:1300001300000000
#02617:13000013
#0261b:0000000000000013
#02616:0013
#03012:0000001300000000
#03014:00130000
#03017:0000001300000000
#03018:00000013
#03015:0000000000000013
#03016:0013000000000000
#0301b:0013000000000000
#0331b:00000013
#03316:24000013
#03312:0000000000000013
#03315:00260000
#03314:0028
#03618:00130000
#03615:0000001300000000
#03617:1313
#0361b:0000000000130000
#03612:1313
#03616:0000000000130000
#0351b:0000000000001313
#03516:0000000000001313
#03518:24252600
#03512:0026
#03514:24
#03513:00250000
#03417:00000000000000000013000000000000
#0341b:0000001300000000
#03412:00000000000000000013000000000000
#03416:0000001300000000
#03418:00130000
#03415:0013000000000000
#03718:12120000
#03716:0012001200000000
#0371a:0012
#03714:0012
#0371b:00000013
#03712:00000013
#03719:0000000000000024
#03713:0000000000000024
#03710:41
#0431b:1300130013000013
#04314:0000000000000013
#04312:1300000000130000
#04315:00131300
#04318:0000000000130000
#04417:14
#04414:0013000000000000
#04412:00131300
#04415:0000001400001600
#0441b:0013000000000000
#04419:00131300
#04619:00130013
#04615:0013
#0461b:0023000000000023
#04617:0000002300230000
#04612:0000002300230000
#04616:0000000000000023
#04712:1300230000130000
#04715:0013000013002300
#04718:1300230000130000
#0471b:0013000013002300
#04818:13241526
#04814:00140000
#04812:00000016
#04815:23
#04813:0025
#05016:14141414
#05118:13000000000000001300001300000000
#05115:0000130000131300
#05218:0000130000001313
#05215:0013000013130000
#05212:00000000000013000000000000130000
#0521b:00000000000013000013000000000000
#05312:0000001300000000
#05315:2300000013001313
#0531b:23000000000000000000000000130000
#05318:0000000000130000
#0531f:21
#0541b:0000000000130000
#05418:13000013
#05415:0000000000000013
#05412:13
#05512:1300000013000013
#05515:0013000000131300
#05518:0000130013000013
#0551b:0000001300001300
#05510:41
#0561b:0000001300000000
#05617:0000000000130000
#05618:00000013
#05615:0000000000000013
#05712:1300000013000013
#0571b:1300001300000000
#05718:00000000130000001300000000130000
#05715:00000000001300000000000013000000
#05819:0000000000130000
#05816:00000013
#05813:0000000000000013
#0581b:1313
#05815:1300001300000000
#05812:00131300
#05818:00000000001300000000000000000000
#08812:1313
#08816:0000000000130000
#0881b:0000130000130000
#0901b:1313
#09017:0000000000130000
#09012:0000130000130013
#09115:13130000
#09118:0013001300000000
#09112:0013
#0911b:0013
#09217:00130000
#09216:1313
#09218:00000013
#0921b:0000000000130000
#09315:00130000
#09318:0000001300000000
#0941b:1300000000000013
#09417:0000000000130000
#09412:0000001300130000
#09416:0000000000000013
#09418:0013000000000000
#09415:00130000
#09517:00003313330000000000000000000000
#09513:0013000000000000
#09512:00130000
#09514:0000001300000000
#09516:0013
#09518:0000003300000000
#05913:0013000000000000
#05917:00130000
#0591b:0000001300130023
#05916:00000013
#05912:0000000000000023
#06015:0000000000001313
#06018:0023230013130000
#0601b:00000000000000000000000000130000
#06012:00002300230000000013000000000000
#0621b:13
#06215:13000013
#06212:0000000000130000
#06218:0000000000000013
#0641b:13
#06412:1300001300000000
#06416:0000000000130000
#06415:00000013
#06418:0000000000000013
#0651b:1313
#06517:00000013
#06512:1300000000000013
#06512:13
#06516:00130000
#0661b:0013
#06617:00000013
#06612:1300000000000013
#06616:00130000
#0671b:0000000000130013
#06712:00000013000000130000000000001300
#06714:00130000001300000013000000000000
#06713:1313131313000000
#0701a:0000000000000000000000000000000000000000000000000000000000140000
#07019:00000000000000002300130023002414
#07018:0000000000000000000000000000000000000000000000000000000000000014
#07014:0000000000000000000000000000000013000000230000001300000000140000
#07013:00000000000000000000000000002414
#07012:0000000000000000000000000000000000000000000000000000000000000014
#07119:14141414000000000000000000000000
#0711a:0014000000140000000000000000000014000000140000000000000000000000
#07118:0000001400000014000000000000000000000000000000000000000000000000
#07113:14141414000000000000000000000000
#07114:0014000000140000000000000000000000000000000000000000000000000000
#07112:0000001400000014000000000000000000000000000000001400000014000000
#07116:00000000000000000014000000140000
#03915:13
#0391a:0000000014000022
#03918:13
#03919:0000001300000000
#03912:0013000014000000
#0391b:0013000000000000
#03914:0000001300000000
#03913:0000000000000024
#0841a:1414
#08416:00140014
#08412:1400000000000014
#08410:41
#08512:1400000000000014
#08516:00140014
#0851a:0014
#0871b:0013
#08718:0024000000130000
#08715:00000013
#08712:0024000000000013
#08713:00240000
#08714:0000002400000000
#08719:00240000
#0871a:0000002400000000
#0861a:0000000000140000
#08613:1414141414000024
#08614:00140000001400000014000000000000
#08612:00000014000000140000000000000000
#08619:0000000000000024
#07312:2400000000140000
#07316:00000014
#0731a:0000000000000014
#07318:24
#07412:1414000014000024
#0741a:1400001414140024
#07416:00140014
#0751a:0000001400001400
#07516:0000000000140014
#07612:1400000024000014
#0761a:1400001400000000
#07617:00000000140000002400000000140000
#07615:00000000001400000000000014000000
#0791a:0024240000001400
#07916:0000000000140014
#07912:0014
#07918:0014
#07914:0024240000001400
#08018:24000014
#08016:0000000000000014
#08012:2400000000141400
#07713:0000000000140000
#07716:0000001400001400
#07719:0000000000000014
#07714:00140000
#07718:00000000001400000000000000000000
#07715:24
#0771a:2424
#07712:0024
#0781a:0014000000000024
#07816:00140014
#07812:0000001400140024
#06812:0013141516000023
#0681b:0013000000000023
#0681a:00140000
#06819:0000001500000000
#06818:0016
#0381b:0000000000130000
#03818:00240013
#03815:0000000000000013
#0381a:0024002400000000
#03814:0024002400000000
#03812:00240000
#03112:13130000
#0311b:0000001300130000
#03118:00000013
#03115:0000000000000013
#01615:00000016
#01612:0024002424000000
#01618:0024000000000000
#0161a:0000002424000000
#0021b:0000000000000013
#08912:0000000000000013
#02415:0000000000130000
#02412:0000001413000000
#02418:0000000000130000
#0241b:0013
#02416:00140000
#0241a:0014000000000000
#0611b:0000001300000000
#06118:2300000013001313
#06112:23000000000000000000000000130000
#06115:0000000000130000
#0631b:1313
#06318:0013000000131300
#06315:0000130013000013
#06312:0000001300001300
#0721a:2400001400001414
#07212:00000000000000000000140000140000
#07216:0014
#07214:24
#07210:41
#08316:0000000000140014
#08312:2400001400001400
#0831a:24
#0811a:2400000000140000
#08116:00000014
#08112:0000000000000014
#08114:24
#0821a:1414000014001400
#08212:1400001414001400
#08216:0000140000140014
#02917:0000000000000013
#02919:00130013
#0291b:0000001300130000
#02918:13
#02912:13
#02916:00000000000000130000000000000000
#04112:0000130000000013
#0411b:23131313
#0411f:11
#04115:23
#04215:0013000000001300
#0421b:13131313
#04018:16
#04012:0000001600000000
#04013:0024000000000000
#04019:0000242424000000
#04014:00220000
#06912:0023242526000000
#0691b:0023000000000000
#0691a:00240000
#06919:0000002500000000
#06918:0026
#0451b:0023
#04517:0000000000230023
#04515:23
#04512:00230000
#00157:53
#00156:00630000
#00356:63
#00357:00530000
#0055b:63
#00552:00530000
#00752:0000000000000053
#00756:0000000000630000
#00856:00000023000000000000000000000000
#00852:0033
#00857:0033
#0255b:63
#02557:00000023000000000000000000000000
#02552:0053
#02556:00000000000000000000002300000000
#02756:0063
#02752:00000000000000000000002300000000
#02757:53
#0275b:00000023000000000000000000000000
#0215b:63
#02157:00000000000000230000000000000000
#0045b:0013
#00452:0013
#0065b:00000013
#00652:00000013
#03657:23005333
#0365b:0000000000230000
#03652:23005333
#03656:0000000000230000
#03457:00000000000000000023000000000000
#0345b:0000006300004300
#03452:00000000000000000023000000000000
#03456:0000006300004300
#03556:0000000000000063
#0355b:0000000000000063
#03558:14151600
#03552:0016
#03554:14
#03553:00150000
#04755:0023000063004300
#04755:00000043
#04752:5300330000230000
#04758:5300330000230000
#0475b:0023000063004300
#0475b:00000043
#08852:53
#0885b:00630000
#0905b:63
#09052:00530000
#09257:00530000
#09256:63
#0945b:0000000000000063
#09457:0000000000530000
#09557:00000023000000000000000000000000
#0955b:0043
#09556:0043
#0655b:0063
#06557:00000023
#06552:53
#06556:00230000
#0665b:0063
#06657:00000023
#06652:53
#06656:00230000
#0705a:0000000000000000000000000000000000000000000000000000000000240000
#07059:00000000000000000000000000005454
#07058:0000000000000000000000000000000000000000000000000000000000000024
#07054:0000000000000000000000000000000000000000000000000000000000240000
#07053:00000000000000000000000000005454
#07052:0000000000000000000000000000000000000000000000000000000000000024
#07159:54545454000000000000000000000000
#0715a:0024000000240000000000000000000000000000000000000000000000000000
#07158:0000002400000024000000000000000000000000000000000000000000000000
#07153:54545454000000000000000000000000
#07154:0024000000240000000000000000000000000000000000000000000000000000
#07152:0000002400000024000000000000000000000000000000000000000000000000
#03955:63
#03958:53
#03952:0023000014000000
#0395b:0023000000000000
#0395a:0000000014000022
#0845a:0064
#08456:00240024
#08452:54
#08552:54
#08556:00240024
#0855a:0064
#09352:00000013
#0935b:00000013
#06958:0046
#06952:0036
#06858:0046
#06852:0036
#00052:00000013
#0005b:00000013
#08653:5454545454000000
#08654:00240000002400000024000000000000
#08652:00000024000000240000000000000000
#0585b:1313
#05855:13
#05852:0013
#05758:0013
#05752:0013
#00952:0000001300000000
#00955:0000000000000013
#0115b:0000001300000000
#01158:0000000000000013
#01355:0000001300000013
#0155b:0000001300000000
#0155a:0000000000000014
#01554:0000000000000014
#0535b:13
#05355:13
#05552:0000000000000013
#05558:0000000000000013
#06152:13
#06158:13
#0625b:13
#06255:13
#0645b:13
#06452:13
#0725a:14
#07254:14
#08058:14
#08052:14
#06754:00230000002300000023000000000000
#06753:5353535353000000
#06752:00000023000000230000000000000000
#07657:0014
#07652:0014
#07755:14
#0775a:1414
#07752:0014
#09152:0013
#0915b:0013
#01652:0014000014000000
#01658:0014000000000000
#0165a:0014
#0325b:0000000000230000
#03258:0053
#03252:0000000000230000
#03255:0063
#02455:0000000000230000
#02452:0053
#0245b:0063
#02458:0000000000230000
#04858:00440046
#04855:33
#04853:0035
#05452:13
#05458:13
#07352:14
#07358:14
#07452:0000000000000014
#0745a:0000000000000014
#08154:14
#0815a:14
#0835a:14
#08352:14
#02952:53
#02956:00000000000000230000000000000000
#04054:00220000
#04058:66
#04052:0000006600000000
#04059:0014
#01852:13
#0205b:13
#02652:13
#0285b:13
#03355:00160000
#03354:0018
#03356:14
#001370:13
#0013b0:00230000
#001361:00130000
#001321:0023
#001321:0000000000000013
#002321:0023000000000000
#002380:0013230000000000
#002351:0000132300000000
#0023b0:0000001323000000
#002351:0000000013230000
#002380:0000000000132300
#002321:0000000000001323
#003361:13
#003321:00230000
#003370:00130000
#0033b0:0023
#0053b0:13
#005370:00230000
#005321:00130000
#005361:0023
#005381:0000000000000013
#006381:0023000000000000
#006350:0013230000000000
#0063b0:00001323
#006321:00001323
#007361:0000000000130000
#007321:0000000000000033
#008361:00003353330000000000000000000000
#008351:0000003300000000
#008321:0023
#0093b1:0000001300000000
#009381:0000000000230000
#0093b1:0000000000000013
#010381:0023000000000000
#011321:0000001300000000
#011351:0000000000230000
#011321:0000000000000013
#012351:0023000000000000
#0123b1:0000000000130000
#012391:00000000000000000000003300000000
#012371:00000023
#0133b1:0000001300000000
#013381:0000000000230000
#0133b1:0000000000000013
#014381:0023000000000000
#0143b1:0000000000130000
#014391:0000000000003333
#015371:23
#015320:13
#015340:0033330000000000
#015360:0000002300000000
#017370:13
#0173b0:0000002300000000
#017360:0013
#017320:0000000000000023
#018360:0000001300230000
#0193b0:13
#019370:0000002300000000
#019320:0013
#019360:0000000000000023
#020320:0000001300230000
#0213b0:1300000000000023
#021370:00000000000000530000000000000000
#0223b0:00000013
#023370:33
#0233b0:00230000
#023320:0000001300000023
#023360:0000000000330000
#024320:00001323
#024350:0000000000530000
#0243b1:00001323
#024381:0000000000530000
#0253b1:1300002300000000
#025371:00000053000000000000000000000000
#025321:0000000013000023
#025361:00000000000000000000005300000000
#0263b1:0000001333230000
#026320:0000000000133323
#027370:1300002300000000
#0273b0:00000053000000000000000000000000
#027360:0000000013000023
#027320:00000000000000000000005300000000
#0283b0:0000001300230000
#029320:1300000000000023
#029360:00000000000000530000000000000000
#031370:13
#0313b0:00230000
#031360:0000001300000000
#031320:0000000000230000
#032380:00001323
#0323b0:0000000000530000
#032351:00001323
#032321:0000000000530000
#033371:0000000000000013
#0343b1:0023000000000000
#0343b1:0000001300002300
#034371:00000000000000000053000000000000
#034360:0000001300002300
#034320:00000000000000000053000000000000
#035360:0000000000000013
#036320:53
#036360:0023000000000000
#0353b1:0000000000000013
#036371:53
#0363b1:0023000000000000
#036371:00001323
#0363b1:0000000000530000
#036320:00001323
#036360:0000000000530000
#039350:13230000
#039320:0053000000000000
#039381:13230000
#0393b1:0053000000000000
#0393a1:0000000000000012
#040381:56
#0403a1:0022000000000000
#040341:00122200
#040321:0000005600000000
#041351:00001323
#042321:0000001323000000
#0453b1:13
#045371:00230000
#045361:0013
#045321:0000000000230000
#045321:0000000000000013
#046361:0023000000000000
#047321:13230000
#047351:0053000000000000
#047380:13230000
#0473b0:0053000000000000
#0473b0:00001323
#047380:0000000000530000
#047351:00001323
#047321:0000000000530000
#051381:0000000000000013
#052381:0023000000000000
#054321:0000001300000000
#054361:0000000000230000
#056361:0000001300000000
#056321:0000000000230000
#0623b1:0000001300000000
#062371:0000000000230000
#064371:0000001300000000
#0643b1:0000000000230000
#065321:1323
#065361:00530000
#0653b0:0013
#065370:00000053
#0663b0:23
#066321:1323
#066361:00530000
#0663b0:0013
#066370:00000053
#0673b0:23
#067331:1353535353230000
#067341:00530000005300000053000000000000
#067321:00000053000000530000000000000000
#070321:13
#070361:0023000000000000
#070370:13
#0703b0:0023000000000000
#0703b0:00130000
#070370:0000002300000000
#070361:00130000
#070321:0000002300000000
#070391:00000000000000000000000000001454
#0703a1:0000000000000000000000000000000000000000000000000000000000540000
#070381:0000000000000000000000000000000000000000000000000000000000000054
#071391:54545454240000000000000000000000
#0713a1:0054000000540000000000000000000000000000000000000000000000000000
#071381:0000005400000054000000000000000000000000000000000000000000000000
#070330:00000000000000000000000000001454
#070340:0000000000000000000000000000000000000000000000000000000000540000
#070320:0000000000000000000000000000000000000000000000000000000000000054
#071330:54545454240000000000000000000000
#071340:0054000000540000000000000000000000000000000000000000000000000000
#071320:0000005400000054000000000000000000000000000000000000000000000000
#0733a0:0000001400000000
#073360:0000000000240000
#075360:0000001400000000
#075320:0000000000240000
#0803a0:0000001400000000
#080360:0000000000240000
#081320:0000001400000000
#081360:0000000000240000
#083360:0000001400000000
#0833a0:0000000000240000
#084320:1424
#084360:00540000
#0843a1:0014
#084361:00000054
#0853a1:24
#085320:1424
#085360:00540000
#0853a1:0014
#085361:00000054
#0863a1:24
#086330:1454545454240000
#086340:00540000005400000054000000000000
#086320:00000054000000540000000000000000
#088320:13
#088360:00230000
#0883b1:00130000
#088371:0023
#0883b1:0000000000000013
#0893b1:0023000000000000
#089350:0013230000000000
#089381:0000132300000000
#089320:0000001323000000
#089381:0000000013230000
#089350:0000000000132300
#0893b1:0000000000001323
#0903b1:13
#090371:00230000
#090320:00130000
#090360:0023
#092360:13
#092320:00230000
#092371:00130000
#0923b1:0023
#092351:0000000000000013
#093351:0023000000000000
#093380:0013230000000000
#0933b0:00001323
#093321:00001323
#094371:0000000000130000
#0943b1:0000000000000033
#095371:00003353330000000000000000000000
#095381:0000003300000000
#0953b1:0023
