This file was generated by Ched 2.6.4.0.
#TITLE ""
#ARTIST ""
#DESIGNER ""
#DIFFICULTY 0
#PLAYLEVEL
#SONGID ""
#WAVE ""
#WAVEOFFSET 0
#JACKET ""
#REQUEST "ticks_per_beat 480"
#00002: 4
#BPM01: 210
#00008: 01
#TIL00: ""
#HISPEED 00
#MEASUREHS 00
#00018:13001414
#00015:00130000
#00014:0000000000140000
#00118:13130000
#00112:13130000
#0011b:0013
#00115:0000000000130000
#00218:0000000000130013
#00215:00000013
#00212:00131300
#0021b:0000001300000000
#00315:13130000
#0031b:13130000
#00312:0000000013000013
#00318:0000000000130000
#00418:1323
#00415:0013000000000000
#0041b:00130000
#00412:0000001300000000
#0051b:13001313
#00515:1300000000130000
#00518:00130000
#00512:00130000
#00718:1300130000130000
#00715:0013001300000013
#00712:0000000000130000
#0071b:0000000000000013
#00818:0013000000000000
#00812:00130000
#0081b:0000001300000000
#00815:0013
#08815:13130000
#0881b:13130000
#08812:0013
#08818:0000000000130000
#08915:0000000000130013
#08918:00000013
#0891b:00131300
#08912:0000001300000000
#09018:13130000
#09012:13130000
#0901b:0000000013000013
#09015:0000000000130000
#09115:1313
#09118:0013000000000000
#09112:00130000
#0911b:0000001300000000
#09212:13001313
#09218:1300000000130000
#09215:00130000
#0921b:00130000
#09415:1300130000130000
#09418:0013001300000013
#0941b:0000000000130000
#09412:0000000000000013
#09515:0013000000000000
#0951b:00130000
#09512:0000001300000000
#09518:0013
#00915:0013000000001300
#00918:00130000
#00912:0000001300000000
#0091b:2300000000130013
#00910:41
#01012:0013000000000000
#01018:0000130000130013
#01015:0000001300001300
#0101b:0000001300000000
#01112:1300000000130013
#01118:0013000000001300
#01115:00130000
#0111b:0000001300000000
#0121b:0013000000000013
#01215:00130013
#01218:0000001300130000
#01212:0013
#01315:1300000000130000
#01318:0013000000001300
#01312:0000130000000013
#0131b:0000001300000000
#0141b:0013000000000000
#01415:0000130000000013
#01418:0000001300001300
#01412:0000001300130000
#01518:1300000000130024
#01512:0013000000000000
#0151b:00130000
#01515:0000001300001300
#01818:13000013
#01815:0000000000000013
#01812:0000000000130000
#0181b:0000001300000000
#0201b:1300000000000013
#02012:0000001300000000
#02018:0000000000130000
#02015:00000013
#02112:13
#02116:00000000000000130000000000000000
#0221b:0013000000000000
#02218:00130000
#02215:0000001300000000
#02415:00131300
#0241b:0013001300000000
#02615:1313
#02617:0000000000000013
#02613:00000013
#02619:0000000000130000
#0261b:0000001300000000
#02812:1300000000000013
#0281b:0000001300000000
#02815:0000000000130000
#02818:00000013
#0291b:13
#02917:00000000000000130000000000000000
#03012:0013000000000000
#03015:00130000
#03018:0000001300000000
#03218:00131300
#03212:0013001300000000
#03315:00000013
#03318:2424
#03314:00240000
#03418:00130000
#03518:00000013
#03512:2424
#0351a:00240000
#03615:00130000
#03618:0000001300000000
#03718:12
#03716:00120000
#03714:0012
#0371a:0000000012001324
#03713:00000013
#03712:0000000000000024
#03710:41
#03815:0000000000130013
#03818:0024002400001300
#03814:00240000
#03912:13
#0391b:13
#03919:0000000000000023
#03914:0000000000000023
#0411b:00001313
#04115:00001313
#04112:23130000
#04118:23130000
#0411f:11
#04512:13
#0451b:00130000
#04518:2300000023000023
#04515:0000230000230000
#04618:00130013
#0461b:0013
#04612:0023000000000023
#04615:0000002300230000
#0471b:13230000
#04718:0013000000000000
#04712:00001323
#04715:0000000000130000
#05016:1414
#05118:13001313
#05115:0000130000130000
#05112:0000000000000013
#0511b:0000000000000013
#05215:0013001300000000
#05218:00130000
#0521b:00001313
#05212:0000000000130013
#0531b:00000013
#05312:0000000000000013
#05315:0000001300130000
#05318:0013
#05316:24
#0531f:21
#05416:14
#0541b:00000013
#05412:0000000000000013
#05518:13001313
#05515:0013000000130000
#0551b:00130000
#05512:0000001300000000
#05514:0000000000000014
#05510:41
#05618:00000013
#05615:0000000000000013
#05718:13130000
#05715:00000013
#05818:00130013
#05812:0000130000000013
#0591b:0013001300000023
#05915:0000130000000023
#05912:0000000000130000
#05918:00000013
#06012:00001313
#0601b:0023230000130013
#06015:0023230000000000
#06112:00000013
#0611b:0000000000000013
#06118:0000001300130000
#06115:0013
#06116:24
#06216:14
#06212:00000013
#0621b:0000000000000013
#06415:00000013
#06418:0000000000000013
#06414:14
#06512:1300000000000013
#06515:00130000
#0661b:1300000000000013
#06618:00130000
#06714:0013000000000013
#06719:0000000000000013
#06713:13131300
#06712:0000001300000000
#06819:0014001400000023
#06813:00141400
#06814:0000000000000023
#0701b:13130000
#07012:0013001300000000
#07016:0000000000000000000000000000000000000000000000000000000000160000
#07015:00000000000000000000230000002616
#07014:0000000000000000000000000000000000000000000000000000000000000016
#07018:00002323
#07115:16161616000000000000000000000000
#07116:0016000000160000000000000000000000000000000000000000000000000000
#07114:0000001600000016000000000000000000000000000000000000000000000000
#0711a:00001414
#07112:0000000000140014
#0721a:00000014
#07212:0000000000000014
#07214:0000001400140000
#07218:0014
#07215:26
#07210:41
#0731a:00000014
#07312:0000000000000014
#07315:26
#07418:14001414
#07414:0014000000140000
#0741a:00140000
#07412:0000001400000026
#07518:00000014
#07514:0000000000000014
#07618:14
#07617:00140000
#07615:00000014
#0761a:0024
#07712:2400140000000014
#07718:00000014
#07717:00140000
#0771a:0024
#07715:0024
#0781a:0014001400000000
#07814:00140000
#07812:0000000000140024
#07818:0000000000001424
#08314:00000014
#08318:0000000000000014
#08312:26
#08412:1400000000000014
#08415:00140000
#08410:41
#07912:00001414
#0791a:0024240000140014
#07914:0024240000000000
#08012:00000014
#0801a:0000000000000014
#08018:0000001400140000
#08014:0014
#08015:26
#0851a:1400000000000014
#08517:00140000
#08613:1400140014000024
#08614:0014000000000000
#08612:0000001400000000
#08619:0000000000000024
#0871b:0013
#08715:0000000000130000
#08718:00240013
#08712:0024000000000013
#08714:0000002400000000
#06315:13001313
#06318:0013000000130013
#06312:00130000
#0631b:0000001300000000
#08112:00000014
#0811a:0000000000000014
#08115:26
#08214:14001414
#08218:0014000000140014
#08212:00140000
#0821a:0000001400000000
#0421b:00001313
#04215:00001313
#04218:13130000
#04212:13130000
#04418:1313
#04412:1313
#04415:00130000
#0441b:00130000
#04416:00000014
#01614:0024000000000000
#0161a:0000002400000000
#01612:0024
#0401a:0024002400000000
#04012:00242400
#04814:00240000
#04818:2325
#04812:00000026
#06913:0024002400000000
#06919:00242400
#02510:41
#00058:00000014
#00458:0013
#00652:00000013
#0065b:00000013
#00855:0013
#09558:0013
#09352:00000013
#0935b:00000013
#00952:0000001300000000
#0095b:0000000000000013
#0115b:0000001300000000
#01152:0000000000000013
#0135b:0000001300000000
#01352:0000000000000013
#01555:0000001300000000
#01558:0000000000000014
#01654:0014000000000000
#01652:0014
#01858:13
#0205b:13
#02156:00000000000000230000000000000000
#02152:53
#02655:13
#02852:13
#0295b:63
#02957:00000000000000230000000000000000
#0345b:00000013
#03652:00000013
#03952:0013
#0395b:0013
#04052:0014
#0475b:63430000
#04758:0023000000000000
#04752:00005333
#04755:0000000000230000
#04854:00340000
#04858:4345
#04852:00000036
#05356:14
#05456:14
#05554:0000000000000014
#0575b:0013
#05758:00530000
#05755:00000063
#05852:13530000
#05855:0013
#0585b:0013
#05858:00530000
#06256:14
#06156:14
#06552:53
#06555:00230000
#0665b:63
#06658:00230000
#06959:0014
#06853:0014
#07056:0000000000000000000000000000000000000000000000000000000000260000
#07055:00000000000000000000000000005656
#07054:0000000000000000000000000000000000000000000000000000000000000026
#07155:56565656000000000000000000000000
#07156:0026000000260000000000000000000000000000000000000000000000000000
#07154:0000002600000026000000000000000000000000000000000000000000000000
#07657:00540000
#07655:00000064
#0765a:0014
#08452:54
#08455:00240000
#07255:16
#07355:16
#07452:0000000000000016
#07757:00540000
#07752:14540000
#0775a:0014
#07755:0014
#08055:16
#08155:16
#08352:16
#0855a:64
#08557:00240000
#06754:0023000000000000
#06752:0000002300000000
#06753:53535300
#08653:54545400
#08652:0000002400000000
#08654:0024000000000000
#06454:14
#09155:0013
#03358:1414
#03354:00140000
#03552:1414
#0355a:00140000
#0013b0:0000000000000013
#0023b0:0023000000000000
#005350:0000000000000013
#006350:0033230000000000
#0063b0:00001323
#006321:00001323
#017381:13
#0173b1:0000002300000000
#017351:0013
#017321:0000000000000023
#0193b1:13
#019381:0000002300000000
#019321:0013
#019351:0000000000000023
#021321:1300000000000023
#021361:00000000000000530000000000000000
#0223b1:00000013
#023371:33
#0233b1:00230000
#023321:0000001300000023
#023361:0000000000330000
#025351:13
#025321:0000002300000000
#025381:0013
#0253b1:0000000000000023
#027321:13
#027351:0000002300000000
#0273b1:0013
#027381:0000000000000023
#0293b1:1300000000000023
#029371:00000000000000530000000000000000
#030321:00000013
#031361:33
#031321:00230000
#0313b1:0000001300000023
#031371:0000000000330000
#033351:0000000000000013
#034321:0023000000000000
#034381:0000001300000000
#0343b1:00000023
#035381:0000000000000013
#0363b1:0023000000000000
#036351:0013
#036321:00000023
#0393b1:0000001323000000
#039320:0000001323000000
#043380:13
#0433b0:00230000
#043321:13
#043351:00230000
#0433b1:0013
#043381:00000023
#043350:0013
#043320:00000023
#0473b0:13230000
#047380:0053000000000000
#047320:00001323
#047350:0000000000530000
#054320:0000001300000000
#054350:0000000000230000
#056320:0000001300000000
#056350:0000000000230000
#057380:00130000
#0573b0:0023
#057350:00000013
#058320:23
#058320:00130000
#058350:0023
#058381:00130000
#0583b1:0023
#0623b1:0000001300000000
#062381:0000000000230000
#0643b1:0000001300000000
#064381:0000000000230000
#065321:1323
#065351:00530000
#0663b1:1323
#066381:00530000
#067331:13535300
#067341:0053000000230000
#067321:0000005300000000
#070351:00000000000000000000000000001656
#070361:0000000000000000000000000000000000000000000000000000000000560000
#070341:0000000000000000000000000000000000000000000000000000000000000056
#071351:56565656260000000000000000000000
#071361:0056000000560000000000000000000000000000000000000000000000000000
#071341:0000005600000056000000000000000000000000000000000000000000000000
#073321:0000001400000000
#073351:0000000000240000
#075321:0000001400000000
#075351:0000000000240000
#076371:00140000
#0763a1:0024
#076351:00000014
#077321:24
#077371:00140000
#0773a1:0024
#077320:00140000
#077350:0024
#0813a0:0000001400000000
#081370:0000000000240000
#0833a0:0000001400000000
#083370:0000000000240000
#084320:1424
#084350:00540000
#0853a0:1424
#085370:00540000
#086330:14545400
#086340:0054000000240000
#086320:0000005400000000
#088320:0000000000000013
#089320:0023000000000000
#092380:0000000000000013
#093380:0033230000000000
#093320:00001323
#0933b1:00001323
